osu file format v5

[General]
AudioFilename: Haru - Saigetsu (Instrumental).mp3
AudioLeadIn: 0
PreviewTime: -1
Countdown: 0
SampleSet: Soft
StackLeniency: 0.3
Mode: 0
LetterboxInBreaks: 1
EditorDistanceSpacing: 1

[Metadata]
Title:Broken Moon (Instrumental)
Artist:Haru
Creator:Shinxyn
Version:Hard
Source:Viotex Instrumentals
Tags:Techno Touhou Instrumental Viotex Nexy

[Difficulty]
HPDrainRate:5
CircleSize:5
OverallDifficulty:7
SliderMultiplier:1.4
SliderTickRate:0.5

[Events]
//Background and Video events
0,0,"2rqkack.png"
//Break Periods
2,119904,127418
//Storyboard Layer 0 (Background)
//Storyboard Layer 1 (Failing)
//Storyboard Layer 2 (Passing)
//Storyboard Layer 3 (Foreground)
//Storyboard Sound Samples
//Background Colour Transformations
3,100,163,162,255

[TimingPoints]
20199,594.059405940594,4,2,1,30,1,0
40249,-100,4,2,1,40,0,0
61932,-100,4,1,1,50,0,0
81833,-100,4,2,1,50,0,0
84506,-100,4,2,1,70,0,0
84655,-100,4,2,1,91,0,0
84952,-100,4,1,1,50,0,0
85100,-100,4,1,1,60,0,0
100843,-100,4,2,1,50,0,0
103219,-100,4,1,1,50,0,0
128170,-100,4,1,1,60,0,0
136975,-100,4,2,1,50,0,0
160323,-100,4,2,1,90,0,0
197675,-100,4,1,1,69,0,0
217279,-100,4,2,1,30,0,0
233912,-200,4,2,1,30,0,0
235249,-200,4,2,1,0,0,0
236734,-100,4,2,1,30,0,0

[Colours]
Combo1 : 0,107,215
Combo2 : 255,0,0
Combo3 : 255,255,255
Combo4 : 255,0,128

[HitObjects]
136,64,20199,2,0,B|64:64|80:144,1,70
136,136,20793,2,0,B|208:136|176:216,1,70
120,208,21388,2,0,B|136:264|224:232,1,70
185,172,21982,2,0,B|193:92|273:148,1,70,2|2
256,184,22576,6,0,B|256:264|344:224,2,70,0|2|2
256,112,23467,1,2
320,80,23764,2,0,B|408:80|376:168,2,70,0|2|2
256,112,24655,1,2
256,184,24952,6,0,B|336:184|304:264,1,70
256,264,25546,2,0,B|272:320|344:272,1,70,2|2
313,215,26140,2,0,B|378:228|369:127,1,70,0|0
304,152,26734,6,0,B|320:80|408:144,1,70,2|2
367,185,27328,2,0,B|347:238|291:206,1,70,0|0
304,152,27922,2,0,B|229:145|248:232|248:232,1,70,2|2
310,218,28516,6,0,B|310:290|222:250,2,70,0|2|2
304,150,29407,1,2
304,150,29556,1,2
304,150,29704,1,2
256,96,30001,6,0,B|208:80|200:144,2,70,0|2|2
304,152,30893,2,0,B|216:152|272:248,1,70
296,248,31487,2,0,B|312:200|376:216,1,70,2|2
360,280,32081,1,2
360,280,32378,1,0
312,328,32675,6,0,B|232:328,1,70,2|2
168,328,33269,1,2
168,328,33417,1,2
168,328,33566,1,2
104,296,33863,1,0
56,240,34160,1,2
56,168,34457,6,0,B|56:104|136:128,1,70,2|2
120,184,35051,1,2
120,184,35348,1,0
192,184,35645,6,0,B|216:248|104:248,1,70,2|2
120,184,36239,1,2
120,184,36536,1,0
56,168,36833,6,0,B|56:104|136:128,2,70,2|2|2
336,192,38021,5,4
88,56,38615,1,4
88,328,39209,1,4
328,192,40397,5,0
328,192,40695,1,2
216,192,40992,1,2
216,192,41289,1,0
104,192,41586,1,0
104,192,41883,1,0
134,128,42180,1,0
186,82,42477,1,2
248,64,42774,6,0,B|328:96,1,70
376,120,43368,1,0
400,184,43665,1,2
328,192,43962,2,0,B|384:296,1,70
328,312,44556,1,0
280,256,44853,1,2
208,256,45150,2,0,B|144:328,1,70
120,256,45744,5,0
112,224,45893,1,0
120,192,46041,1,2
144,128,46338,1,0
120,64,46635,2,0,B|216:64,1,70
216,128,47229,1,2
184,192,47526,2,0,B|264:192,1,70
288,128,48120,5,2
320,128,48269,1,2
352,128,48417,1,2
376,192,48714,2,0,B|296:192,1,70
288,256,49308,1,0
320,256,49457,1,0
352,256,49605,1,2
376,320,49902,2,0,B|288:320,1,70
168,272,50496,5,2
120,136,50794,1,2
256,176,51091,6,0,B|336:176,1,70
396,176,51685,2,0,B|316:176,1,70,0|2
325,176,52279,1,0
325,245,52576,1,0
325,175,52873,1,0
325,105,53170,1,2
256,104,53467,5,0
160,152,53764,1,0
256,192,54061,1,0
160,232,54358,1,2
256,280,54655,1,0
352,232,54952,1,0
256,192,55249,1,2
352,144,55546,1,2
256,192,55843,1,2
256,192,56140,5,0
152,192,56437,2,0,B|104:192,2,35,2|2|2
256,192,57031,1,0
256,192,57328,5,0
360,192,57625,2,0,B|408:192,2,35,2|2|2
256,192,58219,1,0
156,254,58516,6,0,L|164:286|220:286,1,70
308,286,59110,2,0,L|348:286|364:246,1,70
256,32,60001,1,0
256,192,60596,12,0,61784
256,192,62081,5,4
256,192,62378,1,0
256,192,62675,1,0
344,120,62972,5,0
256,192,63269,1,8
168,120,63566,2,2,B|128:184,1,70,10|2
130,179,64160,1,0
128,248,64457,2,0,B|176:312,1,70,2|8
170,304,65051,1,0
280,304,65348,5,0
280,304,65645,1,0
392,304,65942,2,0,B|392:224,1,70,8|0
392,234,66536,1,0
392,304,66833,1,0
320,304,67130,5,8
264,344,67427,1,0
208,304,67724,1,0
152,344,68021,1,0
96,304,68318,1,8
152,344,68615,6,2,B|216:296,1,70
264,264,69209,1,0
320,224,69506,1,8
272,176,69803,1,2
216,216,70100,1,2
264,264,70397,1,2
320,224,70695,2,0,B|360:224,3,23.3333333333333,8|0|0|0
272,176,71289,1,0
272,176,71437,1,0
272,176,71586,1,0
320,224,71883,1,8
424,192,72180,5,0
344,112,72477,1,0
256,40,72774,1,0
256,40,73071,1,8
168,112,73368,1,0
88,192,73665,1,0
88,192,74259,5,8
88,192,74556,1,0
88,192,74853,1,0
168,272,75298,1,0
184,304,75447,1,8
216,320,75596,1,0
256,320,75744,1,0
237,247,76041,1,4
176,206,76635,6,0,B|208:168|256:176|256:176,1,70,8|2
237,247,77229,1,4
312,248,77526,2,0,B|307:307|259:313,1,70,2|10
237,247,78120,1,0
206,184,78417,2,2,B|238:248,1,70
304,272,79011,1,8
384,192,79308,5,0
288,128,79605,1,0
208,208,79902,1,0
320,288,80199,1,8
416,192,80496,1,0
312,96,80794,1,0
200,176,81091,5,2
288,280,81388,1,8
200,176,81685,1,2
208,256,81982,5,4
80,200,82576,1,0
128,144,82873,1,0
176,88,83170,2,0,L|224:32|280:104,1,140,2|0
312,144,84061,1,2
360,192,84358,5,0
384,216,84506,1,0
408,240,84655,1,0
432,264,84803,1,0
456,288,84952,1,8
392,320,85249,1,0
328,296,85546,1,8
296,312,85695,1,8
264,296,85843,1,0
200,256,86140,1,8
168,232,86289,1,8
136,256,86437,1,0
72,232,86734,6,0,L|80:176|120:168,1,70,0|0
126,162,87328,2,0,L|136:104|176:96,1,70,8|0
181,93,87922,2,0,L|192:144|232:152,1,70,0|0
244,151,88516,1,8
244,151,88665,1,8
244,151,88813,1,0
280,88,89110,6,0,L|320:88|360:128,2,70,0|0|8
280,88,89803,2,8,L|240:88,2,23.3333333333333,8|8|0
224,40,90298,1,8
176,88,90596,2,0,L|128:88|88:128,1,70
112,176,91190,1,0
112,248,91487,5,4
304,328,92081,1,0
336,80,92675,1,4
112,248,93269,1,0
168,208,93566,1,0
224,248,93863,1,0
296,248,94160,6,0,L|320:216,1,35,0|0
317,220,94457,2,0,L|288:192,1,35,8|0
291,195,94754,2,0,L|320:160,1,35,8|0
313,168,95051,2,0,L|272:96,1,70,8|0
312,168,95645,5,0
416,168,95942,1,0
312,168,96239,1,8
104,168,96833,5,8
208,168,97130,1,0
104,168,97427,1,8
208,224,97724,1,0
104,168,98021,1,8
208,280,98318,1,8
104,168,98615,1,8
104,168,98912,6,0,L|104:80,1,70,0|8
152,184,99506,2,0,L|152:112,1,70,0|8
200,208,100100,2,0,L|200:128,1,70,4|0
248,232,100695,1,0
328,296,100992,5,0
368,192,101289,2,0,B|320:192,1,35,2|0
296,192,101586,2,0,B|248:192,1,35,2|0
224,192,101883,2,0,B|168:192,1,35,2|0
152,192,102180,1,2
152,192,102477,1,0
224,192,102774,6,0,B|224:264,1,70
296,192,103368,2,0,B|296:264,1,70,8|2
360,280,103962,1,8
312,336,104259,1,0
240,336,104556,1,2
192,280,104853,1,0
192,208,105150,6,0,B|144:136,1,70,8|0
153,149,105744,1,0
256,56,106041,1,0
153,149,106338,1,8
288,136,106635,1,0
153,149,106932,1,0
256,224,107229,1,0
153,149,107526,1,8
176,280,107823,1,0
153,149,108120,1,0
224,152,108417,6,0,B|296:184,1,70,2|0
296,216,108863,2,0,B|224:256,1,70,2|0
232,288,109308,2,0,B|296:344|296:344,2,70,2|0|8
232,216,110199,5,0
304,216,110496,1,0
304,144,110794,2,0,B|232:144,1,70,0|8
234,144,111388,5,0
234,144,111685,1,0
256,280,112279,6,0,B|256:200,1,70,8|0
256,136,112873,1,0
256,208,113170,1,0
256,280,113467,1,8
256,208,113764,2,2,B|256:136,1,70
384,192,114655,5,8
256,136,114952,1,0
128,192,115249,1,0
232,296,115843,5,8
280,296,115992,1,0
256,264,116140,1,0
256,264,116437,2,0,B|256:176,1,70
256,124,117031,2,0,B|256:204,1,70,8|2
256,194,117625,1,6
392,192,117922,5,8
256,194,118219,1,0
112,192,118516,1,8
256,192,118813,12,4,119704
256,232,128318,5,0
256,192,128467,1,8
256,152,128615,1,0
256,152,128912,1,0
256,192,129061,1,8
256,232,129209,1,0
256,304,129506,6,0,L|304:288|304:248,1,70
304,200,130100,1,8
304,56,130695,2,0,L|264:56|256:56,2,35,0|0|0
304,128,131289,1,8
232,128,131586,1,8
160,128,131883,5,0
128,128,132031,1,8
96,128,132180,1,0
128,184,132477,2,8,B|128:264,1,70,8|0
96,312,133071,1,0
128,312,133219,1,8
160,312,133368,1,0
200,256,133665,2,8,L|200:160,2,70,8|8|0
272,256,134556,5,0
272,184,134853,1,8
342,184,135150,2,0,L|262:184,1,70
272,216,135596,1,8
272,254,135744,2,0,L|188:254,1,70,0|8
200,184,136338,2,0,L|200:112,1,70,0|4
137,63,136932,5,2
65,183,137229,1,0
201,183,137526,1,2
137,303,137823,1,2
393,183,138417,1,4
256,192,139011,12,0,140199
256,192,140497,5,0
368,112,140794,1,0
256,192,141091,1,0
144,112,141388,1,2
256,192,141685,2,0,L|192:248|160:192,1,140
256,192,142576,1,2
368,272,142873,5,0
368,272,143021,1,0
368,272,143170,1,0
256,192,143467,1,0
144,272,143764,1,2
256,192,144061,2,0,L|320:136|352:192,1,140
256,192,144952,1,2
120,168,145249,5,2
88,192,145397,1,2
120,216,145546,1,2
256,192,145843,1,0
256,192,145992,1,0
256,192,146140,1,2
392,168,146437,5,2
424,192,146586,1,2
392,216,146734,1,0
256,192,147031,1,0
232,56,147328,5,2
256,24,147477,1,0
280,56,147625,1,0
256,192,147922,2,0,L|256:264,2,70
256,262,148813,1,4
256,192,149110,2,0,L|256:152,3,23.3333333333333
256,192,149704,1,0
328,312,150298,6,0,L|400:272|360:216,1,140,0|2
256,192,151190,1,2
184,72,151487,6,0,L|112:112|152:168,1,140,0|2
256,192,152378,1,2
328,72,152675,6,0,L|400:112|360:168,1,140,0|2
256,192,153566,1,2
184,312,153863,6,0,L|112:272|152:216,1,140,0|4
280,248,155051,5,0
320,192,155348,1,0
280,136,155645,1,2
152,192,156239,2,0,L|152:152,1,35,2|0
152,192,156536,2,0,L|152:240,1,35,2|0
152,192,156833,2,0,L|104:192,2,35,0|0|2
256,96,157427,5,4
360,192,157724,1,4
152,192,158021,1,4
312,136,159209,6,8,L|280:168,1,35
287,160,159506,2,0,L|242:204,1,35
261,184,159803,2,8,L|222:224,1,35
236,209,160100,2,0,L|184:264,1,70,0|2
88,208,160992,6,0,L|72:176|104:128,1,70,0|8
136,176,161586,1,2
160,176,161734,1,2
184,176,161883,1,2
240,176,162180,1,8
240,176,162477,5,0
296,176,162774,1,0
352,184,163071,1,0
392,224,163368,1,8
432,264,163665,1,0
392,304,163962,1,2
360,304,164110,1,2
328,304,164259,1,2
288,264,164556,1,8
248,304,164853,5,2
288,264,165150,1,0
328,224,165447,2,0,L|264:160,1,70,0|8
240,136,166041,1,0
240,192,166338,1,0
240,136,166635,2,0,L|240:48,1,70,2|8
184,64,167229,1,0
184,120,167526,5,0
184,144,167675,1,0
184,168,167823,1,2
184,224,168120,1,8
184,248,168269,1,0
184,272,168417,1,2
184,328,168714,1,2
408,320,169308,5,8
392,208,169605,1,2
336,112,169902,1,0
184,280,170496,1,10
240,64,171091,5,0
208,56,171239,1,0
176,64,171388,1,2
176,120,171685,1,8
208,128,171833,1,0
240,120,171982,1,2
184,216,172279,5,0
184,216,172576,1,2
296,216,172873,1,8
296,216,173170,1,2
240,312,173467,2,0,L|240:256,2,35,2|0|2
240,200,174061,1,8
240,200,174358,1,2
352,200,174655,1,2
128,200,175249,5,8
128,256,175397,1,0
128,200,175546,1,2
128,88,175843,1,0
240,88,176140,2,0,L|296:88,1,35,0|0
328,104,176437,2,0,L|360:136,1,35,8|0
368,184,176734,2,0,L|368:232,1,35
368,272,177031,1,2
256,192,177328,5,0
112,192,177625,1,8
184,72,177922,1,0
256,192,178219,1,2
328,312,178516,1,0
400,192,178813,1,10
256,192,179110,1,10
256,192,179407,5,0
88,320,180298,1,0
160,320,180596,1,0
232,312,180893,5,2
264,296,181041,1,2
288,264,181190,1,8
224,240,181487,1,0
216,168,181784,1,2
176,184,181932,1,2
152,216,182081,1,2
224,240,182378,1,8
224,240,182675,1,0
224,240,182972,1,4
330,120,183566,6,0,B|298:152,4,35,8|0|8|0|8
256,192,184457,1,2
256,192,184605,1,2
256,192,184754,1,10
152,288,185348,2,0,B|208:240,2,70,8|8|8
205,242,186239,1,2
232,216,186388,1,2
256,192,186536,1,2
344,304,187130,5,8
368,280,187279,1,0
393,255,187427,1,0
393,183,187724,1,0
393,255,188021,1,2
449,215,188318,1,8
393,255,188615,1,0
337,215,188912,1,4
256,56,190100,6,0,B|256:104,1,35,2|0
256,128,190397,2,0,B|256:176,3,35,8|8|8|8
256,200,190992,2,0,B|256:248,3,35,8|0|0|8
256,272,191586,2,0,B|256:320,1,35
224,320,191883,2,0,B|256:352|296:312,1,70,0|8
344,264,192477,5,2
344,120,192774,1,2
168,120,193071,1,8
168,264,193368,1,2
256,192,193665,1,4
256,192,194853,5,2
256,312,195447,6,0,B|256:264,3,35,8|0|0|0
256,240,196041,2,0,B|256:192,1,35,8|8
256,168,196338,2,0,B|256:128,1,35,0|8
256,96,196635,2,0,B|256:56,3,35,8|8|4|4
368,312,197823,5,8
256,312,198120,1,0
144,312,198417,1,0
256,120,199011,5,8
256,176,199160,1,0
256,120,199308,1,0
144,152,199605,1,0
256,176,199902,1,8
256,288,200199,5,8
256,232,200348,1,0
256,288,200496,1,0
368,256,200794,1,0
256,232,201091,1,8
144,232,201388,6,0,L|104:216|88:168,1,70,8|8
200,232,201982,2,0,L|240:224|264:168,1,70,8|0
144,232,202576,1,0
200,232,202724,1,0
171,280,202873,1,0
280,280,203170,1,8
224,184,203467,5,0
224,184,203615,1,0
256,168,203764,1,8
256,168,203912,1,8
288,152,204061,1,8
288,152,204209,5,0
320,168,204358,1,0
320,168,204506,1,8
352,184,204655,1,0
352,184,204803,1,0
320,200,204952,5,8
288,216,205100,1,8
256,200,205249,1,8
208,128,205546,5,0
112,72,205843,1,0
112,184,206140,2,0,L|144:184,4,17.5,0|0|0|0|8
112,184,206734,6,0,L|56:184,2,35,0|8|0
112,296,207328,2,0,L|160:296,2,35,0|8|0
112,184,207922,2,0,L|112:96,1,70,0|0
168,112,208516,1,8
224,112,208813,1,8
280,112,209110,1,0
360,184,209704,5,0
240,264,210001,1,0
360,184,210298,1,8
240,264,210596,1,8
240,232,210744,1,0
216,248,210893,1,8
216,272,211041,1,0
240,288,211190,1,8
264,280,211338,1,0
264,248,211487,1,8
136,192,211784,5,0
240,128,212081,5,0
240,128,212229,1,8
240,128,212378,1,0
296,128,212675,2,0,L|296:216,1,70
296,224,213120,1,0
296,248,213269,2,0,L|296:344,1,70,8|8
264,320,213714,1,8
232,320,213863,2,0,L|136:320,1,70,8|8
160,264,214457,5,0
160,208,214754,1,0
208,240,215051,1,0
208,96,215645,1,0
328,144,216239,5,0
304,128,216388,1,8
280,144,216536,1,0
328,112,216833,1,8
280,144,217130,1,8
240,88,217427,6,0,B|176:104|232:168,1,70
280,144,218021,1,2
232,200,218318,1,0
304,208,218615,6,0,B|368:224|312:296|312:296,1,70
264,272,219209,1,2
224,328,219506,1,0
168,288,219803,6,0,B|88:288|128:208,1,70
152,192,220397,1,2
200,144,220695,1,0
264,128,220992,5,0
328,144,221289,1,0
376,192,221586,1,2
360,256,221883,1,0
304,296,222180,2,0,B|232:296,1,70
304,296,222774,1,2
234,296,223071,1,0
160,296,223368,6,0,B|96:232,1,70
72,192,223962,1,2
104,128,224259,2,0,B|160:72,1,70,0|0
153,78,224853,5,0
104,128,225150,1,2
96,200,225447,1,0
104,269,225744,6,0,B|96:333|164:317,1,70,0|0
208,320,226338,1,2
136,320,226635,1,0
208,320,226932,1,0
256,192,227229,5,0
208,320,227526,1,2
144,192,227823,1,0
208,320,228120,5,0
336,272,228417,1,0
208,320,228714,1,2
256,192,229011,1,0
256,48,229308,5,0
256,192,229605,1,0
368,112,229902,1,2
256,192,230199,1,0
144,112,230496,5,0
256,192,230794,1,0
368,272,231091,1,2
256,192,231388,1,0
144,272,231685,1,0
144,272,231982,6,0,B|144:192,1,70,0|2
144,128,232576,1,0
256,128,232873,1,0
368,128,233170,2,0,B|368:200,1,70,0|2
368,264,233764,1,0
256,256,234061,6,0,B|296:192|192:192|272:112,2,140
