osu file format v12

[General]
AudioFilename: Earth Day.mp3
AudioLeadIn: 0
PreviewTime: 59376
Countdown: 0
SampleSet: Normal
StackLeniency: 0.7
Mode: 1
LetterboxInBreaks: 0
WidescreenStoryboard: 0

[Editor]
DistanceSpacing: 1.6
BeatDivisor: 2
GridSize: 8

[Metadata]
Title:Earth Day
TitleUnicode:Earth Day
Artist:Harry
ArtistUnicode:Harry
Creator:Moway
Version:Taiko Muzukashii
Source:
Tags:hatsune miku vocaloid mintong89 TheVileOne Byakugan249 UnitedWeSin
BeatmapID:193487
BeatmapSetID:65228

[Difficulty]
HPDrainRate:5
CircleSize:5
OverallDifficulty:5
ApproachRate:5
SliderMultiplier:1.4
SliderTickRate:1

[Events]
//Background and Video events
0,0,"bg.jpg",0,0
//Break Periods
//Storyboard Layer 0 (Background)
//Storyboard Layer 1 (Fail)
//Storyboard Layer 2 (Pass)
//Storyboard Layer 3 (Foreground)
//Storyboard Sound Samples
//Background Colour Transformations
3,100,163,162,255

[TimingPoints]
4779.49771001152,337.078651685393,4,1,0,70,1,0
60060,-100,4,1,0,70,0,1
81633,-100,4,1,0,70,0,0
119386,-100,4,1,0,70,0,1
140285,-100,4,1,0,70,0,0
146689,337.078651685393,4,1,0,70,1,0
168262,-100,4,1,0,70,0,1
189835,-100,4,1,0,70,0,0

[Colours]
Combo1 : 73,235,114
Combo2 : 235,206,41

[HitObjects]
256,192,4779,1,4,0:0:0:0:
256,192,5959,1,8,0:0:0:0:
256,192,6127,1,4,0:0:0:0:
256,192,7307,1,8,0:0:0:0:
256,192,7476,1,0,0:0:0:0:
256,192,8655,1,8,0:0:0:0:
256,192,8824,1,0,0:0:0:0:
256,192,9161,1,8,0:0:0:0:
256,192,9498,1,8,0:0:0:0:
256,192,9667,1,0,0:0:0:0:
256,192,9835,1,0,0:0:0:0:
256,192,10172,1,4,0:0:0:0:
256,192,10509,1,0,0:0:0:0:
256,192,10846,1,0,0:0:0:0:
256,192,11352,1,8,0:0:0:0:
256,192,11521,1,4,0:0:0:0:
256,192,11858,1,0,0:0:0:0:
256,192,12195,1,0,0:0:0:0:
256,192,12700,1,8,0:0:0:0:
256,192,12869,1,0,0:0:0:0:
256,192,13206,1,0,0:0:0:0:
256,192,13543,1,0,0:0:0:0:
256,192,14049,1,8,0:0:0:0:
256,192,14217,1,0,0:0:0:0:
256,192,14386,1,0,0:0:0:0:
256,192,14554,1,0,0:0:0:0:
256,192,14723,1,8,0:0:0:0:
256,192,14891,1,8,0:0:0:0:
256,192,15566,1,4,0:0:0:0:
256,192,15903,1,8,0:0:0:0:
256,192,16071,1,4,0:0:0:0:
256,192,16408,1,0,0:0:0:0:
256,192,16577,1,8,0:0:0:0:
256,192,16745,1,4,0:0:0:0:
256,192,17251,1,8,0:0:0:0:
256,192,17419,1,0,0:0:0:0:
256,192,17757,1,0,0:0:0:0:
256,192,17925,1,8,0:0:0:0:
256,192,18094,1,0,0:0:0:0:
256,192,18262,1,4,0:0:0:0:
256,192,18599,1,0,0:0:0:0:
256,192,18768,1,4,0:0:0:0:
256,192,19105,1,0,0:0:0:0:
256,192,19273,1,8,0:0:0:0:
256,192,19442,1,4,0:0:0:0:
256,192,19779,1,0,0:0:0:0:
256,192,19948,1,8,0:0:0:0:
256,192,20285,1,8,0:0:0:0:
256,192,20453,1,0,0:0:0:0:
256,192,20622,1,8,0:0:0:0:
256,192,20790,1,0,0:0:0:0:
256,192,20959,1,4,0:0:0:0:
256,192,21296,1,0,0:0:0:0:
256,192,21464,1,4,0:0:0:0:
256,192,21801,1,0,0:0:0:0:
256,192,21970,1,8,0:0:0:0:
256,192,22139,1,4,0:0:0:0:
256,192,22644,1,8,0:0:0:0:
256,192,22813,1,0,0:0:0:0:
256,192,23150,1,0,0:0:0:0:
256,192,23318,1,8,0:0:0:0:
256,192,23487,1,0,0:0:0:0:
256,192,23655,1,4,0:0:0:0:
256,192,23992,1,0,0:0:0:0:
256,192,24161,1,4,0:0:0:0:
256,192,24498,1,0,0:0:0:0:
256,192,24667,1,8,0:0:0:0:
256,192,24835,1,4,0:0:0:0:
256,192,25341,1,8,0:0:0:0:
256,192,25678,1,0,0:0:0:0:
256,192,25846,1,0,0:0:0:0:
256,192,26015,1,8,0:0:0:0:
256,192,26352,1,0,0:0:0:0:
256,192,26521,1,0,0:0:0:0:
256,192,26689,1,8,0:0:0:0:
256,192,27026,1,0,0:0:0:0:
256,192,27195,1,8,0:0:0:0:
256,192,27363,1,8,0:0:0:0:
256,192,27700,1,4,0:0:0:0:
256,192,28037,1,8,0:0:0:0:
256,192,28375,1,0,0:0:0:0:
256,192,28543,1,0,0:0:0:0:
256,192,28712,1,8,0:0:0:0:
256,192,29049,1,0,0:0:0:0:
256,192,29386,1,8,0:0:0:0:
256,192,29891,1,0,0:0:0:0:
256,192,30060,1,8,0:0:0:0:
256,192,30397,1,0,0:0:0:0:
256,192,30734,1,8,0:0:0:0:
256,192,31071,1,0,0:0:0:0:
256,192,31240,1,0,0:0:0:0:
256,192,31408,1,8,0:0:0:0:
256,192,31745,1,0,0:0:0:0:
256,192,32082,1,8,0:0:0:0:
256,192,32251,1,0,0:0:0:0:
256,192,32588,1,0,0:0:0:0:
256,192,32757,1,8,0:0:0:0:
256,192,33094,1,4,0:0:0:0:
256,192,33431,1,8,0:0:0:0:
256,192,33768,1,0,0:0:0:0:
256,192,33936,1,0,0:0:0:0:
256,192,34105,1,8,0:0:0:0:
256,192,34442,1,0,0:0:0:0:
256,192,34779,1,8,0:0:0:0:
256,192,34948,1,0,0:0:0:0:
256,192,35285,1,0,0:0:0:0:
256,192,35453,1,8,0:0:0:0:
256,192,35790,1,0,0:0:0:0:
256,192,36127,1,8,0:0:0:0:
256,192,36464,1,0,0:0:0:0:
256,192,36633,1,0,0:0:0:0:
256,192,36801,1,8,0:0:0:0:
256,192,37139,2,0,P|432:256|296:376,1,420
256,192,38487,1,4,0:0:0:0:
256,192,38824,1,8,0:0:0:0:
256,192,39161,1,0,0:0:0:0:
256,192,39330,1,0,0:0:0:0:
256,192,39498,1,8,0:0:0:0:
256,192,39835,1,0,0:0:0:0:
256,192,40004,1,0,0:0:0:0:
256,192,40172,1,8,0:0:0:0:
256,192,40341,1,0,0:0:0:0:
256,192,40678,1,0,0:0:0:0:
256,192,40846,1,8,0:0:0:0:
256,192,41183,1,0,0:0:0:0:
256,192,41521,1,8,0:0:0:0:
256,192,41858,1,0,0:0:0:0:
256,192,42026,1,0,0:0:0:0:
256,192,42195,1,8,0:0:0:0:
256,192,42532,1,0,0:0:0:0:
256,192,42700,1,0,0:0:0:0:
256,192,42869,1,8,0:0:0:0:
256,192,43037,1,0,0:0:0:0:
256,192,43375,1,0,0:0:0:0:
256,192,43543,1,8,0:0:0:0:
256,192,43880,1,4,0:0:0:0:
256,192,44217,1,8,0:0:0:0:
256,192,44554,1,0,0:0:0:0:
256,192,44723,1,0,0:0:0:0:
256,192,44891,1,8,0:0:0:0:
256,192,45228,1,0,0:0:0:0:
256,192,45566,1,8,0:0:0:0:
256,192,45903,1,0,0:0:0:0:
256,192,46071,1,0,0:0:0:0:
256,192,46240,1,8,0:0:0:0:
256,192,46577,1,0,0:0:0:0:
256,192,46914,1,8,0:0:0:0:
256,192,47419,1,0,0:0:0:0:
256,192,47588,1,8,0:0:0:0:
256,192,47925,2,0,P|80:200|200:328,1,420
256,192,49273,1,4,0:0:0:0:
256,192,49948,1,8,0:0:0:0:
256,192,50285,1,0,0:0:0:0:
256,192,50622,1,0,0:0:0:0:
256,192,50790,1,8,0:0:0:0:
256,192,50959,1,0,0:0:0:0:
256,192,51296,1,8,0:0:0:0:
256,192,51633,1,0,0:0:0:0:
256,192,51970,1,4,0:0:0:0:
256,192,52307,1,0,0:0:0:0:
256,192,52476,1,0,0:0:0:0:
256,192,52644,1,8,0:0:0:0:
256,192,52981,1,0,0:0:0:0:
256,192,53318,1,0,0:0:0:0:
256,192,53487,1,8,0:0:0:0:
256,192,53655,1,0,0:0:0:0:
256,192,53992,1,8,0:0:0:0:
256,192,54161,1,0,0:0:0:0:
256,192,54667,1,4,0:0:0:0:
256,192,54835,1,0,0:0:0:0:
256,192,55004,1,0,0:0:0:0:
256,192,55341,1,8,0:0:0:0:
256,192,55678,1,0,0:0:0:0:
256,192,56015,1,0,0:0:0:0:
256,192,56352,1,8,0:0:0:0:
256,192,56689,1,0,0:0:0:0:
256,192,56858,1,0,0:0:0:0:
256,192,57026,1,8,0:0:0:0:
256,192,57363,1,4,0:0:0:0:
256,192,57700,1,8,0:0:0:0:
256,192,57869,1,0,0:0:0:0:
256,192,58037,1,0,0:0:0:0:
256,192,58375,1,8,0:0:0:0:
256,192,58712,2,0,L|400:192,3,140
256,192,60060,1,4,0:0:0:0:
256,192,60397,1,8,0:0:0:0:
256,192,60566,1,0,0:0:0:0:
256,192,60734,1,0,0:0:0:0:
256,192,61071,1,8,0:0:0:0:
256,192,61240,1,0,0:0:0:0:
256,192,61408,1,0,0:0:0:0:
256,192,61745,1,8,0:0:0:0:
256,192,61914,1,8,0:0:0:0:
256,192,62082,1,0,0:0:0:0:
256,192,62251,1,0,0:0:0:0:
256,192,62419,1,8,0:0:0:0:
256,192,62757,1,0,0:0:0:0:
256,192,63262,1,8,0:0:0:0:
256,192,63431,1,0,0:0:0:0:
256,192,63768,1,8,0:0:0:0:
256,192,64105,1,0,0:0:0:0:
256,192,64273,1,0,0:0:0:0:
256,192,64442,1,8,0:0:0:0:
256,192,64779,1,8,0:0:0:0:
256,192,64948,1,0,0:0:0:0:
256,192,65116,1,8,0:0:0:0:
256,192,65453,1,4,0:0:0:0:
256,192,65790,1,8,0:0:0:0:
256,192,66127,1,0,0:0:0:0:
256,192,66464,1,8,0:0:0:0:
256,192,67139,1,8,0:0:0:0:
256,192,67476,1,0,0:0:0:0:
256,192,67813,1,8,0:0:0:0:
256,192,68487,1,8,0:0:0:0:
256,192,68824,1,0,0:0:0:0:
256,192,68992,1,0,0:0:0:0:
256,192,69161,1,8,0:0:0:0:
256,192,69498,2,0,P|240:344|128:192,1,420
256,192,70846,1,4,0:0:0:0:
256,192,71183,1,8,0:0:0:0:
256,192,71521,1,0,0:0:0:0:
256,192,71689,1,0,0:0:0:0:
256,192,71858,1,8,0:0:0:0:
256,192,72195,1,0,0:0:0:0:
256,192,72363,1,0,0:0:0:0:
256,192,72532,1,8,0:0:0:0:
256,192,72869,1,8,0:0:0:0:
256,192,73037,1,0,0:0:0:0:
256,192,73206,1,8,0:0:0:0:
256,192,73543,1,0,0:0:0:0:
256,192,73880,1,8,0:0:0:0:
256,192,74386,1,0,0:0:0:0:
256,192,74554,1,8,0:0:0:0:
256,192,74891,1,0,0:0:0:0:
256,192,75228,1,8,0:0:0:0:
256,192,75566,1,0,0:0:0:0:
256,192,75734,1,0,0:0:0:0:
256,192,75903,1,8,0:0:0:0:
256,192,76577,1,8,0:0:0:0:
256,192,76914,1,0,0:0:0:0:
256,192,77082,1,0,0:0:0:0:
256,192,77251,1,8,0:0:0:0:
256,192,77925,1,8,0:0:0:0:
256,192,78262,1,0,0:0:0:0:
256,192,78431,1,0,0:0:0:0:
256,192,78599,1,8,0:0:0:0:
256,192,79273,1,0,0:0:0:0:
256,192,79610,1,8,0:0:0:0:
256,192,79948,1,0,0:0:0:0:
256,192,80285,2,0,L|424:192,3,140
256,192,81633,1,4,0:0:0:0:
256,192,81970,1,0,0:0:0:0:
256,192,82307,1,0,0:0:0:0:
256,192,82813,1,8,0:0:0:0:
256,192,82981,1,0,0:0:0:0:
256,192,83318,1,0,0:0:0:0:
256,192,83655,1,0,0:0:0:0:
256,192,83992,1,8,0:0:0:0:
256,192,84330,1,0,0:0:0:0:
256,192,84667,1,0,0:0:0:0:
256,192,85004,1,0,0:0:0:0:
256,192,85509,1,8,0:0:0:0:
256,192,85678,1,0,0:0:0:0:
256,192,86015,1,8,0:0:0:0:
256,192,86183,1,0,0:0:0:0:
256,192,86352,1,0,0:0:0:0:
256,192,86521,1,0,0:0:0:0:
256,192,86689,1,8,0:0:0:0:
256,192,87026,1,4,0:0:0:0:
256,192,87869,1,4,0:0:0:0:
256,192,88206,1,4,0:0:0:0:
256,192,89723,1,4,0:0:0:0:
256,192,90566,1,4,0:0:0:0:
256,192,90903,1,4,0:0:0:0:
256,192,91745,1,4,0:0:0:0:
256,192,91914,1,4,0:0:0:0:
256,192,92419,1,4,0:0:0:0:
256,192,92757,1,0,0:0:0:0:
256,192,93094,1,0,0:0:0:0:
256,192,93262,1,8,0:0:0:0:
256,192,93599,1,8,0:0:0:0:
256,192,93768,1,0,0:0:0:0:
256,192,94105,1,0,0:0:0:0:
256,192,94442,1,0,0:0:0:0:
256,192,94610,1,0,0:0:0:0:
256,192,94779,1,0,0:0:0:0:
256,192,95116,1,4,0:0:0:0:
256,192,95959,1,4,0:0:0:0:
256,192,96296,1,0,0:0:0:0:
256,192,96464,1,0,0:0:0:0:
256,192,96801,1,0,0:0:0:0:
256,192,97139,1,0,0:0:0:0:
256,192,97307,1,0,0:0:0:0:
256,192,97476,1,8,0:0:0:0:
256,192,97644,1,8,0:0:0:0:
256,192,97813,1,4,0:0:0:0:
256,192,98150,1,8,0:0:0:0:
256,192,98487,1,0,0:0:0:0:
256,192,98655,1,0,0:0:0:0:
256,192,98824,1,8,0:0:0:0:
256,192,99161,1,0,0:0:0:0:
256,192,99498,1,8,0:0:0:0:
256,192,99835,1,0,0:0:0:0:
256,192,100004,1,0,0:0:0:0:
256,192,100172,1,8,0:0:0:0:
256,192,100509,1,0,0:0:0:0:
256,192,100846,1,8,0:0:0:0:
256,192,101183,1,0,0:0:0:0:
256,192,101352,1,8,0:0:0:0:
256,192,101521,1,0,0:0:0:0:
256,192,101858,1,0,0:0:0:0:
256,192,102026,1,0,0:0:0:0:
256,192,102195,1,8,0:0:0:0:
256,192,102700,1,0,0:0:0:0:
256,192,102869,1,8,0:0:0:0:
256,192,103206,1,4,0:0:0:0:
256,192,103543,1,8,0:0:0:0:
256,192,103880,1,0,0:0:0:0:
256,192,104049,1,0,0:0:0:0:
256,192,104217,1,8,0:0:0:0:
256,192,104554,1,0,0:0:0:0:
256,192,104891,1,8,0:0:0:0:
256,192,105228,1,0,0:0:0:0:
256,192,105734,1,0,0:0:0:0:
256,192,105903,1,8,0:0:0:0:
256,192,106240,1,8,0:0:0:0:
256,192,106408,1,0,0:0:0:0:
256,192,106577,1,0,0:0:0:0:
256,192,106745,1,0,0:0:0:0:
256,192,106914,1,8,0:0:0:0:
256,192,107251,1,0,0:0:0:0:
256,192,107419,1,0,0:0:0:0:
256,192,107588,1,8,0:0:0:0:
256,192,107757,1,0,0:0:0:0:
256,192,107925,1,0,0:0:0:0:
256,192,108094,1,0,0:0:0:0:
256,192,108262,1,8,0:0:0:0:
256,192,108599,1,4,0:0:0:0:
256,192,109273,1,8,0:0:0:0:
256,192,109610,1,0,0:0:0:0:
256,192,109948,1,0,0:0:0:0:
256,192,110116,1,8,0:0:0:0:
256,192,110285,1,0,0:0:0:0:
256,192,110622,1,8,0:0:0:0:
256,192,110959,1,0,0:0:0:0:
256,192,111296,1,4,0:0:0:0:
256,192,111633,1,0,0:0:0:0:
256,192,111970,1,8,0:0:0:0:
256,192,112644,1,0,0:0:0:0:
256,192,112981,1,8,0:0:0:0:
256,192,113318,1,8,0:0:0:0:
256,192,113487,1,0,0:0:0:0:
256,192,113824,1,4,0:0:0:0:
256,192,114667,1,8,0:0:0:0:
256,192,115004,1,0,0:0:0:0:
256,192,115341,1,0,0:0:0:0:
256,192,116015,1,0,0:0:0:0:
256,192,116183,1,0,0:0:0:0:
256,192,116352,1,8,0:0:0:0:
256,192,116689,1,0,0:0:0:0:
256,192,117026,1,8,0:0:0:0:
256,192,117363,1,0,0:0:0:0:
256,192,117532,1,0,0:0:0:0:
256,192,117700,1,8,0:0:0:0:
256,192,118037,2,0,P|357:303|160:325,1,420
256,192,119386,1,4,0:0:0:0:
256,192,119723,1,8,0:0:0:0:
256,192,119891,1,0,0:0:0:0:
256,192,120060,1,0,0:0:0:0:
256,192,120397,1,8,0:0:0:0:
256,192,120734,1,0,0:0:0:0:
256,192,121071,1,0,0:0:0:0:
256,192,121240,1,0,0:0:0:0:
256,192,121408,1,8,0:0:0:0:
256,192,121577,1,0,0:0:0:0:
256,192,121745,1,8,0:0:0:0:
256,192,122082,1,0,0:0:0:0:
256,192,122419,1,8,0:0:0:0:
256,192,122925,1,0,0:0:0:0:
256,192,123094,1,8,0:0:0:0:
256,192,123431,1,0,0:0:0:0:
256,192,123599,1,0,0:0:0:0:
256,192,123768,1,8,0:0:0:0:
256,192,124105,1,8,0:0:0:0:
256,192,124273,1,0,0:0:0:0:
256,192,124442,1,8,0:0:0:0:
256,192,124779,1,4,0:0:0:0:
256,192,125116,1,8,0:0:0:0:
256,192,125453,1,0,0:0:0:0:
256,192,125622,1,0,0:0:0:0:
256,192,125790,1,8,0:0:0:0:
256,192,126464,1,8,0:0:0:0:
256,192,126801,1,0,0:0:0:0:
256,192,127139,1,8,0:0:0:0:
256,192,127813,1,8,0:0:0:0:
256,192,128150,1,0,0:0:0:0:
256,192,128487,1,8,0:0:0:0:
256,192,128824,2,0,P|417:78|440:235,1,420
256,192,130172,1,4,0:0:0:0:
256,192,130509,1,8,0:0:0:0:
256,192,130846,1,0,0:0:0:0:
256,192,131015,1,0,0:0:0:0:
256,192,131183,1,8,0:0:0:0:
256,192,131521,1,0,0:0:0:0:
256,192,131689,1,0,0:0:0:0:
256,192,131858,1,8,0:0:0:0:
256,192,132195,1,0,0:0:0:0:
256,192,132363,1,0,0:0:0:0:
256,192,132532,1,8,0:0:0:0:
256,192,132869,1,0,0:0:0:0:
256,192,133206,1,8,0:0:0:0:
256,192,133712,1,0,0:0:0:0:
256,192,133880,1,8,0:0:0:0:
256,192,134217,1,0,0:0:0:0:
256,192,134554,1,8,0:0:0:0:
256,192,134723,1,0,0:0:0:0:
256,192,134891,1,0,0:0:0:0:
256,192,135060,1,0,0:0:0:0:
256,192,135228,1,8,0:0:0:0:
256,192,135903,1,8,0:0:0:0:
256,192,136240,1,0,0:0:0:0:
256,192,136408,1,0,0:0:0:0:
256,192,136577,1,8,0:0:0:0:
256,192,137251,1,8,0:0:0:0:
256,192,137588,1,0,0:0:0:0:
256,192,137757,1,0,0:0:0:0:
256,192,137925,1,8,0:0:0:0:
256,192,138599,1,0,0:0:0:0:
256,192,138936,1,8,0:0:0:0:
256,192,139273,1,0,0:0:0:0:
256,192,139610,2,0,L|400:192,2,140
256,192,141296,1,0,0:0:0:0:
256,192,141464,1,8,0:0:0:0:
256,192,141633,1,0,0:0:0:0:
256,192,142307,1,0,0:0:0:0:
256,192,142476,1,8,0:0:0:0:
256,192,142644,1,0,0:0:0:0:
256,192,142813,1,8,0:0:0:0:
256,192,142981,1,0,0:0:0:0:
256,192,143655,1,0,0:0:0:0:
256,192,143824,1,8,0:0:0:0:
256,192,143992,1,0,0:0:0:0:
256,192,144161,1,8,0:0:0:0:
256,192,144330,1,0,0:0:0:0:
256,192,145004,1,0,0:0:0:0:
256,192,145172,1,8,0:0:0:0:
256,192,145341,1,0,0:0:0:0:
256,192,145509,1,8,0:0:0:0:
256,192,145678,1,0,0:0:0:0:
256,192,145846,1,8,0:0:0:0:
256,192,146015,1,0,0:0:0:0:
256,192,146183,1,8,0:0:0:0:
256,192,146352,1,0,0:0:0:0:
256,192,146521,1,8,0:0:0:0:
256,192,146689,1,4,0:0:0:0:
256,192,147868,1,8,0:0:0:0:
256,192,148037,1,4,0:0:0:0:
256,192,149217,1,8,0:0:0:0:
256,192,149385,1,0,0:0:0:0:
256,192,150565,1,8,0:0:0:0:
256,192,150733,1,0,0:0:0:0:
256,192,151071,1,8,0:0:0:0:
256,192,151408,1,0,0:0:0:0:
256,192,151576,1,0,0:0:0:0:
256,192,151745,1,8,0:0:0:0:
256,192,151913,1,8,0:0:0:0:
256,192,152082,1,4,0:0:0:0:
256,192,153262,1,8,0:0:0:0:
256,192,153430,1,0,0:0:0:0:
256,192,153767,1,12,0:0:0:0:
256,192,154104,2,0,B|-136:24|552:368,2,630
256,192,157475,1,4,0:0:0:0:
256,192,158655,1,8,0:0:0:0:
256,192,158823,1,0,0:0:0:0:
256,192,160003,1,8,0:0:0:0:
256,192,160172,1,0,0:0:0:0:
256,192,161351,1,8,0:0:0:0:
256,192,161520,1,0,0:0:0:0:
256,192,162868,1,8,0:0:0:0:
256,192,163037,1,0,0:0:0:0:
256,192,163542,1,8,0:0:0:0:
256,192,163711,1,0,0:0:0:0:
256,192,163880,1,8,0:0:0:0:
256,192,164048,1,0,0:0:0:0:
256,192,164217,1,4,0:0:0:0:
256,192,164385,1,4,0:0:0:0:
256,192,164722,1,12,0:0:0:0:
256,192,165059,1,12,0:0:0:0:
256,192,165565,1,4,0:0:0:0:
256,192,165733,1,4,0:0:0:0:
256,192,165902,8,0,167250,0:0:0:0:
256,192,167587,5,4,0:0:0:0:
256,192,168093,5,0,0:0:0:0:
256,192,168262,1,4,0:0:0:0:
256,192,168599,1,8,0:0:0:0:
256,192,168767,1,0,0:0:0:0:
256,192,168936,1,0,0:0:0:0:
256,192,169273,1,8,0:0:0:0:
256,192,169610,1,0,0:0:0:0:
256,192,169947,1,8,0:0:0:0:
256,192,170115,1,0,0:0:0:0:
256,192,170284,1,0,0:0:0:0:
256,192,170790,1,8,0:0:0:0:
256,192,170958,1,0,0:0:0:0:
256,192,171295,1,8,0:0:0:0:
256,192,171464,1,0,0:0:0:0:
256,192,171632,1,0,0:0:0:0:
256,192,171969,1,8,0:0:0:0:
256,192,172306,1,0,0:0:0:0:
256,192,172475,1,0,0:0:0:0:
256,192,172644,1,8,0:0:0:0:
256,192,172981,1,8,0:0:0:0:
256,192,173149,1,0,0:0:0:0:
256,192,173318,1,8,0:0:0:0:
256,192,173486,1,0,0:0:0:0:
256,192,173655,1,4,0:0:0:0:
256,192,173992,1,8,0:0:0:0:
256,192,174329,1,0,0:0:0:0:
256,192,174666,1,8,0:0:0:0:
256,192,175003,1,0,0:0:0:0:
256,192,175172,1,0,0:0:0:0:
256,192,175340,1,8,0:0:0:0:
256,192,175677,1,0,0:0:0:0:
256,192,176014,1,8,0:0:0:0:
256,192,176351,1,4,0:0:0:0:
256,192,176688,1,8,0:0:0:0:
256,192,177026,1,0,0:0:0:0:
256,192,177194,1,0,0:0:0:0:
256,192,177363,1,8,0:0:0:0:
256,192,177700,2,0,P|224:312|64:176,1,420
256,192,179048,1,4,0:0:0:0:
256,192,179385,1,8,0:0:0:0:
256,192,179554,1,0,0:0:0:0:
256,192,179722,1,0,0:0:0:0:
256,192,180059,1,8,0:0:0:0:
256,192,180228,1,0,0:0:0:0:
256,192,180396,1,0,0:0:0:0:
256,192,180733,1,8,0:0:0:0:
256,192,181071,1,0,0:0:0:0:
256,192,181239,1,0,0:0:0:0:
256,192,181408,1,8,0:0:0:0:
256,192,181745,1,0,0:0:0:0:
256,192,182082,1,8,0:0:0:0:
256,192,182587,1,0,0:0:0:0:
256,192,182756,1,8,0:0:0:0:
256,192,183093,1,0,0:0:0:0:
256,192,183262,1,0,0:0:0:0:
256,192,183430,1,8,0:0:0:0:
256,192,183767,1,8,0:0:0:0:
256,192,183936,1,0,0:0:0:0:
256,192,184104,1,8,0:0:0:0:
256,192,184273,1,0,0:0:0:0:
256,192,184441,1,4,0:0:0:0:
256,192,184778,1,8,0:0:0:0:
256,192,185115,1,0,0:0:0:0:
256,192,185284,1,0,0:0:0:0:
256,192,185453,1,8,0:0:0:0:
256,192,185790,1,4,0:0:0:0:
256,192,186127,1,8,0:0:0:0:
256,192,186464,1,0,0:0:0:0:
256,192,186632,1,0,0:0:0:0:
256,192,186801,1,8,0:0:0:0:
256,192,187138,1,4,0:0:0:0:
256,192,187475,1,8,0:0:0:0:
256,192,187812,1,0,0:0:0:0:
256,192,188149,1,8,0:0:0:0:
256,192,188486,2,0,P|192:336|80:176,1,420
256,192,189835,1,4,0:0:0:0:
256,192,190172,1,0,0:0:0:0:
256,192,190340,1,4,0:0:0:0:
256,192,190677,1,0,0:0:0:0:
256,192,190846,1,8,0:0:0:0:
256,192,191014,1,4,0:0:0:0:
256,192,191520,1,8,0:0:0:0:
256,192,191688,1,0,0:0:0:0:
256,192,192026,1,0,0:0:0:0:
256,192,192194,1,8,0:0:0:0:
256,192,192363,1,0,0:0:0:0:
256,192,192531,1,4,0:0:0:0:
256,192,192868,1,0,0:0:0:0:
256,192,193037,1,4,0:0:0:0:
256,192,193374,1,0,0:0:0:0:
256,192,193542,1,8,0:0:0:0:
256,192,193711,1,4,0:0:0:0:
256,192,194048,1,0,0:0:0:0:
256,192,194217,1,8,0:0:0:0:
256,192,194554,1,0,0:0:0:0:
256,192,194722,1,0,0:0:0:0:
256,192,194891,1,8,0:0:0:0:
256,192,195059,1,0,0:0:0:0:
256,192,195228,1,4,0:0:0:0:
256,192,195565,1,0,0:0:0:0:
256,192,195733,1,4,0:0:0:0:
256,192,196071,1,0,0:0:0:0:
256,192,196239,1,8,0:0:0:0:
256,192,196408,1,4,0:0:0:0:
256,192,196913,1,8,0:0:0:0:
256,192,197082,1,0,0:0:0:0:
256,192,197419,1,0,0:0:0:0:
256,192,197587,1,8,0:0:0:0:
256,192,197756,1,0,0:0:0:0:
256,192,197924,1,4,0:0:0:0:
256,192,198262,1,0,0:0:0:0:
256,192,198430,1,4,0:0:0:0:
256,192,198767,1,0,0:0:0:0:
256,192,198936,1,8,0:0:0:0:
256,192,199104,1,4,0:0:0:0:
256,192,199441,1,0,0:0:0:0:
256,192,199610,1,8,0:0:0:0:
256,192,199778,1,4,0:0:0:0:
256,192,200115,1,0,0:0:0:0:
256,192,200284,1,8,0:0:0:0:
256,192,200453,1,0,0:0:0:0:
256,192,200621,1,4,0:0:0:0:
256,192,200958,1,0,0:0:0:0:
256,192,201127,1,4,0:0:0:0:
256,192,201464,1,0,0:0:0:0:
256,192,201632,1,8,0:0:0:0:
256,192,201801,1,4,0:0:0:0:
256,192,202306,1,8,0:0:0:0:
256,192,202475,1,0,0:0:0:0:
256,192,202812,1,0,0:0:0:0:
256,192,202981,1,8,0:0:0:0:
256,192,203149,1,0,0:0:0:0:
256,192,203318,1,4,0:0:0:0:
256,192,203655,1,0,0:0:0:0:
256,192,203823,1,4,0:0:0:0:
256,192,204160,1,0,0:0:0:0:
256,192,204329,1,8,0:0:0:0:
256,192,204497,1,4,0:0:0:0:
256,192,204835,1,0,0:0:0:0:
256,192,205003,1,8,0:0:0:0:
256,192,205340,1,0,0:0:0:0:
256,192,205509,1,0,0:0:0:0:
256,192,205677,1,8,0:0:0:0:
256,192,205846,1,0,0:0:0:0:
256,192,206014,1,4,0:0:0:0:
256,192,206351,1,0,0:0:0:0:
256,192,206520,1,4,0:0:0:0:
256,192,206857,1,0,0:0:0:0:
256,192,207026,1,8,0:0:0:0:
256,192,207194,1,4,0:0:0:0:
256,192,207700,1,8,0:0:0:0:
256,192,207868,1,0,0:0:0:0:
256,192,208205,1,0,0:0:0:0:
256,192,208374,1,8,0:0:0:0:
256,192,208542,1,0,0:0:0:0:
256,192,208711,1,4,0:0:0:0:
256,192,209048,1,0,0:0:0:0:
256,192,209217,1,4,0:0:0:0:
256,192,209554,1,4,0:0:0:0:
256,192,209891,1,4,0:0:0:0:
256,192,211239,1,4,0:0:0:0:
256,192,211576,1,4,0:0:0:0:
256,192,212756,1,4,0:0:0:0:
256,192,213936,1,4,0:0:0:0:
256,192,214273,1,4,0:0:0:0:
256,192,214778,8,0,224385,0:0:0:0:
