osu file format v14

[General]
AudioFilename: hiroto.mp3
AudioLeadIn: 0
PreviewTime: 219706
Countdown: 0
SampleSet: Soft
StackLeniency: 0.6
Mode: 0
LetterboxInBreaks: 1
WidescreenStoryboard: 0

[Editor]
DistanceSpacing: 0.8
BeatDivisor: 8
GridSize: 8
TimelineZoom: 1

[Metadata]
Title:Rain drop
TitleUnicode:Rain drop
Artist:Harito
ArtistUnicode:Harito
Creator:rabu retaa
Version:Insane
Source:雨EP
Tags:
BeatmapID:728929
BeatmapSetID:328668

[Difficulty]
HPDrainRate:7.7
CircleSize:4.2
OverallDifficulty:8
ApproachRate:8.8
SliderMultiplier:1.7
SliderTickRate:1

[Events]
//Background and Video events
0,0,"bg.jpg",0,0
//Break Periods
//Storyboard Layer 0 (Background)
//Storyboard Layer 1 (Fail)
//Storyboard Layer 2 (Pass)
//Storyboard Layer 3 (Foreground)
//Storyboard Sound Samples

[TimingPoints]
278,428.571428571429,4,2,1,30,1,0
13992,-133.333333333333,4,2,1,50,0,0

[Colours]
Combo1 : 0,255,255
Combo2 : 106,223,176
Combo3 : 172,105,233
Combo4 : 255,128,214
Combo5 : 255,176,60
Combo6 : 255,0,51

[HitObjects]
192,128,278,5,0,0:0:0:0:
336,56,920,1,0,0:0:0:0:
416,152,1135,1,0,0:0:0:0:
288,160,1349,1,0,0:0:0:0:
392,80,1564,1,0,0:0:0:0:
400,208,1778,1,0,0:0:0:0:
320,104,1993,1,0,0:0:0:0:
347,320,2635,5,0,0:0:0:0:
227,354,2850,1,0,0:0:0:0:
256,232,3064,1,0,0:0:0:0:
347,320,3279,1,0,0:0:0:0:
240,325,3493,1,0,0:0:0:0:
232,200,3706,1,0,0:0:0:0:
336,56,4349,5,0,0:0:0:0:
336,56,4563,1,0,0:0:0:0:
416,152,4778,1,0,0:0:0:0:
336,248,4992,1,0,0:0:0:0:
256,152,5207,1,0,0:0:0:0:
384,152,5421,1,0,0:0:0:0:
32,296,6063,5,0,0:0:0:0:
96,184,6385,1,0,0:0:0:0:
112,176,6438,1,0,0:0:0:0:
8,80,6706,1,0,0:0:0:0:
8,80,7135,1,0,0:0:0:0:
224,152,7778,1,0,0:0:0:0:
224,24,7992,1,0,0:0:0:0:
104,72,8206,1,0,0:0:0:0:
208,136,8420,1,0,0:0:0:0:
88,184,8635,1,0,0:0:0:0:
88,184,8849,1,0,0:0:0:0:
88,144,9492,1,0,0:0:0:0:
40,72,9706,1,0,0:0:0:0:
72,208,9920,1,0,0:0:0:0:
128,144,10135,1,0,0:0:0:0:
192,88,10349,1,0,0:0:0:0:
192,88,10563,1,0,0:0:0:0:
208,344,11206,5,0,0:0:0:0:
208,256,11420,1,0,0:0:0:0:
208,256,11635,1,0,0:0:0:0:
112,168,11849,1,0,0:0:0:0:
232,128,12063,1,0,0:0:0:0:
112,168,12278,1,0,0:0:0:0:
368,168,12920,1,0,0:0:0:0:
440,216,13242,1,0,0:0:0:0:
472,240,13349,1,0,0:0:0:0:
368,168,13563,1,0,0:0:0:0:
272,64,13992,6,0,L|232:8,1,63.7500024318696
136,104,14420,2,0,L|72:72,1,63.7500024318696
116,211,14849,2,0,L|48:216,1,63.7500024318696
168,264,15278,1,0,0:0:0:0:
40,264,15492,1,0,0:0:0:0:
192,224,15706,2,0,L|232:168,1,63.7500024318696
288,312,16135,6,0,L|352:304,1,63.7500024318696
347,179,16563,2,0,L|416:144,1,63.7500024318696
384,24,16992,1,0,0:0:0:0:
488,96,17206,1,0,0:0:0:0:
384,168,17420,2,0,L|344:224,1,63.7500024318696
240,40,17849,2,0,L|168:40,1,63.7500024318696
96,144,18278,2,0,L|168:144,1,63.7500024318696
240,216,18706,5,0,0:0:0:0:
240,216,18920,1,0,0:0:0:0:
240,304,19135,2,0,L|312:288,1,63.7500024318696
392,200,19563,2,0,L|344:152,1,63.7500024318696
232,96,19992,1,0,0:0:0:0:
232,96,20099,1,0,0:0:0:0:
232,96,20206,1,0,0:0:0:0:
360,96,20420,1,0,0:0:0:0:
112,48,20849,6,0,L|40:48,1,63.7500024318696
176,48,21278,2,0,L|240:48,1,63.7500024318696
368,48,21706,2,0,L|440:48,1,63.7500024318696
480,168,22135,1,0,0:0:0:0:
480,168,22349,1,0,0:0:0:0:
400,160,22563,6,0,L|336:160,1,63.7500024318696
208,160,22991,2,0,L|144:160,1,63.7500024318696
16,160,23420,2,0,L|79:160,1,63.7500024318696
208,160,23849,1,0,0:0:0:0:
160,280,24063,1,0,0:0:0:0:
264,200,24278,2,0,L|320:152,1,63.7500024318696
408,80,24706,2,0,L|352:128,1,63.7500024318696
240,80,25135,5,0,0:0:0:0:
368,80,25349,1,0,0:0:0:0:
240,80,25563,1,0,0:0:0:0:
400,80,25778,1,0,0:0:0:0:
424,208,25992,2,0,L|424:280,1,63.7500024318696
320,200,26420,2,0,L|296:272,1,63.7500024318696
208,168,26849,2,0,L|176:176,1,31.8750012159348
232,152,27063,1,0,0:0:0:0:
344,88,27278,1,0,0:0:0:0:
368,72,27492,1,0,0:0:0:0:
408,192,27706,5,0,0:0:0:0:
296,256,27920,1,0,0:0:0:0:
296,256,28028,1,0,0:0:0:0:
296,256,28135,1,0,0:0:0:0:
192,336,28349,1,0,0:0:0:0:
192,336,28456,1,0,0:0:0:0:
192,336,28563,1,0,0:0:0:0:
192,336,28670,1,0,0:0:0:0:
192,336,28778,1,0,0:0:0:0:
96,256,28992,5,0,0:0:0:0:
112,240,29099,1,0,0:0:0:0:
128,224,29206,1,0,0:0:0:0:
144,208,29313,1,0,0:0:0:0:
160,192,29420,1,0,0:0:0:0:
280,136,29635,5,0,0:0:0:0:
264,160,29742,1,0,0:0:0:0:
280,232,30063,1,0,0:0:0:0:
304,216,30170,1,0,0:0:0:0:
328,216,30278,1,0,0:0:0:0:
352,232,30385,1,0,0:0:0:0:
368,256,30492,1,0,0:0:0:0:
224,336,30706,5,0,0:0:0:0:
248,328,30813,1,0,0:0:0:0:
264,304,30920,1,0,0:0:0:0:
272,280,31028,1,0,0:0:0:0:
264,256,31135,1,0,0:0:0:0:
176,168,31349,1,0,0:0:0:0:
152,184,31456,1,0,0:0:0:0:
128,184,31563,1,0,0:0:0:0:
168,64,31778,1,0,0:0:0:0:
192,80,31885,1,0,0:0:0:0:
200,104,31992,1,0,0:0:0:0:
200,128,32099,1,0,0:0:0:0:
