osu file format v12

[General]
AudioFilename: Hari - Cutie Song - Gwiyomi Song [mp3clan.com].mp3
AudioLeadIn: 0
PreviewTime: -1
Countdown: 1
SampleSet: None
StackLeniency: 1
Mode: 0
LetterboxInBreaks: 1
WidescreenStoryboard: 0

[Editor]
DistanceSpacing: 1
BeatDivisor: 4
GridSize: 8

[Metadata]
Title:Gwiyomi Song
TitleUnicode:귀요미 송
Artist:Hari
ArtistUnicode:Hari
Creator:Estivarus
Version:Normal
Source:
Tags:Kwiyomi cutie cute kawaii
BeatmapID:352157
BeatmapSetID:141115

[Difficulty]
HPDrainRate:4
CircleSize:4
OverallDifficulty:5
ApproachRate:5
SliderMultiplier:1.4
SliderTickRate:1

[Events]
//Background and Video events
0,0,"736689354_NurseryRhyme.jpg",0,0
//Break Periods
2,67396,80996
//Storyboard Layer 0 (Background)
//Storyboard Layer 1 (Fail)
//Storyboard Layer 2 (Pass)
//Storyboard Layer 3 (Foreground)
//Storyboard Sound Samples
//Background Colour Transformations
3,100,163,162,255

[TimingPoints]
5240,652.173913043478,4,1,0,100,1,0
46979,-100,4,1,0,100,0,1
67848,-100,4,1,0,100,0,0
90022,-133.333333333333,4,1,0,100,0,0
110892,-100,4,1,0,100,0,1
131761,-100,4,1,0,100,0,0
160457,-100,4,1,0,100,0,0

[HitObjects]
144,256,5240,2,0,P|96:176|112:128,1,140
208,136,6544,2,0,P|280:120|288:40,1,140
296,64,7848,1,0,0:0:0:0:
432,64,8500,5,0,0:0:0:0:
432,176,9153,1,0,0:0:0:0:
400,272,9805,1,0,0:0:0:0:
312,312,10457,2,0,P|216:328|160:296,1,140
120,232,11761,5,0,0:0:0:0:
104,136,12413,1,0,0:0:0:0:
200,120,13066,2,0,L|272:112,1,70
416,96,14370,2,0,P|464:160|432:216,1,140
360,256,15674,5,0,0:0:0:0:
264,256,16326,2,0,P|192:200|192:152,1,140
224,64,17631,1,0,0:0:0:0:
128,64,18283,2,0,P|80:128|96:192,1,140
144,264,19587,1,0,0:0:0:0:
240,296,20240,6,0,L|312:320,1,70
304,320,20892,2,0,L|368:288,1,70
408,272,21544,1,0,0:0:0:0:
408,272,21870,1,0,0:0:0:0:
432,224,22196,2,0,L|464:160,1,70
488,120,22848,5,0,0:0:0:0:
488,120,23174,1,0,0:0:0:0:
456,80,23500,2,0,L|408:24,1,70
408,24,24153,2,0,L|336:0,1,70
344,0,24805,1,0,0:0:0:0:
264,56,25457,5,0,0:0:0:0:
184,120,26109,2,0,P|112:128|56:96,1,140
136,40,27413,2,0,P|208:32|272:80,1,140
288,160,28718,2,0,P|272:200|232:224,1,70
136,176,29859,2,0,P|96:176|64:192,1,70
8,224,30674,1,0,0:0:0:0:
56,312,31326,6,0,P|128:336|208:336,1,140
288,328,32631,2,0,P|360:296|416:232,1,140
456,168,33935,2,0,P|464:128|448:104,1,70
336,48,35076,2,0,P|288:40|264:48,1,70
208,88,35892,1,0,0:0:0:0:
160,176,36544,6,0,P|136:208|104:216,1,70
56,216,37196,1,0,0:0:0:0:
56,216,37848,1,0,0:0:0:0:
56,120,38500,1,0,0:0:0:0:
136,64,39153,2,0,P|224:88|256:144,1,140
272,216,40457,1,0,0:0:0:0:
272,216,41109,1,0,0:0:0:0:
176,216,41761,6,0,P|96:256|64:312,1,140
168,312,43066,2,0,P|248:272|280:216,1,140
312,144,44370,1,0,0:0:0:0:
272,56,45022,1,0,0:0:0:0:
176,48,45674,2,0,P|80:72|40:120,1,140
80,240,46979,6,0,P|152:312|200:320,1,140
328,304,48283,2,0,P|376:296|400:304,1,70
464,328,48935,1,0,0:0:0:0:
464,192,49587,6,0,P|440:120|400:72,1,140
256,64,50892,2,0,P|216:80|184:64,1,70
128,40,51544,1,0,0:0:0:0:
48,152,52196,6,0,P|48:232|88:280,1,140
216,320,53500,2,0,P|256:304|272:272,1,70
312,224,54153,1,0,0:0:0:0:
312,104,54805,6,0,L|376:64,1,70
432,32,55457,1,0,0:0:0:0:
424,168,56109,6,0,L|360:208,1,70
304,240,56761,1,0,0:0:0:0:
184,312,57413,6,0,P|120:256|112:192,1,140
128,64,58718,2,0,P|176:72|200:64,1,70
264,40,59370,1,0,0:0:0:0:
400,80,60022,6,0,P|440:144|432:224,1,140
360,320,61326,2,0,P|312:304|280:320,1,70
232,336,61979,1,0,0:0:0:0:
336,248,62631,6,0,P|376:184|368:120,1,140
368,120,63935,2,0,L|344:72,5,35
248,104,65239,6,0,L|176:64,1,70
128,40,65892,1,0,0:0:0:0:
136,176,66544,6,0,L|200:216,1,70
248,248,67196,1,0,0:0:0:0:
256,192,82196,12,0,84153,0:0:0:0:
160,168,84805,6,0,P|208:112|272:96,1,140
344,216,86109,2,0,P|288:272|224:280,1,140
256,192,87413,1,0,0:0:0:0:
256,192,88066,1,0,0:0:0:0:
256,192,88718,1,0,0:0:0:0:
208,40,90022,6,0,P|272:40|312:80,1,105.000004005432
240,104,91326,2,0,P|288:136|344:120,1,105.000004005432
272,264,92631,2,0,P|224:224|176:232,1,105.000004005432
208,296,93935,2,0,P|160:296|112:240,1,105.000004005432
96,192,95239,6,0,P|104:136|144:96,1,105.000004005432
200,72,96544,1,0,0:0:0:0:
272,88,97196,1,0,0:0:0:0:
320,144,97848,2,0,P|336:208|320:256,1,105.000004005432
272,296,99153,5,0,0:0:0:0:
224,240,99805,1,0,0:0:0:0:
272,184,100457,1,0,0:0:0:0:
224,128,101109,1,0,0:0:0:0:
272,72,101761,1,0,0:0:0:0:
328,120,102413,6,0,P|304:224|208:256,1,210.000008010865
144,232,104370,1,0,0:0:0:0:
112,168,105022,1,0,0:0:0:0:
128,96,105674,2,0,P|224:56|328:104,1,210.000008010865
400,160,107631,5,0,0:0:0:0:
368,256,108283,2,0,P|288:320|184:312,1,210.000008010865
120,232,110239,1,0,0:0:0:0:
256,256,110892,6,0,P|336:248|392:208,1,140
464,104,112196,2,0,P|440:56|400:40,2,70
400,232,113500,2,0,P|320:192|288:136,1,140
184,64,114805,2,0,P|136:56|96:72,2,70
264,176,116109,6,0,P|184:224|128:224,1,140
112,88,117413,2,0,P|152:112|160:144,2,70
112,232,118718,2,0,L|184:288,1,70
216,320,119370,1,0,0:0:0:0:
304,216,120022,6,0,L|240:168,1,70
192,136,120674,1,0,0:0:0:0:
304,48,121326,6,0,P|368:88|400:152,1,140
344,272,122631,2,0,P|312:304|280:312,2,70
216,320,123935,6,0,P|128:296|88:240,1,140
120,120,125239,2,0,P|168:152|176:176,2,70
72,248,126544,6,0,P|152:288|216:280,1,140
200,288,127848,2,0,L|248:264,5,35
312,200,129153,6,0,L|376:152,1,70
424,120,129805,1,0,0:0:0:0:
456,256,130457,6,0,L|392:312,1,70
352,344,131109,1,0,0:0:0:0:
176,256,131761,6,0,P|96:208|80:160,1,140
216,120,133066,2,0,P|288:72|360:80,1,140
440,168,134370,1,0,0:0:0:0:
400,304,135022,5,0,0:0:0:0:
264,320,135674,1,0,0:0:0:0:
144,240,136326,1,0,0:0:0:0:
136,104,136979,2,0,P|200:48|264:40,1,140
384,88,138283,5,0,0:0:0:0:
352,224,138935,1,0,0:0:0:0:
224,272,139587,2,0,P|176:272|152:248,1,70
320,128,140892,2,0,P|392:200|400:256,1,140
264,256,142196,5,0,0:0:0:0:
144,328,142848,2,0,P|80:256|80:192,1,140
144,96,144153,1,0,0:0:0:0:
256,176,144805,2,0,P|280:256|328:296,1,140
456,264,146109,1,0,0:0:0:0:
456,128,146761,6,0,L|400:80,1,70
352,40,147413,1,0,0:0:0:0:
352,40,148066,2,0,L|264:40,1,70
216,40,148718,1,0,0:0:0:0:
216,40,149370,6,0,L|152:96,1,70
112,128,150022,1,0,0:0:0:0:
112,128,150348,1,0,0:0:0:0:
112,128,150674,1,0,0:0:0:0:
16,232,151326,2,0,P|80:296|144:304,1,140
128,304,152631,1,0,0:0:0:0:
296,80,153935,6,0,L|368:128,1,70
408,160,154587,1,0,0:0:0:0:
408,160,154913,1,0,0:0:0:0:
408,160,155239,1,0,0:0:0:0:
296,80,155892,2,0,P|256:144|256:216,1,140
256,208,157196,1,0,0:0:0:0:
256,208,157848,1,0,0:0:0:0:
376,144,158500,6,0,P|312:72|248:48,1,140
136,96,159805,1,0,0:0:0:0:
64,216,160457,1,0,0:0:0:0:
