osu file format v12

[General]
AudioFilename: Hari - Cutie Song - Gwiyomi Song [mp3clan.com].mp3
AudioLeadIn: 0
PreviewTime: -1
Countdown: 1
SampleSet: None
StackLeniency: 1
Mode: 0
LetterboxInBreaks: 1
WidescreenStoryboard: 1

[Editor]
DistanceSpacing: 0.8
BeatDivisor: 4
GridSize: 8

[Metadata]
Title:Gwiyomi Song
TitleUnicode:귀요미 송
Artist:Hari
ArtistUnicode:Hari
Creator:Estivarus
Version:Hard
Source:
Tags:Kwiyomi cutie cute kawaii
BeatmapID:352156
BeatmapSetID:141115

[Difficulty]
HPDrainRate:7
CircleSize:4
OverallDifficulty:7
ApproachRate:7
SliderMultiplier:1.4
SliderTickRate:1

[Events]
//Background and Video events
//Break Periods
//Storyboard Layer 0 (Background)
//Storyboard Layer 1 (Fail)
//Storyboard Layer 2 (Pass)
//Storyboard Layer 3 (Foreground)
//Storyboard Sound Samples
//Background Colour Transformations
3,100,163,162,255

[TimingPoints]
5240,652.173913043478,4,1,0,100,1,0
46979,-71.4285714285714,4,1,0,100,0,1
67848,-100,4,1,0,100,0,0
90022,-133.333333333333,4,1,0,100,0,0
110892,-100,4,1,0,100,0,1
131761,-100,4,1,0,100,0,0
160457,-100,4,1,0,100,0,0

[HitObjects]
248,64,5240,2,0,L|368:144,1,140
256,168,6544,2,0,L|144:264,1,140
256,304,7848,1,0,0:0:0:0:
256,304,8174,1,0,0:0:0:0:
120,200,9153,1,0,0:0:0:0:
120,200,9479,1,0,0:0:0:0:
200,48,10457,6,0,P|264:104|296:160,1,140
264,256,11761,2,0,P|176:272|120:264,1,140
192,176,13066,1,0,0:0:0:0:
192,176,13392,1,0,0:0:0:0:
320,72,14370,1,0,0:0:0:0:
320,72,14696,1,0,0:0:0:0:
424,200,15674,6,0,P|368:272|312:304,1,140
232,232,16979,2,0,P|264:144|304:96,1,140
208,32,18283,2,0,P|136:56|72:120,1,140
80,208,19587,1,0,0:0:0:0:
80,208,20239,1,0,0:0:0:0:
184,168,20892,6,0,P|256:184|312:224,1,140
312,224,21870,1,0,0:0:0:0:
312,224,22196,1,0,0:0:0:0:
232,304,22848,2,0,P|192:232|184:176,1,140
248,88,24153,1,0,0:0:0:0:
248,88,24479,1,0,0:0:0:0:
248,88,24805,1,0,0:0:0:0:
336,160,25457,5,0,0:0:0:0:
376,264,26109,2,0,P|304:312|248:328,1,140
144,296,27413,2,0,P|96:240|72:176,1,140
88,64,28718,1,0,0:0:0:0:
88,64,29044,1,0,0:0:0:0:
184,200,30022,1,0,0:0:0:0:
184,200,30348,1,0,0:0:0:0:
296,328,31326,6,0,P|376:280|408:240,1,140
296,216,32631,2,0,P|240:152|224:96,1,140
336,112,33935,1,0,0:0:0:0:
336,112,34261,1,0,0:0:0:0:
216,232,35239,1,0,0:0:0:0:
216,232,35566,1,0,0:0:0:0:
104,104,36544,6,0,P|184:72|264:72,1,140
288,168,37848,2,0,P|216:208|168:264,1,140
248,336,39153,2,0,P|320:296|384:288,1,140
488,296,40457,1,0,0:0:0:0:
488,296,41109,1,0,0:0:0:0:
384,328,41761,6,0,P|304:280|272:232,1,140
224,144,43066,1,0,0:0:0:0:
224,144,43392,1,0,0:0:0:0:
224,144,43718,1,0,0:0:0:0:
328,96,44370,5,0,0:0:0:0:
328,96,44696,2,0,L|392:144,1,70
360,184,45348,2,0,L|320:248,1,70
264,336,46326,1,0,0:0:0:0:
104,80,46979,6,0,L|144:176,1,97.9999970092774
168,240,47631,1,0,0:0:0:0:
328,240,48283,2,0,L|280:128,1,97.9999970092774
264,80,48935,1,0,0:0:0:0:
424,80,49587,6,0,L|376:200,1,97.9999970092774
360,240,50239,1,0,0:0:0:0:
200,232,50892,2,0,L|248:120,1,97.9999970092774
272,72,51544,1,0,0:0:0:0:
176,200,52196,6,0,B|184:248|216:272|264:272|264:272|264:312|264:352,1,195.999994018555
256,192,53500,1,0,0:0:0:0:
256,192,53826,1,0,0:0:0:0:
256,192,54153,1,0,0:0:0:0:
336,184,54805,2,0,B|336:136|288:104|248:104|248:104|248:24,1,195.999994018555
256,192,56109,1,0,0:0:0:0:
256,192,56435,1,0,0:0:0:0:
256,192,56761,1,0,0:0:0:0:
384,96,57413,6,0,P|432:144|440:184,1,97.9999970092774
432,248,58066,1,0,0:0:0:0:
376,304,58392,1,0,0:0:0:0:
296,296,58718,2,0,P|176:240|96:264,1,195.999994018555
136,96,60022,6,0,P|88:144|80:192,1,97.9999970092774
80,248,60674,1,0,0:0:0:0:
136,304,61000,1,0,0:0:0:0:
216,288,61326,2,0,P|304:240|408:264,1,195.999994018555
