osu file format v12

[General]
AudioFilename: Hari - Cutie Song - Gwiyomi Song [mp3clan.com].mp3
AudioLeadIn: 0
PreviewTime: -1
Countdown: 1
SampleSet: None
StackLeniency: 1
Mode: 0
LetterboxInBreaks: 1
WidescreenStoryboard: 1

[Editor]
DistanceSpacing: 1
BeatDivisor: 4
GridSize: 8

[Metadata]
Title:Gwiyomi Song
TitleUnicode:귀요미 송
Artist:Hari
ArtistUnicode:Hari
Creator:Estivarus
Version:Easy
Source:
Tags:Kwiyomi cutie cute kawaii
BeatmapID:352155
BeatmapSetID:141115

[Difficulty]
HPDrainRate:3
CircleSize:3
OverallDifficulty:2
ApproachRate:2
SliderMultiplier:1
SliderTickRate:1

[Events]
//Background and Video events
0,0,"736689354_NurseryRhyme.jpg",0,0
//Break Periods
2,67396,88462
//Storyboard Layer 0 (Background)
//Storyboard Layer 1 (Fail)
//Storyboard Layer 2 (Pass)
//Storyboard Layer 3 (Foreground)
//Storyboard Sound Samples
//Background Colour Transformations
3,100,163,162,255

[TimingPoints]
5240,652.173913043478,4,1,0,100,1,0
46979,-100,4,1,0,100,0,1
67848,-100,4,1,0,100,0,0
90022,-133.333333333333,4,1,0,100,0,0
110892,-100,4,1,0,100,0,1
131761,-100,4,1,0,100,0,0
160457,-100,4,1,0,100,0,0

[HitObjects]
96,192,5240,1,0,0:0:0:0:
136,120,5892,1,0,0:0:0:0:
200,72,6544,1,0,0:0:0:0:
280,48,7196,2,0,P|336:64|368:96,1,100
408,160,8500,5,0,0:0:0:0:
408,160,9153,1,0,0:0:0:0:
408,160,9805,1,0,0:0:0:0:
400,240,10457,2,0,P|368:288|320:304,1,100
248,304,11761,2,0,P|192:280|168:240,1,100
144,176,13066,5,0,0:0:0:0:
144,176,13718,1,0,0:0:0:0:
144,176,14370,1,0,0:0:0:0:
192,240,15022,2,0,P|248:272|288:272,1,100
360,240,16326,2,0,P|400:200|408:152,1,100
408,80,17631,5,0,0:0:0:0:
328,56,18283,2,0,P|272:40|216:64,1,100
160,88,19587,1,0,0:0:0:0:
120,160,20239,1,0,0:0:0:0:
144,240,20892,2,0,P|192:296|224:304,1,100
296,304,22196,5,0,0:0:0:0:
344,240,22848,2,0,P|344:184|312:136,1,100
280,80,24153,1,0,0:0:0:0:
280,80,24805,1,0,0:0:0:0:
416,192,26109,5,0,0:0:0:0:
392,272,26761,1,0,0:0:0:0:
336,328,27413,1,0,0:0:0:0:
256,336,28066,2,0,P|192:328|160:296,1,100
120,240,29370,5,0,0:0:0:0:
120,240,30022,1,0,0:0:0:0:
120,240,30674,1,0,0:0:0:0:
128,160,31326,2,0,P|160:104|200:88,1,100
272,72,32631,2,0,P|328:80|368:112,1,100
416,168,33935,5,0,0:0:0:0:
416,168,34587,1,0,0:0:0:0:
416,168,35239,1,0,0:0:0:0:
344,128,35892,2,0,P|288:96|248:96,1,100
176,112,37196,2,0,P|128:144|112:200,1,100
128,264,38500,5,0,0:0:0:0:
200,304,39153,2,0,P|272:312|312:288,1,100
368,264,40457,1,0,0:0:0:0:
408,192,41109,1,0,0:0:0:0:
384,112,41761,2,0,P|336:64|296:56,1,100
224,72,43066,5,0,0:0:0:0:
184,144,43718,2,0,P|192:192|232:232,1,100
296,272,45022,1,0,0:0:0:0:
296,272,45674,1,0,0:0:0:0:
296,272,46326,1,0,0:0:0:0:
360,192,46979,6,0,P|360:120|344:88,1,100
264,40,48283,1,0,0:0:0:0:
168,72,48935,1,0,0:0:0:0:
136,168,49587,2,0,P|192:208|240:208,1,100
320,192,50892,1,0,0:0:0:0:
320,192,51544,1,0,0:0:0:0:
344,96,52196,6,0,P|280:96|240:128,1,100
192,192,53500,1,0,0:0:0:0:
176,288,54153,1,0,0:0:0:0:
264,328,54805,2,0,P|320:320|360:280,1,100
400,208,56109,1,0,0:0:0:0:
376,112,56761,1,0,0:0:0:0:
400,208,57413,6,0,P|328:184|288:200,1,100
224,240,58718,1,0,0:0:0:0:
224,240,59370,1,0,0:0:0:0:
128,216,60022,2,0,P|96:152|104:112,1,100
168,56,61326,1,0,0:0:0:0:
168,56,61979,1,0,0:0:0:0:
264,64,62631,6,0,P|272:128|248:168,1,100
160,160,63935,2,0,L|112:128,3,50
72,104,65239,1,0,0:0:0:0:
72,104,65892,1,0,0:0:0:0:
168,80,66544,2,0,P|224:96|248:128,1,100
360,96,90022,6,0,P|400:128|416:160,1,75.000002861023
392,224,91326,2,0,P|344:240|312:232,1,75.000002861023
264,184,92631,2,0,P|272:128|296:104,1,75.000002861023
352,80,93935,1,0,0:0:0:0:
320,144,94587,2,0,L|296:192|280:224,1,75.000002861023
248,280,95892,5,0,0:0:0:0:
248,280,96544,1,0,0:0:0:0:
176,272,97196,2,0,P|128:248|112:224,1,75.000002861023
72,168,98500,2,0,P|80:136|120:96,1,75.000002861023
168,56,99805,1,0,0:0:0:0:
168,56,100457,1,0,0:0:0:0:
320,72,101761,6,0,P|384:128|400:200,1,150.000005722046
384,264,103718,1,0,0:0:0:0:
400,192,104370,2,0,P|320:160|256:168,1,150.000005722046
192,208,106326,1,0,0:0:0:0:
144,144,106979,1,0,0:0:0:0:
176,72,107631,2,0,B|264:48|328:72|376:152,1,225.000008583069
144,200,110892,6,0,P|144:128|160:96,1,100
240,48,112196,1,0,0:0:0:0:
336,88,112848,1,0,0:0:0:0:
368,192,113500,2,0,P|320:232|264:232,1,100
184,208,114805,1,0,0:0:0:0:
184,208,115457,1,0,0:0:0:0:
176,112,116109,6,0,P|232:112|280:144,1,100
344,200,117413,1,0,0:0:0:0:
368,296,118066,1,0,0:0:0:0:
272,328,118718,2,0,P|216:320|184:288,1,100
136,200,120022,1,0,0:0:0:0:
168,104,120674,1,0,0:0:0:0:
136,200,121326,6,0,P|200:176|240:184,1,100
312,240,122631,1,0,0:0:0:0:
312,240,123283,1,0,0:0:0:0:
392,184,123935,2,0,P|416:136|408:88,1,100
336,48,125239,1,0,0:0:0:0:
336,48,125891,1,0,0:0:0:0:
240,64,126544,6,0,P|224:120|248:168,1,100
336,160,127848,2,0,L|384:136,3,50
424,120,129153,1,0,0:0:0:0:
424,120,129805,1,0,0:0:0:0:
336,80,130457,2,0,P|280:96|256:128,1,100
416,192,131761,5,0,0:0:0:0:
376,120,132413,1,0,0:0:0:0:
312,72,133066,1,0,0:0:0:0:
232,48,133718,2,0,P|184:72|144:128,1,100
128,184,135022,5,0,0:0:0:0:
128,184,135674,1,0,0:0:0:0:
128,184,136326,1,0,0:0:0:0:
152,264,136979,2,0,P|200:320|240:328,1,100
304,328,138283,2,0,P|368:304|384:280,1,100
424,208,139587,5,0,0:0:0:0:
424,208,140239,1,0,0:0:0:0:
424,208,140892,1,0,0:0:0:0:
352,248,141544,2,0,P|288:272|240:256,1,100
192,224,142848,2,0,P|152:176|144:136,1,100
128,64,144153,5,0,0:0:0:0:
208,48,144805,2,0,P|264:32|312:48,1,100
368,88,146109,1,0,0:0:0:0:
392,168,146761,1,0,0:0:0:0:
368,248,147413,2,0,P|320:304|280:304,1,100
216,296,148718,6,0,P|160:248|152:208,1,100
144,144,150022,2,0,P|168:88|208:64,1,100
280,48,151326,1,0,0:0:0:0:
280,128,151979,2,0,P|296:192|328:216,1,100
184,296,153935,5,0,0:0:0:0:
120,248,154587,2,0,P|88:184|96:144,1,100
120,80,155892,1,0,0:0:0:0:
120,80,156544,1,0,0:0:0:0:
120,80,157196,1,0,0:0:0:0:
192,120,157848,5,0,0:0:0:0:
248,176,158500,2,0,P|264:248|248:288,1,100
256,272,159805,1,0,0:0:0:0:
256,272,160457,1,0,0:0:0:0:
