osu file format v5

[General]
AudioFilename: Neko Nyan Dansu.mp3
AudioLeadIn: 0
PreviewTime: -1
Countdown: 0
SampleSet: Normal
StackLeniency: 0.7
Mode: 0
LetterboxInBreaks: 1
EditorBookmarks: 11767,36902,66091

[Metadata]
Title:Neko Nyan DANSU
Artist:Harenchi Punch
Creator:vytalibus
Version:Normal
Source:Chocotto Sister EP
Tags:Chocotto Sister

[Difficulty]
HPDrainRate:4
CircleSize:4
OverallDifficulty:4
SliderMultiplier:1.3
SliderTickRate:1

[Events]
//Background and Video events
1,0,"_Sister_ED__xvid.avi"
0,0,"startlw6.png"
//Break Periods
2,54129,65582
//Storyboard Layer 0 (Background)
//Storyboard Layer 1 (Failing)
//Storyboard Layer 2 (Passing)
//Storyboard Layer 3 (Foreground)
//Storyboard Sound Samples
//Background Colour Transformations
3,100,163,162,255

[TimingPoints]
3654.53880389279,405.405405405405,4,1,0,70,1

[HitObjects]
56,192,11762,1,4
56,256,11965,1,0
56,320,12168,1,8
184,320,12573,1,0
184,256,12776,1,0
184,192,12978,1,8
184,64,13384,5,0
120,64,13586,1,0
56,64,13789,1,8
56,192,14195,1,0
120,192,14397,1,0
184,192,14600,1,8
184,320,15005,6,4,B|184:184,1,130
56,192,15816,2,4,B|192:192,1,130
184,64,16627,2,4,B|184:136,2,65
184,192,17438,1,4
184,192,17843,1,4
312,192,18249,5,4
312,128,18451,1,0
312,64,18654,1,8
440,64,19059,1,0
440,128,19262,1,0
440,192,19465,1,8
440,320,19870,5,0
376,320,20073,1,0
312,320,20276,1,8
312,192,20681,1,0
376,192,20884,1,0
440,192,21086,1,8
440,64,21492,5,4
312,64,21897,1,4
312,192,22303,2,4,B|448:192,1,130
440,320,23113,2,4,B|368:320,2,65
312,320,23924,1,4
312,320,24330,1,4
184,320,24735,5,4
184,192,25141,1,8
56,192,25546,2,0,B|56:104|136:104,1,130,0|8
256,104,26357,2,0,B|256:240,1,130,0|8
320,232,26965,2,8,B|320:94,2,130,0|8|8
256,234,27978,1,4
256,104,28384,6,0,B|176:104|176:192,2,130,8|0|8
352,192,29600,1,4
152,192,30208,1,4
152,320,30613,1,4
352,320,31222,5,4
352,192,31627,1,8
352,64,32032,1,0
256,152,32438,1,2
160,64,32843,1,0
160,192,33249,1,8
160,320,33654,1,0
256,232,34059,1,2
256,192,34465,12,4,35884
256,64,37708,6,4,B|32:64|88:192,1,260
216,192,38924,1,8
344,192,39330,2,0,B|352:304|216:304,2,195,0|0|8
256,96,40951,5,4
168,192,41357,1,4
256,288,41762,1,4
344,192,42168,1,4
344,192,42370,1,4
256,64,43586,5,8
256,64,43789,1,8
256,64,43992,1,8
256,64,44195,2,4,B|480:64|424:192,1,260
296,192,45411,1,8
168,192,45816,2,0,B|160:304|296:304,2,195,0|0|8
40,192,47438,5,4
144,120,47843,1,4
256,192,48249,1,4
472,192,49059,5,4
368,120,49465,1,4
256,192,49870,1,4
256,32,50681,5,4
360,104,51086,2,0,B|344:216|256:352|168:216|152:96,1,390,0|4
256,192,52708,12,4,53924
280,144,66897,6,0,B|328:208|280:282|232:282|184:208|232:144,1,260,4|4
360,288,68519,1,4
160,288,69127,1,4
256,64,70141,6,2,B|256:208,1,130
256,320,70951,1,4
256,320,71154,1,4
256,320,71357,1,4
256,320,71559,1,4
256,192,71762,12,2,72573
200,192,73384,6,4,B|288:200|280:112,3,130
408,120,75005,2,4,B|192:288,1,260
200,72,76627,6,4,B|256:8|312:72,2,130
200,336,78249,6,4,B|256:272|312:336,2,130
256,192,79870,5,4
360,264,80276,2,2,B|344:152|256:16|168:152|152:272,1,390,2|4
256,192,81897,12,4,83113
