osu file format v9

[General]
AudioFilename: Ano Basyo e -ONE PIECE EDIT-.mp3
AudioLeadIn: 0
PreviewTime: 96401
Countdown: 0
SampleSet: Soft
StackLeniency: 0.5
Mode: 0
LetterboxInBreaks: 1

[Editor]
Bookmarks: 65528,72464,83216,96395,107493,118592,123100,128996,140095,153274,164372,175470,179979
DistanceSpacing: 0.9
BeatDivisor: 4
GridSize: 16

[Metadata]
Title:Ano Basho e -ONE PIECE EDIT-
Artist:Harebare
Creator:wring
Version:Normal
Source:One Piece
Tags:

[Difficulty]
HPDrainRate:2
CircleSize:3
OverallDifficulty:4
ApproachRate:4
SliderMultiplier:1.2
SliderTickRate:1

[Events]
//Background and Video events
0,0,"one-piece.jpg"
//Break Periods
2,53595,70456
2,123306,127335
//Storyboard Layer 0 (Background)
//Storyboard Layer 1 (Fail)
//Storyboard Layer 2 (Pass)
//Storyboard Layer 3 (Foreground)
//Storyboard Sound Samples
//Background Colour Transformations
3,100,163,162,255

[TimingPoints]
7323,375,4,2,0,70,1,0
52355,346.820809248555,4,2,1,70,1,0
96401,-100,4,2,1,70,0,1
123106,-100,4,2,1,70,0,0
153279,-100,4,2,1,70,0,1
179985,-100,4,2,1,70,0,0

[HitObjects]
256,192,53395,1,0
256,288,71776,5,4
448,64,72123,5,0
448,64,72297,1,0
448,64,72470,2,0,B|352:32|336:160,1,175,8|0
256,16,73164,1,8
173,142,73511,2,0,B|160:32|64:64,2,140,0|8|0
139,214,74378,1,0
64,240,74551,2,0,B|77:350|173:318,1,140,8|0
256,288,75071,1,0
304,352,75245,5,8
256,288,75418,1,0
208,224,75591,1,0
256,288,75765,1,0
352,288,75938,2,0,B|448:256|448:144|336:176|336:64|448:16,2,315,8|0|4
176,64,78019,5,0
32,32,78366,1,0
32,112,78539,1,0
96,160,78713,2,0,B|64:256|128:336,1,175,8|0
48,352,79233,1,0
112,313,79407,2,0,B|208:281|272:377,1,175,8|0
320,320,79927,5,0
368,272,80100,2,0,B|322:198|224:192,1,140,8|0
160,192,80620,1,0
235,192,80794,2,0,B|288:128|384:128,1,140,8|0
448,96,81314,1,0
400,32,81487,1,8
256,80,81834,1,0
112,32,82181,2,0,B|128:128|16:160,2,175,8|0|4
256,80,83222,5,0
400,96,83568,2,0,B|464:160|400:240,1,140,0|8
336,272,84089,1,0
256,272,84262,1,0
176,272,84435,1,0
176,192,85476,5,0
112,240,84609,2,0,B|48:160|112:80,2,175,8|0|8
176,112,85649,2,0,B|224:48|320:48,1,140,0|8
316,48,86170,1,0
464,48,86516,1,0
464,48,86690,2,0,B|416:128|304:128,2,175,8|0|8
496,192,87730,1,0
464,336,88077,6,0,B|416:256|304:256,1,175,8|0
176,272,88771,2,0,B|224:336|320:336,2,140,8|0|8
112,224,89638,1,0
24,96,89985,5,0
72,160,90158,1,8
120,96,90331,1,0
72,160,90505,1,0
72,288,90852,1,8
136,336,91025,2,0,B|184:368|248:368|296:336,2,140,0|0|0
136,272,91892,2,0,B|168:224|168:160|136:112,2,140,0|0|4
384,272,92933,5,0
336,224,93106,1,0
352,160,93279,1,8
464,80,93626,1,0
320,32,93973,2,0,B|208:32|160:96,1,175,2|0
64,176,94667,2,0,B|64:272|128:336,1,175,2|0
256,352,95360,1,0
304,288,95534,1,0
368,336,95707,1,0
416,272,95881,1,4
96,320,96401,5,0
128,256,96574,1,0
96,192,96748,1,8
96,64,97094,1,0
160,32,97268,1,0
224,64,97441,2,0,B|320:80|384:0,2,160,2|0|0
224,288,98482,1,0
272,240,98655,2,0,B|336:176,1,80,0|8
480,192,99175,6,0,B|416:242|368:306,2,160,2|0|0
416,64,100216,2,0,B|472:7,2,80,0|0|8
352,112,100736,2,0,B|336:32|256:-48|144:32|160:128|160:240,1,400,2|0
304,224,101950,1,0
256,288,102123,1,0
176,288,102297,2,0,B|80:240|64:144,1,160,2|0
160,64,102990,2,0,B|256:112|272:208,1,160,2|0
336,192,103511,1,0
400,160,103684,2,0,B|448:112|416:64|464:16,2,160,2|0|0
352,304,104724,5,0
416,256,104898,1,0
416,176,105071,1,8
320,64,105418,1,0
240,64,105591,1,0
176,32,105765,2,0,B|80:64|80:176,1,160,2|0
80,224,106285,1,0
128,288,106459,2,0,B|224:240|224:128,2,160,2|0|0
464,192,107499,6,0,B|384:192,1,80
336,128,107846,2,0,B|256:96|176:128,1,160,2|0
144,192,108366,1,0
144,192,108539,2,0,B|64:192,1,80,8|0
336,272,109060,2,0,B|256:304|176:272,1,160,2|0
192,208,109580,1,0
256,176,109753,1,0
320,208,109927,1,4
160,144,110274,6,0,B|96:64,2,80,0|0|8
352,144,110967,2,0,B|416:64,2,80,2|0|0
352,144,111487,1,0
256,48,111834,2,0,B|248:120|264:192|256:288,1,240
256,368,112528,1,0
256,288,112701,1,4
416,320,113048,6,0,B|352:256,1,80,2|0
400,192,113395,1,0
112,192,113742,1,0
256,32,114089,1,0
192,192,114435,2,0,B|160:128|144:128|112:96|80:128|112:64|144:128|112:96|80:128|64:128|32:192,2,240,2|0|0
464,304,115823,6,0,B|384:304,1,80,2|0
304,304,116170,1,0
224,336,117383,1,0
160,304,116516,2,0,B|96:352|0:368,2,160,2|0|0
224,256,117557,2,0,B|192:192|160:112|0:144|160:176|192:96|240:0,1,320,2|0
368,32,118597,5,0
368,128,118771,1,0
448,80,118944,1,8
288,80,119291,1,8
368,208,119638,6,0,B|448:192,2,80,2|0|0
368,288,120158,1,0
368,368,120331,2,0,B|288:336,1,80,2|0
224,320,120678,1,0
120,280,120852,1,0
72,184,121025,1,2
136,88,121198,1,0
256,192,121285,8,4,123106
256,192,128655,5,0
64,64,129002,5,0
80,144,129175,1,0
112,224,129349,2,0,B|160:320|256:304,1,160,8|0
400,160,130042,1,8
400,240,131256,1,0
400,160,130389,2,0,B|352:64|256:80,2,160,0|8|0
432,320,131430,2,0,B|336:320|304:208,1,160,8|0
336,160,131950,1,0
311,231,132123,6,0,B|208:224|176:336,1,160,8|0
128,336,132644,1,0
128,272,132817,2,0,B|80:128|176:64|240:160|144:224|16:112,2,320,8|0|4
416,96,134724,5,0
352,64,134898,1,0
416,32,135071,1,0
480,64,135245,1,8
416,96,135418,2,0,B|464:176|432:256,1,160,0|0
368,240,135938,1,8
336,304,136112,2,0,B|400:368|512:288,2,160
368,240,136979,6,0,B|352:144|256:112,1,160,8|0
192,80,137499,1,0
128,144,137672,2,0,B|144:240|240:272,1,160,8|0
304,256,138193,1,0
256,192,138366,1,8
208,128,138539,1,0
144,64,138713,2,0,B|96:48|64:96,1,80
128,144,139060,2,0,B|96:240|16:272,2,160,8|0|4
256,304,140100,5,0
256,304,140274,1,0
256,304,140447,1,0
256,304,140620,1,0
192,112,140967,2,0,B|128:176|224:256,1,160,0|0
256,192,142354,5,0
296,248,141487,2,0,B|384:176|320:112,2,160
256,128,142528,2,0,B|256:16|368:64,1,160,0|8
432,96,143048,1,0
432,176,143222,1,0
432,256,143395,1,0
368,304,143568,2,0,B|304:368|208:304,2,160,8|0|8
176,80,144609,5,0
176,80,144956,2,0,B|208:160|144:240,1,160,8|0
80,256,145476,1,0
176,240,146516,1,0
144,304,145649,2,0,B|208:368|304:304,2,160,8|0|8
336,240,146863,5,0
336,160,147037,1,8
336,240,147210,1,0
256,240,147383,1,0
256,96,147730,1,8
192,48,147904,2,0,B|144:16|80:16|32:48,2,160,0|0|0
192,112,148771,2,0,B|160:160|160:224|192:272,2,160,0|0|4
184,264,149811,5,0
112,240,149985,1,0
48,256,150158,1,8
64,112,150505,1,0
192,32,150852,2,0,B|304:32|352:96,1,160,2|0
448,176,151545,2,0,B|448:272|384:336,1,160,2|0
256,272,152239,1,0
192,320,152412,1,0
144,256,152586,1,0
80,304,152759,1,4
416,64,153279,5,0
464,128,153453,1,0
416,192,153626,1,8
464,352,153973,1,0
412,291,154146,1,0
336,320,154320,2,0,B|240:304|176:384,2,160,2|0|0
112,112,155360,2,0,B|160:176,1,80,0|8
208,240,155707,1,0
80,208,156921,1,0
80,288,156054,6,0,B|160:320|240:384,2,160,2|0|0
80,128,157094,2,0,B|32:64,2,80,0|0|8
160,112,157615,2,0,B|176:32|256:-48|368:32|352:128|352:240,1,400,2|0
208,224,158828,1,0
256,288,159002,1,0
336,288,159175,2,0,B|368:192|448:144,1,160,2|0
336,48,159869,2,0,B|304:144|224:192,1,160,2|0
176,144,160389,1,0
112,192,160563,2,0,B|64:240|96:288|48:336,2,160,2|0|0
224,256,161603,5,0
256,176,161776,1,0
176,144,161950,1,8
48,48,162297,5,0
96,112,162470,1,0
160,64,162644,2,0,B|256:16|320:96,1,160,2|0
368,32,163164,1,0
304,80,163337,2,0,B|384:160|480:112,2,160,2|0|0
112,192,164378,5,0
176,256,164551,1,0
176,256,164724,2,0,B|256:288|336:256,1,160,2|0
332,257,165245,1,0
400,192,165418,1,8
332,126,165591,1,0
176,128,165938,6,0,B|256:96|336:128,1,160,2|0
336,48,166459,1,0
256,16,166632,1,0
176,48,166805,1,4
256,272,167152,6,0,B|256:352,2,80,0|0|8
96,128,167846,2,0,B|112:208|208:240,1,160,2|0
201,237,168366,1,0
416,128,168713,2,0,B|400:208|304:240,1,160,2|0
256,176,169233,1,0
256,96,169407,1,0
256,176,169580,1,4
96,64,169927,6,0,B|160:128,1,80,2|0
112,192,170274,1,0
400,192,170620,1,0
256,352,170967,1,0
176,64,172701,5,2
320,192,171314,2,0,B|352:128|368:128|400:96|432:128|400:64|368:128|400:96|432:128|448:128|480:192,2,240,2|0|0
112,112,172875,1,0
128,192,173048,1,0
288,336,174262,1,0
208,336,173395,2,0,B|112:320|64:240,2,160,2|0|0
288,256,174435,2,0,B|320:192|352:112|512:144|352:176|320:96|272:0,1,320,2|0
144,32,175476,5,0
144,128,175649,1,0
224,80,175823,1,8
64,80,176170,1,8
144,224,176516,5,2
208,176,176690,1,0
272,224,176863,1,0
208,176,177037,1,0
144,224,177210,1,2
168,296,177383,1,0
248,296,177557,1,0
352,272,177730,1,0
400,176,177904,1,2
336,80,178077,1,0
256,192,178164,8,4,179985
