osu file format v9

[General]
AudioFilename: Ano Basyo e -ONE PIECE EDIT-.mp3
AudioLeadIn: 0
PreviewTime: 96396
Countdown: 0
SampleSet: Soft
StackLeniency: 0.5
Mode: 0
LetterboxInBreaks: 1

[Editor]
Bookmarks: 123279,180158
DistanceSpacing: 1.2
BeatDivisor: 4
GridSize: 8

[Metadata]
Title:Ano Basho e -ONE PIECE EDIT-
Artist:Harebare
Creator:wring
Version:Insane
Source:One Piece
Tags:

[Difficulty]
HPDrainRate:7
CircleSize:5
OverallDifficulty:7
ApproachRate:8
SliderMultiplier:1.7
SliderTickRate:1

[Events]
//Background and Video events
0,0,"one-piece.jpg"
//Break Periods
2,66427,71026
2,123306,127905
//Storyboard Layer 0 (Background)
//Storyboard Layer 1 (Fail)
//Storyboard Layer 2 (Pass)
//Storyboard Layer 3 (Foreground)
//Storyboard Sound Samples
//Background Colour Transformations
3,100,163,162,255

[TimingPoints]
7323,375,4,2,0,70,1,0
52355,346.820809248555,4,2,1,70,1,0
96401,-100,4,2,1,70,0,1
123106,-100,4,2,1,70,0,0
153279,-100,4,2,1,70,0,1
179985,-100,4,2,1,70,0,0
185881,-100,4,2,1,90,0,0
186401,-100,4,2,1,80,0,0
186921,-100,4,2,1,70,0,0
187441,-100,4,2,1,60,0,0
187961,-100,4,2,1,50,0,0
188482,-100,4,2,1,40,0,0
189002,-100,4,2,1,30,0,0
189522,-100,4,2,1,20,0,0
190042,-100,4,2,1,10,0,0
190563,-100,4,2,1,5,0,0

[HitObjects]
160,48,53395,5,8
192,128,53568,1,0
272,96,53742,2,0,B|328:80|400:112|416:176,1,170,4|8
472,224,54262,1,0
456,304,54435,1,2
456,304,54522,1,0
456,304,54609,1,0
376,320,54782,1,2
336,248,54956,2,0,B|280:224|208:312|144:248,1,170,4|0
152,352,55476,2,0,B|192:256|136:168,1,170,2|4
360,112,56170,6,0,B|400:88|408:40,2,85,8|0|4
280,144,56690,1,0
232,72,56863,1,8
144,64,57037,1,0
192,136,57210,1,2
112,144,57383,2,0,B|120:200|72:232,1,85,0|8
136,288,57730,2,0,B|176:264|200:216|200:160|192:120|192:120,2,170,4|2|8
136,288,58597,1,4
400,336,58944,6,0,B|384:296|392:248,1,85,8|0
328,192,59291,2,0,B|440:152,1,85,4|0
480,48,59638,2,0,B|448:80|384:80,1,85,8|0
320,56,59985,1,2
288,32,60071,1,0
248,40,60158,1,2
224,80,60245,1,0
224,120,60331,2,0,B|216:168|168:208|96:200|64:160,1,170,8|4
16,144,60852,1,0
8,232,61025,1,8
16,272,61112,1,0
48,296,61198,1,2
88,296,61285,1,0
120,320,61372,1,4
200,192,61719,6,0,B|208:144|264:128,1,85,2|0
336,192,62065,2,0,B|328:240|272:256,1,85,4|0
152,136,62412,2,0,B|160:88|216:72,1,85,2|0
392,200,62759,2,0,B|392:248|336:320|248:320,1,170,4|2
256,192,63279,12,4,66227
456,48,71776,6,0,B|360:24|304:112,1,170,4|8
248,168,72297,1,0
168,136,72470,1,2
176,48,72644,1,0
88,56,72817,2,0,B|96:104|72:152,1,85,8|2
16,200,73164,2,0,B|120:232,1,85,4|0
104,328,73511,5,8
200,296,73684,1,0
200,296,73857,2,0,B|184:248|192:200,1,85,2|0
144,120,74204,1,8
232,72,74378,1,0
296,152,74551,2,0,B|280:200|304:256,1,85,4|0
384,288,74898,1,8
384,288,75071,6,0,B|312:360|216:328,1,170,4|0
72,280,75591,2,0,B|144:208|240:240,1,170,8|4
296,160,76112,1,2
296,160,76198,1,0
296,160,76285,1,0
272,56,76459,1,2
272,56,76545,1,0
272,56,76632,2,0,B|312:40|360:56,1,85,2|2
448,40,76979,2,0,B|408:144,1,85,8|2
360,184,77326,2,0,B|368:240|408:272,1,85,4|0
480,320,77672,5,8
408,368,77846,1,0
328,336,78019,2,0,B|232:384|160:304,1,170,2|8
88,272,78539,1,0
96,176,78713,1,4
184,216,78886,1,0
240,136,79060,1,8
240,136,79233,2,0,B|272:96|376:176|408:120,1,170,4|0
368,40,79753,1,8
480,56,79927,5,0
496,168,80100,2,0,B|456:264|336:256,1,170,4|8
288,216,80620,1,0
248,296,80794,1,8
192,232,80967,1,2
144,304,81141,1,8
200,368,81314,5,2
304,304,81487,1,4
240,208,81661,1,2
176,152,81834,6,0,B|160:104|104:88,1,85,8|0
32,80,82181,2,0,B|112:-8,1,85,2|0
64,160,82528,2,0,B|48:208|0:248,2,85,8|2|4
192,312,83222,6,0,B|136:232|176:144,1,170,2|2
192,56,83742,1,0
288,48,83915,1,8
304,144,84089,2,0,B|336:176|424:104|472:152,1,170,4|0
456,232,84609,2,0,B|440:272|456:320,1,85,8|0
360,272,84956,1,2
360,272,85302,5,2
280,240,85476,2,0,B|232:248|208:288,1,85,0|4
168,360,85823,2,0,B|104:256,1,85,0|8
48,248,86170,1,0
80,168,86343,2,0,B|48:72|120:16,1,170,4|8
232,48,86863,2,0,B|264:144|192:200,1,170,4|0
152,288,87383,1,8
232,344,87557,5,2
232,344,87644,1,0
232,344,87730,1,0
280,264,87904,1,2
280,264,87990,1,0
280,264,88077,1,0
376,280,88250,5,2
376,280,88337,1,0
376,280,88424,1,4
368,184,88597,1,0
368,184,88771,2,0,B|336:144|216:224|200:152,1,170,8|2
95,35,89291,2,0,B|136:48|136:104,1,85,0|8
64,136,89638,2,0,B|32:200|120:240|80:304,1,170,4|0
8,328,90158,2,0,B|96:264|176:328,1,170,8|2
264,360,90678,2,0,B|304:384,2,42.5,2|0|0
352,304,91025,6,0,B|368:256|352:208,1,85,2|8
432,160,91372,2,0,B|328:104,1,85,2|8
360,24,91719,2,0,B|312:16|264:56,1,85,2|8
248,136,92065,2,0,B|192:128|152:88,1,85,0|2
104,24,92412,2,0,B|160:104|96:208,1,170,4|0
32,248,92933,1,8
80,336,93106,5,0
168,280,93279,1,0
256,328,93453,1,2
320,248,93626,1,8
424,240,93800,1,2
384,144,93973,6,0,B|344:168|288:152,1,85,4|0
128,240,94320,2,0,B|168:216|224:232,1,85,2|0
304,320,94667,2,0,B|280:280|296:224,1,85,4|0
208,64,95013,2,0,B|232:104|216:160,1,85,2|0
208,280,95360,5,8
344,240,95534,1,2
296,104,95707,1,8
160,152,95881,1,4
96,320,96401,5,2
80,280,96487,1,0
80,240,96574,1,0
32,168,96748,2,0,B|72:144|112:88,1,85,4|0
104,24,97094,2,0,B|64:8,2,42.5,8|0|0
200,64,97441,1,2
200,64,97528,1,0
200,64,97615,1,0
216,168,97788,1,8
216,168,97961,2,0,B|256:208|336:128|384:168,1,170,4|0
408,80,98482,2,0,B|360:152|392:272,1,170,2|4
208,344,99175,5,8
256,256,99349,1,0
248,152,99522,2,0,B|256:104|232:56,1,85,4|0
152,16,99869,2,0,B|192:0,2,42.5,8|2|0
64,64,100216,1,8
96,160,100389,1,2
40,240,100563,1,2
64,336,100736,1,2
64,336,100823,1,0
64,336,100909,1,8
168,352,101083,1,0
240,280,101256,2,0,B|264:312|368:240|408:280,1,170,4|8
200,112,101950,5,2
264,56,102123,1,0
312,128,102297,2,0,B|416:144|416:264,1,170,4|8
415,243,102817,1,2
328,320,102990,2,0,B|224:304|224:184,1,170,4|8
200,112,103511,2,0,B|120:184,1,85,0|2
88,240,103857,1,0
32,176,104031,1,8
24,136,104118,1,0
56,112,104204,1,2
88,80,104291,1,0
104,40,104378,1,2
312,16,104724,5,2
312,16,104898,1,0
360,88,105071,1,4
280,120,105245,1,0
320,200,105418,2,0,B|304:248|328:312,1,85,8|0
312,368,105765,2,0,B|208:312,1,85,8|2
152,344,106112,2,0,B|160:296|136:248,1,85,4|0
88,192,106459,1,8
88,192,106545,1,0
88,192,106632,1,2
88,192,106719,1,0
88,192,106805,1,8
88,192,106892,1,0
88,192,106979,1,2
88,192,107065,1,0
88,192,107152,1,4
240,272,107499,5,2
304,208,107672,1,0
392,240,107846,1,4
392,240,107933,1,0
392,240,108019,1,0
456,168,108193,1,8
408,88,108366,1,2
408,88,108453,1,0
408,88,108539,2,0,B|360:104|320:80,1,85,2|0
264,8,108886,1,8
192,72,109060,2,0,B|224:152|184:256,1,170,4|0
160,320,109580,2,0,B|112:288,4,42.5,8|0|2|0|4
64,56,110274,5,2
120,120,110447,1,0
192,72,110620,2,0,B|256:128|320:40|368:104,1,170,4|8
353,89,111054,1,0
353,89,111141,1,2
448,80,111314,1,2
448,80,111401,1,0
448,80,111487,1,2
480,168,111661,1,8
400,208,111834,2,0,B|384:256|408:320,2,85,0|2|2
312,176,112355,2,0,B|248:176,4,42.5,8|0|2|0|4
224,344,113048,5,2
152,296,113222,1,0
200,224,113395,2,0,B|224:184|208:128,1,85,4|0
216,48,113742,2,0,B|112:112,1,85,8|2
64,40,114089,2,0,B|48:88|72:144,1,85,8|2
40,216,114435,1,8
128,232,114609,2,0,B|216:200|304:264,1,170,4|0
336,336,115129,2,0,B|368:304,4,42.5,8|0|2|0|4
152,312,115823,6,0,B|144:256|120:216,1,85,2|0
40,216,116170,2,0,B|128:128,1,85,4|0
24,104,116516,1,8
80,32,116690,1,0
168,72,116863,2,0,B|152:128|192:176,2,85,2|0|8
256,40,117383,2,0,B|312:112|272:216,1,170,4|0
240,280,117904,5,8
184,216,118077,1,0
160,296,118250,1,2
216,360,118424,1,2
296,344,118597,5,8
184,216,118771,1,2
256,64,118944,1,4
256,64,119291,1,8
448,96,119638,6,0,B|464:136|448:192,1,85,8|2
488,256,119985,2,0,B|440:248|392:296,1,85,2|0
368,352,120331,2,0,B|304:248,1,85,4|0
344,184,120678,1,8
312,96,120852,1,0
248,160,121025,1,2
280,248,121198,5,0
296,152,121372,1,8
216,96,121545,1,2
144,160,121719,1,4
184,248,121892,2,0,B|184:312|224:344,2,85,0|2|2
144,160,122412,2,0,B|144:112|112:80,2,85,0|2|2
96,240,122933,1,2
240,176,123106,1,4
72,152,128655,5,4
72,152,129002,1,8
120,224,129176,1,0
208,216,129349,1,0
200,304,129523,1,0
280,336,129696,1,8
280,336,129869,2,0,B|272:288|296:240,1,85,2|4
360,200,130216,2,0,B|272:120,1,85,0|8
248,64,130563,6,0,B|248:112|208:160,1,85,0|2
144,200,130909,1,0
128,296,131083,1,8
200,360,131257,1,0
288,336,131430,2,0,B|288:280|320:240,1,85,4|0
384,200,131777,1,8
384,200,131950,6,0,B|400:88|304:32,1,170,4|0
208,96,132470,2,0,B|192:208|288:264,1,170,8|4
288,336,132990,2,0,B|328:304,2,42.5,2|0|0
200,352,133338,1,2
200,352,133424,1,0
200,352,133511,2,0,B|160:368|112:352,1,85,2|2
32,368,133858,2,0,B|40:312|80:272,1,85,8|2
144,240,134204,1,4
120,152,134378,1,0
32,176,134551,5,8
40,80,134725,1,0
120,32,134898,2,0,B|160:0|248:88|288:32,1,170,2|8
376,16,135418,1,0
432,96,135592,1,4
368,168,135765,1,0
408,256,135939,1,8
408,256,136112,2,0,B|352:264|344:352|264:352,1,170,4|0
200,296,136632,1,8
112,336,136806,5,0
48,264,136979,2,0,B|24:160|88:72,1,170,4|8
128,24,137499,1,0
160,112,137673,1,8
248,144,137846,1,2
248,48,138020,1,8
336,80,138193,5,2
208,80,138366,1,4
176,200,138540,1,2
240,280,138713,6,0,B|256:328|312:344,1,85,8|0
384,352,139060,2,0,B|352:240,1,85,2|0
416,208,139407,1,8
416,120,139580,1,2
336,80,139753,1,4
336,80,140100,5,2
264,152,140274,1,2
328,232,140447,1,2
288,328,140621,1,2
168,208,140968,6,0,B|136:176|48:248|0:200,1,170,4|0
56,120,141488,2,0,B|56:72|88:32,1,85,8|0
160,88,141835,1,2
160,88,142181,5,2
232,136,142355,2,0,B|280:128|304:88,1,85,0|4
352,24,142702,2,0,B|416:128,1,85,0|8
472,136,143049,1,0
432,208,143222,2,0,B|464:304|392:360,1,170,4|8
280,336,143742,2,0,B|248:240|320:184,1,170,4|0
344,96,144262,1,8
264,40,144436,5,2
224,56,144523,1,0
184,48,144609,1,0
112,112,144783,1,2
72,104,144869,1,0
32,128,144956,1,0
96,200,145129,5,2
136,208,145216,1,0
176,192,145303,1,4
152,288,145476,1,0
152,288,145649,2,0,B|184:328|304:248|320:320,1,170,8|2
368,216,146170,1,0
464,240,146343,1,8
480,136,146516,2,0,B|464:88|352:160|320:96,1,170,4|0
320,16,147037,2,0,B|344:120|272:184,1,170,8|2
184,176,147557,2,0,B|208:216,2,42.5,2|0|0
112,104,147904,6,0,B|80:144|96:208,1,85,2|8
16,248,148251,2,0,B|128:304,1,85,2|8
136,368,148598,2,0,B|184:376|224:336,1,85,2|8
256,256,148944,2,0,B|312:256|352:304,1,85,0|2
408,360,149291,2,0,B|352:280|416:176,1,170,4|0
480,136,149812,1,8
432,48,149985,5,0
344,104,150158,1,0
256,56,150332,1,2
168,104,150505,1,8
200,200,150679,1,2
296,240,150852,6,0,B|283:282|307:322,1,85,4|0
304,152,151199,2,0,B|346:164|386:140,1,85,2|0
216,144,151546,2,0,B|228:101|204:61,1,85,4|0
208,232,151892,2,0,B|165:219|125:243,1,85,2|0
168,144,152239,5,8
208,280,152412,1,2
344,240,152586,1,8
308,100,152759,1,4
416,48,153280,5,2
416,48,153366,1,0
416,48,153453,1,0
464,120,153627,2,0,B|424:152|416:208,1,85,4|0
416,272,153973,2,0,B|456:288,2,42.5,8|0|0
344,312,154320,1,2
344,312,154407,1,0
344,312,154494,1,0
272,264,154667,1,8
272,264,154840,2,0,B|232:224|152:304|104:264,1,170,4|0
80,352,155360,2,0,B|128:280|96:160,1,170,2|4
280,88,156054,5,8
184,112,156228,1,0
192,216,156401,2,0,B|208:264|192:312,1,85,4|0
264,376,156748,1,8
264,376,156834,1,0
264,376,156921,1,0
360,336,157095,1,8
376,232,157268,1,2
472,192,157442,1,2
448,96,157615,1,2
424,64,157702,1,0
384,40,157788,1,8
328,120,157962,1,0
240,64,158135,2,0,B|240:120|200:168,1,85,4|0
128,200,158482,1,8
112,368,158829,5,2
192,336,159002,1,0
216,256,159176,2,0,B|112:240|112:120,1,170,4|8
112,140,159696,1,2
200,64,159869,2,0,B|304:80|304:200,1,170,4|8
312,264,160390,2,0,B|392:192,1,85,0|2
424,136,160736,1,0
472,208,160910,1,8
480,248,160997,1,0
448,280,161083,1,2
408,304,161170,1,0
400,344,161257,1,2
200,368,161603,5,2
200,368,161777,1,0
144,296,161950,1,4
144,296,162124,1,0
160,200,162297,2,0,B|176:152|152:88,1,85,8|0
144,24,162644,2,0,B|248:80,1,85,8|2
272,144,162991,2,0,B|320:144|352:96,1,85,4|0
424,64,163338,1,8
464,88,163424,1,0
480,128,163511,1,2
464,168,163598,1,0
424,184,163684,1,8
384,184,163771,1,0
352,216,163858,1,2
344,256,163944,1,0
360,296,164031,1,4
272,144,164378,5,2
200,192,164551,1,0
128,144,164725,1,4
128,144,164812,1,0
128,144,164898,1,0
80,216,165072,1,8
104,296,165245,1,2
104,296,165332,1,0
104,296,165418,2,0,B|152:280|192:304,1,85,2|0
248,360,165765,1,8
320,312,165939,2,0,B|288:232|328:128,1,170,4|0
320,64,166459,1,8
360,56,166545,1,0
400,72,166632,1,2
424,104,166719,1,0
424,144,166805,1,4
448,328,167153,5,2
392,264,167326,1,0
320,312,167499,2,0,B|272:256|208:360|144:280,1,170,4|8
136,264,167933,1,0
120,224,168020,1,2
48,272,168193,1,2
24,232,168280,1,0
32,192,168366,1,2
96,136,168540,1,8
112,56,168713,2,0,B|56:40|16:80,2,85,0|2|2
192,80,169233,1,8
224,104,169320,1,0
224,144,169407,1,2
208,184,169493,1,0
224,224,169580,1,4
288,40,169927,5,2
360,88,170101,1,0
312,160,170274,2,0,B|288:200|304:256,1,85,4|0
296,336,170621,2,0,B|400:272,1,85,8|2
448,344,170968,2,0,B|464:296|440:240,1,85,8|2
472,168,171314,1,8
384,152,171488,2,0,B|296:184|208:120,1,170,4|0
176,48,172008,2,0,B|144:80,4,42.5,8|0|2|0|4
360,72,172702,6,0,B|368:128|392:168,1,85,2|0
472,168,173049,2,0,B|384:256,1,85,4|0
480,280,173395,1,8
416,336,173569,1,0
336,312,173742,2,0,B|352:256|312:208,2,85,2|0|8
256,344,174262,2,0,B|200:272|240:168,1,170,4|0
272,104,174783,1,8
328,168,174956,1,0
352,88,175129,1,2
296,24,175303,1,2
216,40,175476,5,8
328,168,175650,1,2
256,320,175823,1,4
256,320,176170,1,8
72,336,176517,6,0,B|56:296|72:240,1,85,8|2
8,176,176864,2,0,B|48:176|96:112,1,85,2|0
128,56,177210,2,0,B|192:160,1,85,4|0
176,224,177557,1,8
264,192,177731,1,0
328,264,177904,1,2
240,320,178077,5,0
224,216,178251,1,8
312,160,178424,1,2
392,224,178598,2,0,B|416:272|472:280,1,85,4|0
472,176,178945,2,0,B|448:128|400:120,1,85,2|2
312,160,179291,2,0,B|344:120|328:64,1,85,4|0
240,32,179638,2,0,B|208:72|224:128,1,85,2|2
232,216,179985,1,4
232,216,180331,5,2
104,328,180678,2,0,B|56:312|48:256,1,85,4|0
104,56,181198,6,0,B|56:72|48:128,1,85,2|2
88,192,181545,2,0,B|136:176|144:120,1,85,0|2
216,88,181892,2,0,B|264:88|296:128,1,85,0|2
248,192,182239,2,0,B|274:226|322:226,1,85
376,160,182586,1,2
376,160,182672,1,0
376,160,182759,5,4
136,160,183106,1,2
256,336,183453,2,0,B|304:352|344:320,1,85,4|0
376,160,183974,6,0,B|376:112|320:80,1,85,2|2
232,112,184320,2,0,B|190:89|190:41,1,85,0|2
136,160,184667,2,0,B|88:160|64:216,1,85,0|2
112,296,185013,1,0
216,312,185187,1,2
216,312,185274,1,0
216,312,185360,1,2
288,240,185534,1,4
256,192,185620,12,0,191083
