osu file format v9

[General]
AudioFilename: Ano Basyo e -ONE PIECE EDIT-.mp3
AudioLeadIn: 0
PreviewTime: 96396
Countdown: 0
SampleSet: Soft
StackLeniency: 0.4
Mode: 0
LetterboxInBreaks: 1

[Editor]
Bookmarks: 65528,96395,118592,164372,179979
DistanceSpacing: 1
BeatDivisor: 4
GridSize: 8

[Metadata]
Title:Ano Basho e -ONE PIECE EDIT-
Artist:Harebare
Creator:wring
Version:Hard
Source:One Piece
Tags:

[Difficulty]
HPDrainRate:4
CircleSize:4
OverallDifficulty:6
ApproachRate:7
SliderMultiplier:1.6
SliderTickRate:1

[Events]
//Background and Video events
0,0,"one-piece.jpg"
//Break Periods
2,66427,70876
2,123305,127755
//Storyboard Layer 0 (Background)
//Storyboard Layer 1 (Fail)
//Storyboard Layer 2 (Pass)
//Storyboard Layer 3 (Foreground)
//Storyboard Sound Samples
//Background Colour Transformations
3,100,163,162,255

[TimingPoints]
7323,375,4,2,0,70,1,0
52355,346.820809248555,4,2,1,70,1,0
96401,-100,4,2,1,70,0,1
123106,-100,4,2,1,70,0,0
153279,-100,4,2,1,70,0,1
179985,-100,4,2,1,70,0,0
185881,-100,4,2,1,90,0,0
186401,-100,4,2,1,80,0,0
186921,-100,4,2,1,70,0,0
187441,-100,4,2,1,60,0,0
187961,-100,4,2,1,50,0,0
188482,-100,4,2,1,40,0,0
189002,-100,4,2,1,30,0,0
189522,-100,4,2,1,20,0,0
190042,-100,4,2,1,10,0,0
190563,-100,4,2,1,5,0,0

[HitObjects]
96,256,53395,1,8
168,296,53568,1,0
240,256,53742,2,0,B|280:272|320:256,2,80,4|0|8
240,176,54262,1,0
168,136,54435,6,0,B|128:136,2,40,2|2|2
208,64,54782,2,0,B|248:48|288:64,1,80,8|2
360,88,55129,1,0
360,88,55302,1,0
336,168,55476,2,0,B|312:256|376:328,1,160,8|4
128,320,56170,6,0,B|208:320,1,80,8|0
160,248,56516,2,0,B|240:248,1,80,2|0
192,176,56863,2,0,B|272:176,1,80,8|0
224,104,57210,1,2
160,56,57383,1,2
96,104,57557,1,8
128,176,57730,2,0,B|288:176,1,160,4|0
328,248,58250,2,0,B|160:248,1,160,8|4
376,72,58944,6,0,B|336:144,1,80,8|0
288,208,59291,2,0,B|248:136,1,80,2|0
200,72,59638,2,0,B|160:144,1,80,8|0
40,72,59985,2,0,B|120:216,1,160,4|8
84,284,60505,2,0,B|116:311|166:303|201:266|195:220,1,160,2|0
192,144,61025,1,8
264,184,61198,1,2
344,176,61372,1,4
432,320,61719,6,0,B|352:352|272:320,1,160,2|0
200,288,62239,1,2
152,224,62412,2,0,B|120:144|144:64,2,160,8|0|8
200,288,63279,1,2
256,192,63366,12,4,66227
424,120,71776,5,4
424,120,72123,1,8
352,152,72297,1,0
280,120,72470,2,0,B|200:96|120:120,1,160,4|8
48,152,72990,1,0
56,72,73164,1,0
122,119,73337,1,2
112,200,73511,2,0,B|80:280|112:360,2,160,8|0|8
48,152,74378,5,0
122,119,74551,2,0,B|200:96|280:120,1,160,4|8
352,152,75071,1,0
416,200,75245,2,0,B|448:280|416:360,1,160,2|8
336,376,75765,1,0
264,336,75938,2,0,B|224:256|264:168,2,160,4|8|2
416,200,76979,2,0,B|456:280|416:368,2,160,8|2|8
376,128,77846,5,2
320,72,78019,1,0
240,56,78193,1,2
160,64,78366,2,0,B|112:24|48:112|8:72,2,160,8|0|8
240,56,79233,1,0
216,128,79407,2,0,B|184:200|216:288,1,160,2|8
288,320,79927,5,0
352,272,80100,2,0,B|382:187|350:115,1,160,4|8
280,72,80620,1,0
216,128,80794,2,0,B|184:200|216:288,1,160,2|8
168,352,81314,1,2
96,312,81487,2,0,B|72:272|72:232,1,80,4|0
72,160,81834,2,0,B|72:120|96:80,1,80,8|0
168,120,82181,2,0,B|192:200|160:288,2,160,2|8|4
96,312,83222,5,8
168,352,83395,1,0
248,336,83568,2,0,B|328:360|408:336,1,160,4|8
480,304,84089,1,0
480,224,84262,1,2
408,200,84435,1,0
360,264,84609,2,0,B|272:272|200:232,2,160,8|2|8
440,248,85476,5,2
472,176,85649,2,0,B|496:96|480:16,1,160,4|8
400,40,86170,2,0,B|320:56|240:24,1,160,2|0
208,96,86690,2,0,B|152:160|64:168,2,160,8|2|8
56,40,87730,1,2
56,40,87904,1,2
56,40,88077,6,0,B|32:120|56:200,1,160,8|0
88,272,88597,1,2
168,256,88771,2,0,B|352:216|352:216,2,160,8|0|8
88,272,89638,1,2
128,120,89985,5,0
200,80,90158,1,8
272,120,90331,1,2
200,80,90505,1,8
312,272,90852,1,8
356,340,91025,6,0,B|396:356|436:340,2,80,0|2|0
312,272,91545,2,0,B|272:256|232:272,2,80,8|2|0
304,192,92065,2,0,B|343:176|350:132,1,80,2|8
432,132,92412,2,0,B|396:104|400:60,2,80,0|2|0
432,216,92933,5,8
392,288,93106,1,2
312,272,93279,2,0,B|272:288|232:272,1,80,8|2
264,200,93626,2,0,B|224:184|184:200,1,80,8|2
152,272,93973,2,0,B|109:265|83:222|87:171|123:147,1,160,4|8
80,80,94493,1,0
24,144,94667,2,0,B|8:192|8:248|32:280|56:304,1,160,2|8
112,344,95187,1,0
192,344,95360,5,2
224,248,95534,1,2
272,344,95707,1,2
304,248,95881,1,4
136,72,96401,5,8
184,136,96574,1,0
248,88,96748,2,0,B|328:64|408:88,1,160,4|8
472,136,97268,1,0
400,168,97441,5,2
464,216,97615,1,2
392,248,97788,1,8
400,168,97961,2,0,B|320:144|240:168,1,160,2|0
176,216,98482,1,8
242,167,98655,2,0,B|264:132|256:88,1,80,0|4
112,168,99175,6,0,B|64:104|80:16,2,160,8|2|8
176,216,100042,1,0
104,248,100216,2,0,B|16:304|16:304,2,80,8|0|10
176,216,100736,2,0,B|256:184|336:216,1,160,4|0
384,280,101256,2,0,B|304:312|224:280,1,160,8|4
160,136,101950,5,8
224,88,102123,1,0
304,112,102297,2,0,B|336:192|304:272,1,160,4|8
248,328,102817,1,0
176,352,102990,2,0,B|80:376|32:296,1,160,2|8
128,256,103511,1,0
88,160,103684,2,0,B|184:136|232:216,2,160,2|8|4
256,304,104724,5,8
336,328,104898,1,0
408,288,105071,2,0,B|472:232|464:136,1,160,4|8
408,64,105591,1,0
408,64,105765,2,0,B|344:120|352:216,1,160,2|8
256,224,106285,1,0
256,224,106459,2,0,B|240:144|280:64|288:56,2,160,2|8|4
376,328,107499,6,0,B|416:352|456:336,1,80,8|0
424,264,107846,2,0,B|344:224|264:256,1,160,4|8
200,296,108366,1,0
152,232,108539,2,0,B|160:192|152:152,2,80,2|0|8
80,272,109060,2,0,B|48:192|80:112,1,160,2|0
152,80,109580,1,8
216,192,109753,1,2
152,304,109927,1,4
280,208,110274,6,0,B|272:249|280:288,2,80,8|0|2
280,120,110794,1,0
360,80,110967,2,0,B|368:40|360:0,2,80,8|0|8
360,176,111487,2,0,B|352:200|360:224,2,40,2|0|0
432,272,111834,2,0,B|464:192|432:112,1,160,2|0
360,80,112354,1,8
296,192,112527,1,2
360,304,112701,1,4
256,184,113048,6,0,B|256:272,1,80,8|0
256,344,113395,1,2
32,192,113742,1,8
256,40,114089,1,2
480,192,114435,1,8
480,192,114609,2,0,B|472:168|448:144|408:144|384:168|376:200|384:240|416:264|464:240|464:240,2,200,2|2|4
256,352,115823,6,0,B|256:264,1,80,8|0
296,200,116170,1,2
232,144,116343,1,0
256,64,116516,2,0,B|328:32|424:56,2,160,8|2|8
256,192,117383,1,0
256,320,117557,2,0,B|184:352|88:328,2,160,2|8|2
328,280,118424,5,0
376,184,118597,1,8
440,272,118771,1,0
336,224,118944,5,8
392,320,119118,1,2
440,224,119291,1,8
56,160,119638,6,0,B|48:192|56:240,2,80,2|0|8
120,112,120158,2,0,B|128:80|120:32,2,80,2|2|0
128,192,120678,1,8
208,208,120852,1,0
288,192,121025,1,2
352,144,121198,1,0
392,72,121372,5,8
432,144,121545,1,0
392,216,121719,2,0,B|360:296,1,80,2|0
288,328,122065,2,0,B|208:328,1,80,8|0
160,264,122412,2,0,B|192:184,1,80,2|0
248,136,122759,2,0,B|328:136,2,80,8|2|4
256,192,128655,5,4
96,56,129002,5,8
88,136,129175,1,0
136,200,129349,2,0,B|176:288|128:360,1,160,2|8
216,352,129869,2,0,B|254:365|294:349,1,80,0|2
256,280,130216,2,0,B|296:264|344:280,1,80,0|8
376,344,130563,1,0
416,272,130736,1,2
416,272,130909,6,0,B|392:184|456:120,1,160,2|0
344,48,131430,2,0,B|368:136|304:200,1,160,4|8
320,272,131950,1,0
248,240,132123,1,0
232,160,132297,2,0,B|136:168|112:256|112:256|112:256,1,160,2|0
144,328,132817,2,0,B|48:336|32:240|32:240|80:160|40:80,2,320,4|0|4
216,88,134724,5,2
296,104,134898,1,2
352,48,135071,1,0
416,96,135245,1,8
392,176,135418,2,0,B|360:264|416:328,1,160,2|0
352,376,135938,1,8
296,312,136112,2,0,B|208:296|144:352,2,160,2|2|0
296,232,136979,6,0,B|328:144|272:80,1,160,4|8
192,176,137499,1,0
88,112,137672,2,0,B|56:200|112:264,1,160,2|8
176,312,138193,1,0
256,304,138366,1,2
296,232,138539,1,0
336,304,138713,2,0,B|376:320|416:304,1,80,8|0
376,232,139060,2,0,B|408:152|376:72,2,160,2|8|4
256,48,140100,5,4
152,72,140274,1,2
240,128,140447,1,2
136,152,140620,1,4
136,152,140967,6,0,B|144:248|72:304,1,160,4|0
152,336,141487,2,0,B|224:376|312:344,2,160,8|2|8
208,248,142354,1,0
208,248,142528,2,0,B|280:200|272:104,1,160,2|8
256,32,143048,1,2
336,56,143222,1,0
368,128,143395,1,2
344,208,143568,2,0,B|512:184|512:184,2,160,8|2|8
232,328,144609,5,4
232,328,144956,2,0,B|56:304|56:304,1,160,8|2
40,232,145476,1,0
104,176,145649,2,0,B|128:88|88:16,2,160,8|2|8
168,232,146516,1,2
168,232,146863,5,2
232,328,147037,1,8
240,216,147210,1,2
304,312,147383,1,8
328,88,147730,5,8
328,88,147904,2,0,B|152:64|152:64,2,160,2|2|0
376,152,148771,2,0,B|344:200|344:264|376:312,2,160,0|8|4
192,320,149811,5,8
136,264,149985,1,0
80,208,150158,2,0,B|96:120,1,80,2|0
120,56,150505,2,0,B|160:72|208:56,1,80,8|0
280,40,150852,2,0,B|368:32|416:112,1,160,4|8
416,192,151372,1,0
440,208,151459,1,0
464,224,151545,2,0,B|440:320,1,80,2|2
384,352,151892,2,0,B|352:320|304:328,1,80,8|0
264,264,152239,5,2
232,360,152412,1,2
192,264,152586,1,2
160,360,152759,1,4
376,72,153279,5,8
328,136,153452,1,0
264,88,153626,2,0,B|184:64|104:88,1,160,4|8
48,144,154146,2,0,B|16:112|32:48,2,80,0|2|0
120,176,154666,5,8
120,176,154839,2,0,B|200:200|280:176,1,160,2|0
352,152,155360,1,8
277,176,155534,2,0,B|255:211|263:255,1,80,0|4
424,224,156053,6,0,B|472:152|448:64,2,160,8|2|8
368,280,156920,1,0
432,328,157094,2,0,B|520:376|520:376,2,80,2|0|8
368,280,157614,2,0,B|288:248|208:280,1,160,2|0
192,360,158134,2,0,B|224:280|192:200,1,160,8|4
152,40,158828,5,8
152,40,159001,1,0
88,88,159175,2,0,B|56:168|88:248,1,160,4|8
144,304,159695,1,0
224,328,159868,2,0,B|312:344|368:272,1,160,2|8
264,216,160389,1,0
304,104,160563,2,0,B|216:88|160:160,1,160,2|8
136,232,161083,2,0,B|88:224|80:160,1,80,2|4
264,304,161602,5,8
184,296,161776,1,0
136,232,161949,2,0,B|112:136|176:72,1,160,4|8
248,96,162469,1,0
248,96,162643,2,0,B|336:96|392:24,1,160,4|8
488,104,163163,1,0
488,104,163337,2,0,B|400:104|344:176,2,160,2|8|4
192,152,164377,6,0,B|152:176|112:160,1,80,8|0
88,264,164724,2,0,B|168:224|248:256,1,160,4|8
312,296,165244,1,0
360,232,165417,2,0,B|352:192|360:152,2,80,2|0|8
432,272,165938,2,0,B|464:192|432:112,1,160,2|0
360,80,166458,1,8
296,192,166631,1,2
360,304,166805,1,4
232,208,167152,6,0,B|240:249|232:288,2,80,8|0|2
232,120,167672,1,0
152,80,167845,2,0,B|144:40|152:0,2,80,8|0|2
152,176,168365,2,0,B|160:200|152:224,2,40,0|0|8
80,272,168712,2,0,B|48:192|80:112,1,160,2|0
152,80,169232,1,8
216,192,169405,1,2
152,304,169579,1,4
256,184,169926,6,0,B|256:272,1,80,8|0
256,344,170273,1,4
480,192,170620,1,8
256,40,170967,1,2
32,192,171313,1,8
32,192,171487,2,0,B|40:168|64:144|104:144|128:168|136:200|128:240|96:264|48:240|48:240,2,200,2|2|4
256,352,172701,6,0,B|256:264,1,80,8|0
216,200,173048,1,2
280,144,173221,1,0
256,64,173394,2,0,B|184:32|88:56,2,160,8|2|8
256,192,174261,1,0
256,320,174435,2,0,B|328:352|424:328,2,160,2|8|2
184,280,175302,5,0
136,184,175475,1,8
240,200,175649,1,0
144,240,175822,5,8
184,128,175996,1,2
296,88,176169,1,8
456,160,176516,6,0,B|464:192|456:240,2,80,4|0|8
392,112,177036,2,0,B|384:80|392:32,2,80,2|2|2
384,192,177556,1,8
304,208,177730,1,0
224,192,177903,1,2
168,136,178076,1,0
248,112,178250,5,8
152,208,178423,1,0
72,200,178597,2,0,B|72:248|112:280,1,80,2|0
176,288,178943,2,0,B|272:272,1,80,8|0
368,176,179291,2,0,B|272:192,1,80,2|0
448,184,179638,2,0,B|448:136|408:104,2,80,8|2|4
448,184,180331,5,4
328,296,180678,2,0,B|256:360,2,80,2|2|8
360,224,181198,2,0,B|344:176|368:128,2,80,0|2|0
280,232,181719,2,0,B|184:216|184:216,1,80,8|0
152,128,182065,2,0,B|248:144|248:144,1,80,2|0
184,48,182412,1,8
184,48,182759,6,0,B|152:144|48:136,1,160,4|8
40,296,183453,2,0,B|80:272|128:272,1,80,2|0
264,336,183973,1,2
248,256,184146,2,0,B|232:160,1,80,2|0
312,104,184493,2,0,B|328:200,1,80,8|0
408,112,184840,2,0,B|392:16,1,80,2|0
488,72,185187,2,0,B|504:176|416:200,1,160,8|4
256,192,185620,12,0,191083
