osu file format v12

[General]
AudioFilename: ED.mp3
AudioLeadIn: 0
PreviewTime: 58132
Countdown: 0
SampleSet: Soft
StackLeniency: 0.7
Mode: 0
LetterboxInBreaks: 0
WidescreenStoryboard: 1

[Editor]
Bookmarks: 48443,72349,82943
DistanceSpacing: 0.8
BeatDivisor: 4
GridSize: 8

[Metadata]
Title:Maware! Setsugekka (TV Size)
TitleUnicode:回レ!雪月花 (TV Size)
Artist:Harada Hitomi, Kayano Ai & Ogura Yui
ArtistUnicode:原田ひとみ,茅野愛衣 & 小倉唯
Creator:wcx19911123
Version:Zweib
Source:Kikou Shoujo wa Kizutsukanai
Tags:機巧少女は傷つかない Machine Doll wa Kizutsukanai ending ED Zweib Irori Yaya Komurasaki KanaRin popner Amamiya Yuko
BeatmapID:322054
BeatmapSetID:122658

[Difficulty]
HPDrainRate:6
CircleSize:4
OverallDifficulty:7
ApproachRate:9
SliderMultiplier:1.7
SliderTickRate:1

[Events]
//Background and Video events
0,0,"BG.jpg",0,0
Video,250,"yaya.avi"
//Break Periods
2,2080,3906
//Storyboard Layer 0 (Background)
//Storyboard Layer 1 (Fail)
//Storyboard Layer 2 (Pass)
//Storyboard Layer 3 (Foreground)
//Storyboard Sound Samples
//Background Colour Transformations
3,100,163,162,255

[TimingPoints]
381,375.011719116222,4,2,2,40,1,0
1131,-100,4,1,0,35,0,0
6381,-90.9090909090909,4,1,1,55,0,0
7131,-100,4,1,1,55,0,0
13881,-100,4,1,1,55,0,0
16131,-83.3333333333333,4,2,1,55,0,0
16694,-100,4,1,1,55,0,0
33007,-66.6666666666667,4,1,1,55,0,0
33194,-100,4,2,1,55,0,0
38632,-76.9230769230769,4,1,1,55,0,0
39382,-90.9090909090909,4,1,1,55,0,0
43882,-90.9090909090909,4,1,1,55,0,0
45007,-90.9090909090909,4,1,0,45,0,0
45382,-90.9090909090909,4,1,1,55,0,0
46882,-90.9090909090909,4,3,0,45,0,0
52882,-100,4,1,1,55,0,0
58882,-83.3333333333333,4,1,1,65,0,1
70133,-83.3333333333333,4,1,1,55,0,1
70508,-83.3333333333333,4,1,1,65,0,1
70883,-83.3333333333333,4,1,1,65,0,1
81571,-83.3333333333333,4,1,1,5,0,1
81758,-83.3333333333333,4,1,1,65,0,1
81946,-83.3333333333333,4,1,1,5,0,1
82133,-83.3333333333333,4,1,1,65,0,1
82321,-83.3333333333333,4,1,1,5,0,1
82508,-83.3333333333333,4,1,1,45,0,1
82883,-100,4,1,1,55,0,0

[Colours]
Combo1 : 247,185,145
Combo2 : 220,220,220
Combo3 : 240,9,37
Combo4 : 149,232,223

[HitObjects]
128,320,381,2,0,L|144:280,3,42.5
224,248,756,2,0,L|208:200,3,42.5
152,144,1131,6,0,L|168:80,1,42.5,2|0,0:0|3:0,0:0:0:0:
128,232,1318,1,0,0:0:0:0:
352,128,1506,1,2,0:0:0:0:
288,192,1693,2,0,P|264:152|264:104,1,85,0|2,0:0|0:3,0:0:0:0:
416,136,4506,6,0,L|408:192,1,42.5,2|0,0:0|3:0,0:0:0:0:
400,256,4693,1,0,0:0:0:0:
416,280,4787,2,0,P|359:305|289:294,1,127.5,0|2,0:0|0:3,0:0:0:0:
176,344,6381,6,0,B|120:304|72:256|72:160|96:128|96:128|120:200|192:210,1,374.000011413575
208,96,7318,1,0,0:0:0:0:
208,96,7412,1,0,0:0:0:0:
240,56,7506,5,8,0:0:0:0:
197,205,7881,5,0,0:0:0:0:
107,168,8068,2,0,P|62:167|14:195,1,85,8|0,0:0|0:0,0:0:0:0:
184,296,8443,2,0,P|171:338|132:377,1,85,8|0,0:0|0:0,0:0:0:0:
181,98,8818,2,0,P|137:59|91:45,1,85,8|0,0:0|0:0,0:0:0:0:
283,255,9193,2,0,P|308:306|309:355,1,85,8|0,0:0|0:0,0:0:0:0:
280,80,9568,6,0,P|261:37|256:0,1,85,8|0,0:0|0:0,0:0:0:0:
346,164,9943,2,0,P|388:182|426:188,1,85,8|0,0:0|0:0,0:0:0:0:
378,75,10318,1,8,0:0:0:0:
251,169,10506,2,0,P|222:197|205:259,1,85,8|8,0:0|0:0,0:0:0:0:
408,288,10881,5,0,0:0:0:0:
232,320,11068,2,0,L|328:352,1,85,8|0,0:0|0:0,0:0:0:0:
136,328,11443,2,0,L|240:296,1,85,8|0,0:0|0:0,0:0:0:0:
48,320,11818,2,0,L|144:352,1,85,8|0,0:0|0:0,0:0:0:0:
152,168,12193,1,8,0:0:0:0:
32,160,12381,6,0,B|40:208|96:232|96:232|136:192|192:208|216:224|216:224|192:240|176:264,1,255,0|0,0:0|0:0,0:0:0:0:
176,264,13037,1,0,0:0:0:0:
160,296,13131,2,0,L|152:360,1,42.5,2|0,0:0|0:0,0:0:0:0:
288,352,13318,6,0,L|344:344,1,42.5,2|0,3:2|3:0,0:0:0:0:
312,192,13506,2,0,L|296:232,1,42.5,2|0,3:2|3:0,0:0:0:0:
448,208,13693,2,0,L|435:115,1,85,2|0,0:0|0:0,0:0:0:0:
112,88,14068,5,0,0:0:0:0:
146,106,14162,1,0,0:0:0:0:
184,104,14256,2,0,L|200:48,1,42.5,10|0,0:2|0:0,0:0:0:0:
304,48,14443,1,0,0:0:0:0:
256,176,14537,2,0,P|205:203|144:192,1,85,0|0,0:0|2:0,0:0:0:0:
96,184,14818,1,0,0:0:0:0:
63,204,14912,1,0,0:0:0:0:
55,241,15006,1,10,0:2:0:0:
75,273,15100,1,0,0:0:0:0:
72,312,15193,1,0,0:0:0:0:
104,336,15287,1,0,0:0:0:0:
100,372,15381,6,0,L|209:345,1,85,8|0,0:0|0:0,0:0:0:0:
288,288,15662,1,0,0:0:0:0:
304,272,15756,2,0,L|219:265,1,85,10|0,0:2|0:0,0:0:0:0:
152,176,16037,1,0,0:0:0:0:
136,160,16131,6,0,P|112:120|104:96,1,50.9999984436036,2|0,0:0|0:0,0:0:0:0:
232,95,16318,2,0,L|240:23,1,50.9999984436036,2|0,0:0|0:0,0:0:0:0:
344,168,16506,2,0,L|336:112,1,50.9999984436036,2|0,0:0|0:0,0:0:0:0:
464,104,16694,2,0,P|456:145|440:184,1,85,2|8,0:0|0:2,0:0:0:0:
224,344,17069,5,0,0:0:0:0:
248,336,17162,1,0,0:0:0:0:
272,328,17256,2,0,L|368:344,1,85,10|0,0:2|0:0,0:0:0:0:
232,240,17537,1,0,0:0:0:0:
224,264,17631,2,0,L|136:288,1,85,8|0,0:2|0:0,0:0:0:0:
16,224,17912,2,0,L|72:208,1,42.5,0|10,0:0|0:2,0:0:0:0:
160,168,18100,1,0,0:0:0:0:
168,144,18194,2,0,L|136:96,1,42.5
80,8,18381,5,8,0:0:0:0:
248,24,18569,2,0,L|232:72,1,42.5
88,136,18756,2,0,P|45:133|0:120,1,85,10|0,0:2|0:0,0:0:0:0:
360,184,19131,6,0,P|328:224|288:248,1,85
160,288,19412,2,0,L|192:320,1,42.5,0|10,0:0|0:0,0:0:0:0:
360,344,19694,2,0,P|319:357|285:381,1,85,0|8,0:0|0:2,0:0:0:0:
512,352,20069,5,0,0:1:0:0:
496,192,20256,2,0,L|472:96,1,85,10|0,0:2|0:0,0:0:0:0:
232,32,20631,1,8,0:2:0:0:
176,184,20819,1,0,0:0:0:0:
224,184,20912,1,0,0:0:0:0:
272,160,21006,1,10,0:2:0:0:
224,16,21194,1,0,0:0:0:0:
144,200,21381,5,8,0:1:0:0:
184,216,21475,1,0,0:0:0:0:
235,214,21569,1,0,0:0:0:0:
284,190,21662,1,0,0:0:0:0:
320,152,21756,2,0,P|364:147|416:168,1,85,10|0,0:2|0:0,0:0:0:0:
360,264,22037,1,0,0:0:0:0:
336,288,22131,2,0,P|288:296|240:288,1,85,8|0,0:2|0:0,0:0:0:0:
104,169,22506,1,10,0:2:0:0:
248,104,22694,1,0,0:0:0:0:
272,144,22787,1,0,0:0:0:0:
284,190,22881,6,0,P|292:235|284:286,1,85,8|0,0:1|0:0,0:0:0:0:
200,336,23162,1,0,0:0:0:0:
208,360,23256,1,10,0:2:0:0:
408,224,23444,1,0,0:0:0:0:
400,256,23537,1,0,0:0:0:0:
392,296,23631,1,8,0:2:0:0:
384,128,23819,1,0,0:0:0:0:
312,344,24006,1,10,0:2:0:0:
256,80,24194,1,0,0:0:0:0:
352,240,24381,5,10,0:1:0:0:
216,384,24569,1,0,0:0:0:0:
120,88,24756,2,0,L|136:24,2,42.5,10|0|2,0:0|0:0|0:0,0:0:0:0:
56,248,25131,2,0,B|48:264|24:288|24:288|80:312|152:280,1,170,8|10,0:0|3:2,0:0:0:0:
224,208,25600,1,0,3:0:0:0:
224,208,25694,1,0,3:0:0:0:
408,352,25881,5,8,0:2:0:0:
352,64,26163,1,8,0:2:0:0:
96,336,26444,1,8,0:2:0:0:
224,208,26631,5,8,0:0:0:0:
72,224,26819,1,0,3:0:0:0:
56,200,26913,1,0,3:0:0:0:
40,176,27006,2,0,L|32:72,1,85,0|0,3:0|0:0,0:0:0:0:
448,136,27381,5,0,0:0:0:0:
216,72,27569,1,8,0:0:0:0:
320,16,27756,2,0,P|328:56|328:104,1,85,0|8,0:0|0:0,0:0:0:0:
128,360,28131,1,0,0:0:0:0:
328,224,28319,1,8,0:0:0:0:
344,248,28413,1,0,0:0:0:0:
360,272,28506,2,0,P|368:312|352:376,1,85,0|8,0:0|0:0,0:0:0:0:
456,224,28881,5,0,0:0:0:0:
256,312,29069,2,0,P|240:288|224:200,1,85,8|0,0:0|0:0,0:0:0:0:
248,24,29444,2,0,P|224:65|216:104,1,85,8|0,0:0|0:0,0:0:0:0:
384,144,29819,5,8,0:0:0:0:
96,192,30006,1,0,0:0:0:0:
352,272,30194,2,0,L|328:224,2,42.5,8|0|0,3:1|3:0|3:0,0:0:0:0:
503,126,30569,5,8,0:0:0:0:
436,23,30756,1,0,0:0:0:0:
312,40,30944,1,8,0:0:0:0:
24,320,31319,1,8,0:0:0:0:
48,336,31413,1,0,0:0:0:0:
72,352,31506,1,0,0:0:0:0:
24,152,31694,1,8,0:0:0:0:
181,119,31881,6,0,P|232:136|288:128,1,85,8|0,0:2|0:0,0:0:0:0:
232,192,32163,1,0,0:0:0:0:
232,192,32256,2,0,P|200:224|192:280,1,85,8|0,0:2|0:0,0:0:0:0:
440,168,32632,2,0,P|408:112|376:88,1,85,8|0,0:2|0:0,0:0:0:0:
352,288,33007,6,0,L|360:320,1,31.8750012159348,2|0,0:2|0:0,0:0:0:0:
136,24,33382,5,4,0:0:0:0:
48,280,33569,1,0,0:0:0:0:
64,288,33663,1,0,0:0:0:0:
80,296,33757,2,0,L|176:288,1,85,8|0,0:0|0:0,0:0:0:0:
320,200,34038,1,0,0:0:0:0:
304,192,34132,2,0,L|208:200,1,85,0|0,1:0|0:0,0:0:0:0:
336,312,34413,1,0,0:0:0:0:
352,320,34507,2,0,L|448:312,1,85,8|0,0:0|0:0,0:0:0:0:
480,192,34788,1,0,0:0:0:0:
480,192,34882,6,0,L|488:144,1,42.5,8|0,0:0|0:0,0:0:0:0:
392,128,35069,2,0,L|398:86,1,42.5
288,80,35257,2,0,P|232:80|184:96,1,85,8|0,0:0|0:0,0:0:0:0:
136,312,35632,6,0,L|80:320,1,42.5,2|0,0:0|0:0,0:0:0:0:
248,336,35819,2,0,L|256:384,1,42.5,2|0,0:0|0:0,0:0:0:0:
312,248,36007,2,0,L|368:240,1,42.5,2|0,0:0|0:0,0:0:0:0:
200,232,36194,2,0,L|192:184,1,42.5,2|0,0:0|0:0,0:0:0:0:
344,88,36382,6,0,P|344:128|328:176,1,85,8|0,0:0|0:0,0:0:0:0:
88,16,36757,1,8,0:0:0:0:
48,304,36944,2,0,L|56:248,1,42.5
224,176,37132,5,2,3:0:0:0:
200,208,37225,1,0,0:0:0:0:
232,216,37319,1,0,0:0:0:0:
264,224,37413,1,0,0:0:0:0:
296,232,37507,1,0,0:0:0:0:
264,48,37694,1,0,0:0:0:0:
385,322,37882,5,8,0:0:0:0:
385,322,37975,1,0,0:0:0:0:
385,322,38069,1,0,0:0:0:0:
385,322,38163,1,0,0:0:0:0:
392,272,38257,1,8,0:0:0:0:
376,232,38350,1,0,0:0:0:0:
384,184,38444,2,0,L|387:132,1,42.5
280,296,38632,6,0,P|194:342|112:320,2,165.749992412568,8|0|8,0:0|0:0|0:0,0:0:0:0:
480,208,39382,5,8,0:0:0:0:
272,104,39569,1,0,0:0:0:0:
264,80,39663,1,0,0:0:0:0:
256,56,39757,2,0,L|368:56,1,93.5000028533936,8|0,0:2|0:0,0:0:0:0:
352,168,40038,1,0,0:0:0:0:
336,192,40132,2,0,L|264:192,1,46.7500014266968,8|0,0:2|0:0,0:0:0:0:
144,120,40319,2,0,L|168:176,1,46.7500014266968
56,264,40507,2,0,L|103:257,1,46.7500014266968,8|0,0:2|0:0,0:0:0:0:
224,336,40694,2,0,L|192:376,1,46.7500014266968
392,360,40882,5,8,0:1:0:0:
384,336,40976,1,0,0:0:0:0:
376,312,41069,2,0,L|384:264,1,46.7500014266968
480,200,41257,1,8,0:2:0:0:
488,176,41351,1,0,0:0:0:0:
496,152,41444,1,0,0:0:0:0:
440,40,41632,1,8,0:2:0:0:
432,16,41726,1,0,0:0:0:0:
240,48,41913,1,0,0:0:0:0:
232,72,42007,2,0,L|240:120,1,46.7500014266968,8|0,0:2|0:0,0:0:0:0:
344,232,42194,1,2,0:1:0:0:
352,208,42288,1,0,0:0:0:0:
360,184,42382,6,0,L|336:80,1,93.5000028533936,2|0,0:2|0:0,0:0:0:0:
64,112,42757,1,0,0:0:0:0:
192,232,42944,1,2,0:2:0:0:
200,264,43038,1,0,0:0:0:0:
208,296,43132,1,0,0:0:0:0:
224,96,43319,1,0,0:0:0:0:
112,352,43507,1,2,0:2:0:0:
368,160,43694,1,2,0:2:0:0:
464,288,43882,6,0,L|368:272,1,93.5000028533936
48,240,44257,2,0,L|144:208,1,93.5000028533936
272,64,44632,2,0,P|296:128|248:216,1,140.25000428009
200,304,45007,1,0,0:0:0:0:
200,304,45101,2,0,L|168:312,2,23.3750007133484
368,320,45382,6,0,L|472:344,1,93.5000028533936,8|0,0:0|0:0,0:0:0:0:
312,216,45663,1,0,0:0:0:0:
320,200,45757,2,0,L|376:184,1,46.7500014266968,0|0,0:0|0:0,0:0:0:0:
232,368,45944,2,0,L|280:352,1,46.7500014266968,8|0,0:0|0:0,0:0:0:0:
176,144,46132,1,0,0:0:0:0:
88,288,46319,1,0,0:0:0:0:
64,296,46413,1,0,0:0:0:0:
40,304,46507,1,8,0:0:0:0:
80,64,46694,1,0,0:0:0:0:
424,232,46882,6,0,P|419:167|400:120,1,93.5000028533936,0|0,0:0|0:0,0:0:0:0:
392,101,47163,1,0,0:0:0:0:
360,75,47257,1,0,1:0:0:0:
280,288,47444,2,0,L|288:224,2,46.7500014266968,0|0|0,0:0|0:0|1:0,0:0:0:0:
160,216,47819,2,0,L|144:160,1,46.7500014266968
176,40,48007,1,0,1:0:0:0:
304,168,48194,1,0,0:0:0:0:
296,200,48288,1,0,0:0:0:0:
288,232,48382,6,0,L|264:136,1,93.5000028533936,0|0,1:0|0:0,0:0:0:0:
176,272,48663,1,0,0:0:0:0:
168,296,48757,2,0,L|56:312,1,93.5000028533936,0|0,1:0|0:0,0:0:0:0:
8,208,49038,1,0,0:0:0:0:
16,184,49132,2,0,L|120:168,1,93.5000028533936,2|0,1:2|0:0,0:0:0:0:
156,185,49413,1,0,0:0:0:0:
200,160,49507,2,0,P|219:103|208:40,1,93.5000028533936,0|0,1:0|0:0,0:0:0:0:
152,16,49788,1,0,0:0:0:0:
152,16,49882,5,0,1:0:0:0:
328,72,50070,1,0,0:0:0:0:
320,88,50163,1,0,0:0:0:0:
312,104,50257,1,0,1:0:0:0:
432,208,50445,1,0,0:0:0:0:
448,224,50538,1,0,0:0:0:0:
464,240,50632,1,0,1:0:0:0:
296,288,50820,1,0,0:0:0:0:
264,296,50913,1,0,0:0:0:0:
232,304,51007,1,0,1:0:0:0:
152,192,51195,1,0,0:0:0:0:
120,184,51288,1,0,0:0:0:0:
96,176,51382,6,0,P|96:230|136:272,1,93.5000028533936,0|0,1:0|0:0,0:0:0:0:
112,344,51663,1,0,0:0:0:0:
112,344,51757,1,0,1:0:0:0:
256,256,51945,1,0,0:0:0:0:
293,256,52038,1,0,0:0:0:0:
328,244,52132,1,0,1:0:0:0:
207,140,52320,1,0,0:0:0:0:
228,112,52413,1,0,0:0:0:0:
261,91,52507,1,0,1:0:0:0:
416,40,52695,1,0,0:0:0:0:
504,153,52882,6,0,P|392:128|336:152,1,170,2|0,3:0|0:0,0:0:0:0:
72,304,53632,1,0,0:0:0:0:
72,304,54007,6,0,P|160:344|256:328,2,170,0|6|0,0:0|0:0|0:0,0:0:0:0:
0,88,54945,1,0,0:0:0:0:
176,200,55132,1,0,0:0:0:0:
144,56,55507,1,0,0:0:0:0:
256,192,55882,12,0,57382,2:0:0:0:
200,16,58132,1,0,0:0:0:0:
104,136,58320,5,0,0:0:0:0:
136,144,58414,1,0,0:0:0:0:
168,152,58507,1,0,0:0:0:0:
200,160,58601,2,0,L|200:184,1,21.25
232,168,58695,2,0,L|232:224,1,42.5
336,72,58882,6,0,P|328:120|336:192,1,101.999996887207,10|0,0:0|0:0,0:0:0:0:
477,198,59164,2,0,P|426:162|373:138,1,101.999996887207,2|0,0:0|0:0,0:0:0:0:
296,256,59445,2,0,P|345:238|399:196,1,101.999996887207,10|0,0:0|0:0,0:0:0:0:
176,312,59726,6,0,P|208:344|272:360,1,101.999996887207,2|0,0:0|0:0,0:0:0:0:
128,208,60007,2,0,P|84:219|38:267,1,101.999996887207,10|0,0:0|0:0,0:0:0:0:
240,216,60289,2,0,P|251:172|233:108,1,101.999996887207,2|0,0:0|0:0,0:0:0:0:
336,88,60570,6,0,L|392:56,2,50.9999984436036,10|0|0,0:0|0:0|0:0,0:0:0:0:
160,168,60851,2,0,L|104:144,2,50.9999984436036,2|0|0,0:0|0:0|0:0,0:0:0:0:
376,248,61132,2,0,P|296:256|256:312,1,152.999995330811,2|0,0:0|0:0,0:0:0:0:
368,352,61507,1,8,0:0:0:0:
392,344,61601,1,0,0:0:0:0:
416,336,61695,2,0,P|448:312|472:248,1,101.999996887207
200,272,62070,5,0,0:0:0:0:
104,96,62257,1,0,0:0:0:0:
200,272,62445,1,0,0:0:0:0:
104,96,62632,2,0,L|216:80,1,101.999996887207,8|0,0:0|0:0,0:0:0:0:
240,48,62914,1,0,0:0:0:0:
240,48,63007,1,0,0:0:0:0:
48,216,63195,1,8,0:0:0:0:
288,208,63382,6,0,P|304:248|304:312,1,101.999996887207,0|8,0:0|0:0,0:0:0:0:
392,104,63757,1,0,0:0:0:0:
464,240,63945,1,8,0:0:0:0:
378,348,64132,2,0,P|298:284|192:288,1,203.999993774414,8|0,0:0|3:0,0:0:0:0:
136,320,64601,1,0,3:0:0:0:
136,320,64695,1,0,3:0:0:0:
312,72,64883,5,10,0:0:0:0:
320,96,64976,2,0,L|365:118,1,50.9999984436036
192,128,65164,1,2,0:0:0:0:
182,147,65258,2,0,L|136:168,1,50.9999984436036
344,187,65445,1,10,0:0:0:0:
352,208,65539,2,0,L|400:227,1,50.9999984436036
160,232,65726,1,2,0:0:0:0:
150,251,65820,2,0,L|104:272,1,50.9999984436036
208,344,66008,5,10,0:0:0:0:
216,360,66101,2,0,L|263:377,1,50.9999984436036
368,272,66289,1,2,0:0:0:0:
352,264,66383,2,0,L|296:288,1,50.9999984436036
120,184,66570,1,10,0:0:0:0:
136,176,66664,2,0,L|184:192,1,50.9999984436036
400,152,66851,1,2,0:0:0:0:
384,144,66945,2,0,L|320:168,1,50.9999984436036
160,104,67133,6,0,P|112:104|64:144,1,101.999996887207,10|0,0:0|0:0,0:0:0:0:
244,229,67414,2,0,L|236:109,1,101.999996887207
312,32,67695,2,0,L|320:152,1,101.999996887207
488,80,68070,5,0,0:0:0:0:
488,80,68258,1,0,0:0:0:0:
400,240,68445,1,0,0:0:0:0:
400,240,68633,2,0,L|504:272,1,101.999996887207,8|0,0:0|0:0,0:0:0:0:
504,312,68914,1,0,0:0:0:0:
512,352,69008,1,0,0:0:0:0:
224,208,69195,1,8,0:0:0:0:
480,184,69383,5,0,0:0:0:0:
200,328,69570,1,8,0:0:0:0:
216,352,69664,1,0,0:0:0:0:
232,376,69758,2,0,P|264:328|256:264,1,101.999996887207,0|8,0:0|0:0,0:0:0:0:
352,248,70039,1,0,2:0:0:0:
352,248,70133,2,0,L|368:176,1,50.9999984436036,0|0,3:0|3:0,0:0:0:0:
256,88,70320,2,0,L|280:144,1,50.9999984436036,0|0,3:0|3:0,0:0:0:0:
104,312,70508,2,0,L|144:248,1,50.9999984436036,0|0,3:0|3:0,0:0:0:0:
112,24,70695,2,0,L|128:96,1,50.9999984436036,0|0,3:0|3:0,0:0:0:0:
0,208,70883,6,0,P|50:207|120:176,1,101.999996887207,8|8,0:0|0:2,0:0:0:0:
160,144,71164,1,0,0:0:0:0:
160,144,71258,1,8,0:2:0:0:
432,192,71445,1,0,0:0:0:0:
440,208,71539,1,0,0:0:0:0:
448,224,71633,2,0,P|384:208|336:160,1,101.999996887207,8|0,0:2|0:0,0:0:0:0:
320,88,71914,1,8,0:2:0:0:
280,320,72195,2,0,L|328:384,1,50.9999984436036,8|0,0:2|0:0,0:0:0:0:
112,376,72383,6,0,P|168:384|224:368,1,101.999996887207,8|8,0:0|0:2,0:0:0:0:
200,296,72664,1,0,0:0:0:0:
200,296,72758,1,8,0:2:0:0:
32,224,72945,1,0,0:0:0:0:
256,48,73133,2,0,L|198:32,1,50.9999984436036,8|0,0:2|0:0,0:0:0:0:
280,160,73320,1,0,0:0:0:0:
280,160,73414,2,0,L|328:144,1,50.9999984436036,8|0,0:2|0:0,0:0:0:0:
176,128,73602,1,0,0:0:0:0:
176,128,73695,2,0,P|155:179|171:241,1,101.999996887207,8|4,0:2|0:2,0:0:0:0:
480,176,74070,5,0,0:0:0:0:
128,40,74258,1,8,0:2:0:0:
280,232,74445,1,0,0:0:0:0:
288,256,74539,1,0,0:0:0:0:
296,280,74633,2,0,P|256:344|224:360,1,101.999996887207,8|0,0:0|0:0,0:0:0:0:
400,320,74914,2,0,L|384:264,1,50.9999984436036,0|8,0:0|0:2,0:0:0:0:
176,224,75195,1,0,0:0:0:0:
240,96,75383,5,8,0:0:0:0:
112,344,75570,1,0,0:0:0:0:
336,256,75758,2,0,P|352:208|336:136,1,101.999996887207,8|8,0:0|0:0,0:0:0:0:
464,144,76133,6,0,P|384:136|336:72,1,152.999995330811,0|0,0:0|0:0,0:0:0:0:
216,56,76508,2,0,P|200:8|192:-8,2,50.9999984436036,8|0|0,0:0|0:0|0:0,0:0:0:0:
128,144,76789,1,0,0:0:0:0:
112,168,76883,6,0,P|138:192|240:200,1,101.999996887207,8|8,0:0|0:2,0:0:0:0:
336,40,77258,1,8,0:2:0:0:
464,272,77445,1,0,0:0:0:0:
448,304,77539,1,0,0:0:0:0:
420,325,77633,2,0,L|312:336,1,101.999996887207,8|8,0:0|0:2,0:0:0:0:
232,112,78008,1,8,0:2:0:0:
24,320,78195,1,0,0:0:0:0:
56,336,78289,1,0,0:0:0:0:
88,344,78383,6,0,P|144:336|192:296,1,101.999996887207,8|8,0:0|0:2,0:0:0:0:
128,24,78758,2,0,P|128:96|160:136,1,101.999996887207,8|0,0:2|0:0,0:0:0:0:
272,200,79039,1,0,0:0:0:0:
272,200,79133,2,0,P|336:192|376:144,1,101.999996887207,8|0,0:2|0:0,0:0:0:0:
448,32,79414,2,0,L|456:88,1,50.9999984436036,8|8,0:2|0:0,0:0:0:0:
208,64,79695,2,0,P|272:64|320:104,1,101.999996887207,8|0,0:2|0:0,0:0:0:0:
184,344,80070,6,0,L|112:320,1,50.9999984436036
64,160,80258,1,8,0:2:0:0:
392,192,80446,1,0,0:0:0:0:
416,232,80539,1,0,0:0:0:0:
416,280,80633,2,0,P|405:325|352:368,1,101.999996887207,8|0,0:2|0:0,0:0:0:0:
272,344,80914,1,0,0:0:0:0:
272,344,81008,1,8,0:2:0:0:
96,96,81196,1,0,0:0:0:0:
64,160,81289,1,0,0:0:0:0:
32,224,81383,6,0,P|112:248|176:216,1,152.999995330811,8|0,0:2|0:0,0:0:0:0:
504,256,81758,6,0,P|432:184|376:168,1,152.999995330811,8|0,0:2|0:0,0:0:0:0:
248,16,82133,6,0,P|224:72|256:168,1,152.999995330811,8|0,0:2|0:0,0:0:0:0:
352,320,82508,5,8,0:2:0:0:
376,328,82602,1,0,0:0:0:0:
400,336,82696,1,0,0:0:0:0:
424,344,82789,1,0,0:0:0:0:
448,352,82883,5,4,0:2:0:0:
400,240,83071,1,8,0:0:0:0:
200,192,83258,2,0,L|208:296,1,85,8|8,0:2|0:0,0:0:0:0:
64,344,83633,1,0,0:0:0:0:
8,136,83821,2,0,L|0:88,2,42.5,8|0|8,0:0|0:0|0:2,0:0:0:0:
152,160,84196,2,0,P|193:159|236:147,1,85,8|0,0:0|0:0,0:0:0:0:
432,64,84571,6,0,L|448:112,2,42.5,8|0|8,0:0|0:0|0:2,0:0:0:0:
352,144,84946,2,0,L|344:240,1,85,8|0,0:0|0:0,0:0:0:0:
296,360,85321,1,8,0:0:0:0:
56,160,85508,1,8,0:2:0:0:
136,312,85696,1,8,0:0:0:0:
136,312,85789,1,0,0:0:0:0:
136,312,85883,5,8,0:2:0:0:
144,120,86071,1,0,0:0:0:0:
232,256,86258,1,10,0:2:0:0:
232,80,86446,1,8,0:2:0:0:
296,173,86821,1,8,0:2:0:0:
327,189,86914,1,0,0:0:0:0:
360,192,87008,1,10,0:2:0:0:
320,48,87196,1,8,0:2:0:0:
192,240,87383,6,0,P|178:207|176:156,1,85,0|0,0:0|2:0,0:0:0:0:
336,272,87758,2,0,P|344:312|328:384,1,85,0|0,0:0|2:0,0:0:0:0:
112,360,88133,1,0,0:0:0:0:
120,112,88508,5,8,0:0:0:0:
