osu file format v12

[General]
AudioFilename: ED.mp3
AudioLeadIn: 0
PreviewTime: 58132
Countdown: 0
SampleSet: Soft
StackLeniency: 0.7
Mode: 0
LetterboxInBreaks: 0
WidescreenStoryboard: 1

[Editor]
DistanceSpacing: 0.8
BeatDivisor: 4
GridSize: 8

[Metadata]
Title:Maware! Setsugekka (TV Size)
TitleUnicode:回レ!雪月花 (TV Size)
Artist:Harada Hitomi, Kayano Ai & Ogura Yui
ArtistUnicode:原田ひとみ,茅野愛衣 & 小倉唯
Creator:wcx19911123
Version:Normal
Source:Kikou Shoujo wa Kizutsukanai
Tags:機巧少女は傷つかない Machine Doll wa Kizutsukanai ending ED Zweib Irori Yaya Komurasaki KanaRin popner Amamiya Yuko
BeatmapID:314669
BeatmapSetID:122658

[Difficulty]
HPDrainRate:4
CircleSize:4
OverallDifficulty:3
ApproachRate:5
SliderMultiplier:1.12
SliderTickRate:1

[Events]
//Background and Video events
0,0,"BG.jpg",0,0
Video,250,"yaya.avi"
//Break Periods
//Storyboard Layer 0 (Background)
//Storyboard Layer 1 (Fail)
//Storyboard Layer 2 (Pass)
//Storyboard Layer 3 (Foreground)
//Storyboard Sound Samples
//Background Colour Transformations
3,100,163,162,255

[TimingPoints]
381,375.011719116222,4,2,2,60,1,0
1881,-100,4,1,1,70,0,0
13881,-100,4,1,1,90,0,0
14068,-100,4,2,1,90,0,0
18006,-100,4,2,3,90,0,0
18194,-100,4,2,1,90,0,0
19506,-100,4,1,2,70,0,0
19694,-100,4,2,1,90,0,0
20631,-100,4,2,3,90,0,0
20819,-100,4,2,1,90,0,0
22131,-100,4,2,3,90,0,0
22319,-100,4,2,1,90,0,0
23256,-100,4,2,3,90,0,0
23444,-100,4,2,1,90,0,0
25506,-100,4,1,0,60,0,0
25881,-100,4,2,1,90,0,0
27381,-100,4,1,1,70,0,0
33382,-100,4,2,1,90,0,0
34132,-100,4,1,0,40,0,0
34225,-100,4,2,1,90,0,0
37132,-100,4,1,0,40,0,0
37225,-100,4,2,1,90,0,0
39007,-100,4,1,2,70,0,0
39194,-100,4,2,1,90,0,0
40132,-100,4,2,3,90,0,0
40319,-100,4,2,1,90,0,0
41632,-100,4,2,3,90,0,0
41819,-100,4,2,1,90,0,0
42757,-100,4,2,3,90,0,0
42944,-100,4,2,1,90,0,0
45007,-100,4,1,0,40,0,0
45382,-100,4,2,1,60,0,0
45569,-100,4,2,1,90,0,0
46882,-100,4,2,1,70,0,0
47069,-100,4,2,1,90,0,0
49882,-100,4,2,1,50,0,0
50070,-100,4,2,1,90,0,0
53632,-100,4,2,1,50,0,0
54007,-100,4,2,1,90,0,0
55882,-100,4,2,1,70,0,0
57007,-100,4,2,1,40,0,0
57382,-100,4,2,1,70,0,0
58132,-100,4,2,2,30,0,0
58882,-100,4,1,1,80,0,1
63007,-100,4,2,3,80,0,1
63195,-100,4,1,1,80,0,1
64789,-100,4,1,1,80,0,0
64883,-100,4,1,1,80,0,1
69008,-100,4,2,3,80,0,1
69195,-100,4,1,1,80,0,1
69383,-100,4,1,1,55,0,1
69570,-100,4,1,1,80,0,1
73883,-100,4,1,1,60,0,1
74070,-100,4,1,1,80,0,1
75008,-100,4,2,3,80,0,1
75195,-100,4,1,1,80,0,1
76883,-100,4,1,0,40,0,1
77258,-100,4,1,1,80,0,1
79508,-100,4,2,3,80,0,1
79695,-100,4,1,1,80,0,1
81008,-100,4,2,3,80,0,1
81196,-100,4,1,1,80,0,1
82883,-100,4,1,1,70,0,0

[Colours]
Combo1 : 239,45,255
Combo2 : 62,187,255
Combo3 : 237,155,101

[HitObjects]
152,104,381,2,0,P|128:144|128:208,1,112
200,296,1131,2,0,L|184:352,2,56,0|0|0,1:0|0:0|1:0,0:0:0:0:
220,256,1693,1,0,1:0:0:0:
248,220,1881,6,0,P|296:196|360:196,1,112,6|8,0:0|0:0,0:0:0:0:
448,136,2631,2,0,L|504:152,2,56,0|0|8,0:0|0:0|0:0,0:0:0:0:
368,56,3381,2,0,P|312:40|240:64,1,112,2|8,0:0|0:0,0:0:0:0:
192,136,4131,1,0,0:0:0:0:
112,216,4506,2,0,P|64:216|32:200,2,84,8|2|0,0:0|0:0|0:0,0:0:0:0:
152,200,5256,6,0,P|184:184|264:184,1,112,8|0,0:0|0:0,0:0:0:0:
352,248,6006,1,8,0:0:0:0:
464,272,6381,2,0,L|432:152,1,112,2|8,0:0|0:0,0:0:0:0:
352,88,7131,1,0,0:0:0:0:
352,88,7318,2,0,L|336:24,1,56,8|4,0:0|0:0,0:0:0:0:
232,64,7881,5,0,0:0:0:0:
192,80,8068,2,0,L|136:64,2,56,8|2|8,0:0|0:0|0:0,0:0:0:0:
112,160,8818,2,0,L|48:184,2,56,8|2|8,0:0|0:0|0:0,0:0:0:0:
136,272,9568,2,0,L|112:336,2,56,8|2|8,0:0|0:0|0:0,0:0:0:0:
240,312,10318,1,8,0:0:0:0:
240,312,10506,2,0,L|328:352,2,84,2|2|8,0:0|0:0|0:0,0:0:0:0:
136,272,11443,5,10,0:0:0:0:
112,160,11818,1,8,0:0:0:0:
192,80,12193,1,8,0:0:0:0:
192,80,12381,2,0,P|240:72|376:176,1,224,2|0,0:0|0:0,0:0:0:0:
384,208,13318,2,0,L|384:272,2,56,10|10|10,0:0|0:0|0:0,0:0:0:0:
424,184,13881,6,0,P|464:144|472:88,1,112,4|8,0:0|0:0,0:0:0:0:
376,40,14631,2,0,P|336:80|328:136,1,112,8|8,0:0|0:0,0:0:0:0:
328,176,15193,1,0,0:0:0:0:
312,216,15381,2,0,P|272:248|208:256,1,112,8|8,0:0|0:0,0:0:0:0:
104,224,16131,2,0,P|48:232|16:264,2,84,2|2|2,0:0|0:0|0:0,0:0:0:0:
120,264,16881,6,0,P|152:304|216:320,1,112,8|8,0:0|0:0,0:0:0:0:
288,280,17631,2,0,P|328:288|376:272,2,84,8|0|0,0:0|0:0|0:0,0:0:0:0:
248,256,18381,1,10,0:0:0:0:
208,152,18756,1,8,0:0:0:0:
264,56,19131,2,0,P|296:32|360:32,2,84,2|0|0,0:0|0:0|0:0,0:0:0:0:
232,88,19881,6,0,P|192:112|120:112,1,112,10|8,0:0|0:0,0:0:0:0:
96,144,20444,2,0,P|120:184|192:208,1,112,2|0,0:0|0:0,0:0:0:0:
224,208,21006,1,8,0:0:0:0:
320,152,21381,2,0,P|368:144|440:176,1,112,10|8,0:0|0:0,0:0:0:0:
440,208,21944,2,0,P|424:256|360:296,1,112,2|0,0:0|0:0,0:0:0:0:
336,304,22506,2,0,L|280:304,1,56,8|0,0:0|0:0,0:0:0:0:
248,272,22881,6,0,P|208:256|160:264,2,84,10|0|0,0:0|0:0|0:0,0:0:0:0:
240,320,23631,2,0,P|208:336|176:336,1,56,8|0,0:0|0:0,0:0:0:0:
144,336,24006,2,0,P|112:320|96:296,1,56,8|0,0:0|0:0,0:0:0:0:
80,264,24381,2,0,P|80:200|112:152,2,112,10|8|8,0:0|0:0|0:0,0:0:0:0:
192,240,25506,1,0,0:0:0:0:
304,216,25881,6,0,L|392:224,2,84,12|8|8,0:0|0:0|0:0,0:0:0:0:
280,176,26631,2,0,P|256:152|168:136,1,112,8|0,0:0|0:0,0:0:0:0:
136,136,27194,1,0,0:0:0:0:
96,160,27381,1,0,0:0:0:0:
80,200,27569,6,0,L|72:256,2,56,8|2|8,0:0|0:0|0:0,0:0:0:0:
176,256,28319,2,0,L|168:312,2,56,8|2|8,0:0|0:0|0:0,0:0:0:0:
280,296,29069,2,0,L|272:352,2,56,8|2|8,0:0|0:0|0:0,0:0:0:0:
384,336,29819,2,0,L|392:280,1,56,8|2,0:0|0:0,0:0:0:0:
396,236,30194,1,8,0:0:0:0:
392,192,30381,5,4,0:0:0:0:
372,152,30569,2,0,P|340:128|260:128,1,112,8|4,0:0|0:0,0:0:0:0:
296,232,31319,2,0,L|312:304,2,56,0|8|0,0:0|0:0|0:0,0:0:0:0:
256,216,31881,2,0,L|232:280,2,56,4|8|0,0:0|0:0|0:0,0:0:0:0:
264,168,32444,1,8,0:0:0:0:
256,128,32632,2,0,P|216:96|152:96,1,112,0|8,0:0|0:0,0:0:0:0:
72,168,33382,6,0,P|112:200|176:200,1,112,8|8,0:0|0:0,0:0:0:0:
256,128,34132,1,0,0:0:0:0:
48,216,34882,2,0,P|88:248|152:248,1,112,8|8,0:0|0:0,0:0:0:0:
248,200,35632,2,0,L|304:160,1,56,2|0,0:0|0:0,0:0:0:0:
288,120,36007,2,0,L|344:80,1,56,2|2,0:0|0:0,0:0:0:0:
376,72,36382,6,0,P|416:80|464:144,1,112,8|8,0:0|0:0,0:0:0:0:
432,240,37132,1,0,0:0:0:0:
408,16,37882,2,0,P|448:24|496:88,1,112,8|8,0:0|0:0,0:0:0:0:
400,144,38632,2,0,P|424:176|472:192,2,84
384,104,39382,6,0,P|344:72|280:64,1,112,10|8,0:0|0:0,0:0:0:0:
244,80,39944,2,0,P|212:120|204:184,1,112,2|0,0:0|0:0,0:0:0:0:
220,220,40507,1,8,0:0:0:0:
228,264,40694,1,0,0:0:0:0:
208,304,40882,2,0,P|160:328|104:320,1,112,10|8,0:0|0:0,0:0:0:0:
64,300,41444,2,0,P|40:252|48:196,1,112,2|0,0:0|0:0,0:0:0:0:
128,120,42194,5,0,0:0:0:0:
128,120,42382,2,0,P|88:88|32:88,2,84,10|0|0,0:0|0:0|0:0,0:0:0:0:
144,160,43132,2,0,P|168:184|200:192,1,56,8|0,0:0|0:0,0:0:0:0:
232,176,43507,2,0,P|272:176|296:192,1,56,8|0,0:0|0:0,0:0:0:0:
320,216,43882,2,0,P|328:256|296:320,2,112,10|8|8,0:0|0:0|0:0,0:0:0:0:
264,120,45007,5,0,0:0:0:0:
264,120,45194,1,0,0:0:0:0:
264,120,45382,2,0,L|176:104,2,84,12|8|8,0:0|0:0|0:0,0:0:0:0:
296,88,46132,2,0,P|320:72|352:64,1,56,8|0,0:0|0:0,0:0:0:0:
392,64,46507,2,0,P|424:72|448:96,1,56
472,120,46882,6,0,P|480:144|464:232,1,112,12|8,0:0|0:0,0:0:0:0:
360,192,47632,2,0,P|304:200|256:248,1,112,8|8,0:0|0:0,0:0:0:0:
240,272,48194,1,0,0:0:0:0:
200,296,48382,2,0,P|160:304|88:272,1,112,8|8,0:0|0:0,0:0:0:0:
48,176,49132,1,8,0:0:0:0:
88,72,49507,1,8,0:0:0:0:
160,160,49882,6,0,P|192:184|272:192,1,112,8|8,1:2|0:0,0:0:0:0:
360,136,50632,2,0,P|312:120|272:56,1,112,8|8,0:0|0:0,0:0:0:0:
280,24,51195,1,0,0:0:0:0:
320,8,51382,2,0,P|368:24|408:88,1,112,8|8,0:0|0:0,0:0:0:0:
416,184,52132,1,8,0:0:0:0:
360,280,52507,1,8,0:0:0:0:
256,320,52882,5,4,0:1:0:0:
256,96,53632,2,0,L|256:208,1,112,0|0,1:0|0:0,0:0:0:0:
256,320,54382,1,8,0:0:0:0:
176,120,55132,1,0,0:0:0:0:
176,120,55320,2,0,P|216:104|336:120,1,168,8|8,0:0|0:1,0:0:0:0:
360,320,57007,5,8,0:1:0:0:
360,320,57382,2,0,P|288:352|152:320,1,224,0|0,0:0|1:0,0:0:0:0:
80,128,58882,6,0,P|80:88|112:40,1,84,6|0,0:0|0:0,0:0:0:0:
176,16,59445,2,0,P|216:16|264:48,1,84,2|0,0:0|0:0,0:0:0:0:
288,112,60007,2,0,P|288:152|256:200,1,84,10|0,0:2|0:0,0:0:0:0:
192,224,60570,2,0,P|152:224|104:192,1,84,2|0,0:0|0:0,0:0:0:0:
80,128,61132,2,0,L|56:40,2,84,10|0|2,0:2|0:0|0:0,0:0:0:0:
112,240,62070,5,0,0:0:0:0:
136,280,62257,2,0,P|168:296|200:296,1,56,8|0,0:2|0:0,0:0:0:0:
232,288,62632,2,0,P|264:272|312:272,2,84,10|0|0,0:2|0:0|0:0,0:0:0:0:
216,328,63382,2,0,P|248:352|288:352,1,56,10|0,0:0|0:0,0:0:0:0:
308,356,63757,2,0,P|324:356|364:340,1,56,8|0,0:2|0:0,0:0:0:0:
396,316,64132,2,0,P|420:276|420:204,1,112,10|8,0:2|0:2,0:0:0:0:
384,104,64883,6,0,P|344:72|288:72,1,84,6|0,0:0|0:0,0:0:0:0:
232,96,65445,2,0,P|200:136|200:192,1,84,2|0,0:0|0:0,0:0:0:0:
228,244,66008,2,0,P|268:276|324:276,1,84,10|0,0:2|0:0,0:0:0:0:
380,252,66570,2,0,P|412:212|412:156,1,84,2|0,0:0|0:0,0:0:0:0:
384,104,67133,2,0,L|336:24,2,84,10|0|2,0:2|0:0|0:0,0:0:0:0:
448,200,68070,5,0,0:0:0:0:
448,248,68258,2,0,P|432:280|416:296,1,56,8|0,0:2|0:0,0:0:0:0:
384,264,68633,2,0,P|344:248|296:256,2,84,10|0|0,0:2|0:0|0:0,0:0:0:0:
376,312,69383,2,0,P|352:336|320:344,1,56,4|0,0:2|0:0,0:0:0:0:
288,344,69758,1,8,0:2:0:0:
184,304,70133,1,8,0:2:0:0:
272,232,70508,1,8,0:2:0:0:
288,120,70883,6,0,P|264:72|192:40,1,112,8|0,0:0|0:0,0:0:0:0:
120,104,71633,2,0,L|24:120,2,84,8|8|8,0:2|0:2|0:2,0:0:0:0:
152,80,72383,1,10,0:2:0:0:
240,144,72758,1,8,0:0:0:0:
152,216,73133,2,0,L|56:232,2,84,8|8|8,0:2|0:2|0:2,0:0:0:0:
184,192,73883,5,12,0:2:0:0:
232,296,74258,1,8,0:2:0:0:
344,312,74633,2,0,P|384:304|432:256,2,84,8|2|0,0:2|0:0|0:0,0:0:0:0:
320,280,75383,2,0,L|288:224,1,56,8|0,0:2|0:0,0:0:0:0:
272,192,75758,1,8,0:2:0:0:
376,144,76133,1,8,0:2:0:0:
304,56,76508,1,8,0:2:0:0:
192,32,76883,6,0,L|136:32,2,56,0|0|4,0:0|0:0|0:0,0:0:0:0:
224,136,77633,2,0,P|184:184|120:200,1,112,8|8,0:2|0:2,0:0:0:0:
24,200,78383,1,10,0:2:0:0:
80,296,78758,1,8,0:2:0:0:
184,336,79133,2,0,P|224:336|272:312,2,84,8|0|2,0:2|0:0|0:2,0:0:0:0:
160,224,80070,6,0,L|144:152,1,56,0|8,0:0|0:2,0:0:0:0:
144,128,80446,1,0,0:0:0:0:
160,88,80633,2,0,P|184:64|240:56,2,84,8|0|0,0:2|0:0|0:0,0:0:0:0:
144,128,81383,1,0,0:0:0:0:
256,160,81758,1,0,0:0:0:0:
368,128,82133,1,0,0:0:0:0:
464,328,82883,5,4,0:0:0:0:
448,288,83071,2,0,L|456:232,2,56,8|2|8,0:0|0:0|0:0,0:0:0:0:
360,216,83821,2,0,L|344:144,2,56,8|2|8,0:0|0:0|0:0,0:0:0:0:
248,200,84571,2,0,L|200:160,2,56,8|2|8,0:0|0:0|0:0,0:0:0:0:
152,256,85321,2,0,L|88:248,1,56,8|2,0:0|0:0,0:0:0:0:
60,224,85696,1,8,0:0:0:0:
44,180,85883,5,4,0:0:0:0:
52,136,86071,2,0,P|80:104|152:88,1,112,8|4,0:0|0:0,0:0:0:0:
256,112,86821,2,0,L|280:56,2,56,8|4|0,0:0|0:0|0:0,0:0:0:0:
280,152,87383,2,0,L|320:112,2,56,0|4|0,0:0|0:0|0:0,0:0:0:0:
252,188,87946,1,0,0:0:0:0:
244,232,88133,2,0,P|260:280|324:316,1,112,0|8,0:0|0:0,0:0:0:0:
