osu file format v12

[General]
AudioFilename: ED.mp3
AudioLeadIn: 0
PreviewTime: 58132
Countdown: 0
SampleSet: Soft
StackLeniency: 0.7
Mode: 0
LetterboxInBreaks: 0
WidescreenStoryboard: 1

[Editor]
DistanceSpacing: 1.6
BeatDivisor: 4
GridSize: 8

[Metadata]
Title:Maware! Setsugekka (TV Size)
TitleUnicode:回レ!雪月花 (TV Size)
Artist:Harada Hitomi, Kayano Ai & Ogura Yui
ArtistUnicode:原田ひとみ,茅野愛衣 & 小倉唯
Creator:wcx19911123
Version:Maware!
Source:Kikou Shoujo wa Kizutsukanai
Tags:機巧少女は傷つかない Machine Doll wa Kizutsukanai ending ED Zweib Irori Yaya Komurasaki KanaRin popner Amamiya Yuko
BeatmapID:313594
BeatmapSetID:122658

[Difficulty]
HPDrainRate:7
CircleSize:4
OverallDifficulty:7
ApproachRate:9
SliderMultiplier:1.92
SliderTickRate:1

[Events]
//Background and Video events
0,0,"BG.jpg",0,0
Video,250,"yaya.avi"
//Break Periods
//Storyboard Layer 0 (Background)
//Storyboard Layer 1 (Fail)
//Storyboard Layer 2 (Pass)
//Storyboard Layer 3 (Foreground)
//Storyboard Sound Samples
//Background Colour Transformations
3,100,163,162,255

[TimingPoints]
381,375.011719116222,4,2,2,60,1,0
1881,-100,4,1,1,70,0,0
13881,-100,4,1,1,90,0,0
14068,-100,4,2,1,90,0,0
19506,-100,4,2,1,70,0,0
19694,-100,4,2,1,90,0,0
25506,-100,4,1,0,50,0,0
25881,-100,4,2,1,90,0,0
27381,-100,4,1,1,70,0,0
33382,-100,4,2,1,90,0,0
34132,-100,4,1,0,40,0,0
34225,-100,4,2,1,90,0,0
37132,-100,4,1,0,40,0,0
37225,-100,4,2,1,90,0,0
39007,-100,4,2,1,70,0,0
39194,-100,4,2,1,90,0,0
45007,-100,4,1,0,40,0,0
45382,-100,4,2,1,60,0,0
45569,-100,4,2,1,90,0,0
46882,-100,4,2,1,70,0,0
47069,-100,4,2,1,90,0,0
49882,-100,4,2,1,50,0,0
50070,-100,4,2,1,90,0,0
53632,-100,4,2,1,50,0,0
54007,-100,4,2,1,90,0,0
55882,-100,4,2,1,70,0,0
57007,-100,4,2,1,40,0,0
57382,-100,4,2,1,70,0,0
58132,-100,4,2,2,30,0,0
58320,-100,4,2,1,90,0,0
58882,-100,4,1,1,80,0,1
58976,-100,4,1,1,30,0,1
59070,-100,4,1,1,80,0,1
59257,-100,4,1,3,80,0,1
59351,-100,4,1,1,80,0,1
59539,-100,4,1,1,30,0,1
59632,-100,4,1,1,80,0,1
59820,-100,4,1,1,30,0,1
59914,-100,4,1,1,80,0,1
60101,-100,4,1,1,30,0,1
60195,-100,4,1,1,80,0,1
60382,-100,4,1,3,80,0,1
60476,-100,4,1,1,80,0,1
60664,-100,4,1,1,30,0,1
60757,-100,4,1,1,80,0,1
60945,-100,4,1,1,30,0,1
61039,-100,4,1,1,80,0,1
61601,-100,4,1,1,30,0,1
61695,-100,4,1,1,80,0,1
64789,-100,4,1,1,80,0,0
64883,-100,4,1,1,80,0,1
64976,-100,4,1,1,30,0,1
65070,-100,4,1,1,80,0,1
65258,-100,4,1,3,80,0,1
65351,-100,4,1,1,80,0,1
65539,-100,4,1,1,30,0,1
65633,-100,4,1,1,80,0,1
65820,-100,4,1,1,30,0,1
65914,-100,4,1,1,80,0,1
66101,-100,4,1,1,30,0,1
66195,-100,4,1,1,80,0,1
66383,-100,4,1,3,80,0,1
66476,-100,4,1,1,80,0,1
66664,-100,4,1,1,30,0,1
66758,-100,4,1,1,80,0,1
66945,-100,4,1,1,30,0,1
67039,-100,4,1,1,80,0,1
67601,-100,4,1,1,30,0,1
67695,-100,4,1,1,80,0,1
69383,-100,4,1,1,55,0,1
69570,-100,4,1,1,80,0,1
73883,-100,4,1,1,60,0,1
74070,-100,4,1,1,80,0,1
76883,-100,4,1,0,40,0,1
77258,-100,4,1,1,80,0,1
82508,-100,4,2,1,80,0,1
82883,-100,4,1,1,70,0,0

[Colours]
Combo1 : 239,45,255
Combo2 : 62,187,255
Combo3 : 237,155,101

[HitObjects]
432,128,381,2,0,L|440:176,3,48,2|0|0|0,0:0|0:0|0:0|0:0,0:0:0:0:
376,72,756,2,0,L|368:24,3,48,2|0|2|0,0:0|0:0|0:0|0:0,0:0:0:0:
360,144,1131,2,0,P|336:160|312:168,1,48,0|0,1:0|0:0,0:0:0:0:
216,112,1318,2,0,P|184:120|160:144,1,48
80,200,1506,1,0,1:0:0:0:
136,32,1693,1,0,1:0:0:0:
304,88,1881,5,4,0:0:0:0:
160,72,2068,2,0,P|136:80|112:96,1,48
64,152,2256,1,8,0:0:0:0:
64,288,2443,1,0,0:0:0:0:
312,104,2631,1,2,0:0:0:0:
184,144,2818,2,0,P|168:160|152:192,1,48
136,256,3006,1,8,0:0:0:0:
200,360,3193,1,0,0:0:0:0:
328,120,3381,5,2,0:0:0:0:
240,184,3568,2,0,P|232:208|232:240,1,48
256,304,3756,1,8,0:0:0:0:
376,368,3943,1,0,0:0:0:0:
352,128,4131,1,2,0:0:0:0:
456,256,4318,2,0,P|424:256|400:248,1,48
344,216,4506,1,10,0:0:0:0:
315,198,4599,1,0,0:2:0:0:
291,173,4693,1,10,0:0:0:0:
277,142,4787,1,0,0:2:0:0:
264,72,4881,5,2,0:0:0:0:
408,80,5068,2,0,P|432:96|448:128,1,48
464,184,5256,1,8,0:0:0:0:
416,296,5443,1,0,0:0:0:0:
264,96,5631,1,2,0:0:0:0:
352,176,5818,2,0,P|360:200|360:232,1,48
344,296,6006,1,8,0:0:0:0:
240,368,6193,1,0,0:0:0:0:
248,112,6381,5,2,0:0:0:0:
264,232,6568,2,0,P|248:264|216:288,1,48
176,312,6756,1,8,0:0:0:0:
40,288,6943,1,0,0:0:0:0:
224,120,7131,1,2,0:0:0:0:
152,216,7318,2,0,P|120:224|88:224,1,48,10|0,0:0|0:0,0:0:0:0:
0,72,7506,1,12,0:0:0:0:
0,72,7881,6,0,P|8:88|40:112,1,48,2|0,0:0|0:0,0:0:0:0:
160,56,8068,2,0,P|208:48|272:48,1,96,8|0,0:0|0:0,0:0:0:0:
448,104,8349,1,0,0:0:0:0:
448,104,8443,2,0,P|400:112|336:112,1,96,8|2,0:0|0:0,0:0:0:0:
168,136,8725,1,0,0:0:0:0:
168,136,8818,2,0,P|216:128|280:128,1,96,8|0,0:0|0:0,0:0:0:0:
456,184,9099,1,0,0:0:0:0:
456,184,9193,2,0,P|408:192|344:192,1,96,8|2,0:0|0:0,0:0:0:0:
176,216,9475,5,0,0:0:0:0:
176,216,9568,2,0,P|224:208|288:208,1,96,8|0,0:0|0:0,0:0:0:0:
464,264,9849,1,0,0:0:0:0:
464,264,9943,2,0,P|416:272|352:272,1,96,8|2,0:0|0:0,0:0:0:0:
184,296,10225,1,0,0:0:0:0:
184,296,10318,2,0,P|232:288|296:288,2,96,8|0|8,0:0|0:0|0:0,0:0:0:0:
56,344,10787,1,2,0:0:0:0:
16,160,10975,5,0,0:0:0:0:
16,160,11068,2,0,P|8:112|8:64,1,96,8|0,0:0|0:0,0:0:0:0:
112,232,11350,1,0,0:0:0:0:
112,232,11443,2,0,P|120:184|120:136,1,96,8|2,0:0|0:0,0:0:0:0:
320,136,11725,1,0,0:0:0:0:
320,136,11818,2,0,P|312:88|312:40,1,96,8|0,0:0|0:0,0:0:0:0:
232,240,12100,1,0,0:0:0:0:
232,240,12193,2,0,P|232:192|240:168,1,48,8|0,0:0|0:0,0:0:0:0:
416,112,12381,6,0,B|448:200|432:304|304:304|264:208|328:112|416:160|456:256|392:320|296:344,1,432,2|0,0:0|0:0,0:0:0:0:
240,360,13318,2,0,P|208:368|176:368,1,48,10|0,0:0|0:0,0:0:0:0:
112,272,13506,2,0,P|80:264|56:248,1,48,10|0,0:0|0:0,0:0:0:0:
72,128,13693,2,0,P|56:104|48:72,1,48,10|0,0:0|0:0,0:0:0:0:
48,8,13881,5,4,0:0:0:0:
224,56,14068,1,0,0:0:0:0:
256,80,14162,1,0,0:0:0:0:
280,112,14256,1,8,0:0:0:0:
288,152,14350,1,0,0:0:0:0:
288,192,14443,1,0,0:0:0:0:
272,224,14537,2,0,P|248:249|224:264,1,48,0|8,0:0|0:0,0:0:0:0:
48,264,14818,1,0,0:0:0:0:
80,240,14912,1,0,0:0:0:0:
112,224,15006,1,8,0:0:0:0:
152,216,15100,1,0,0:0:0:0:
192,216,15193,1,0,0:0:0:0:
232,224,15287,1,0,0:0:0:0:
264,240,15381,6,0,P|288:256|312:280,1,48,8|0,0:0|0:0,0:0:0:0:
464,352,15568,2,0,P|440:336|416:312,1,48
400,288,15756,1,8,0:0:0:0:
384,256,15850,1,0,0:0:0:0:
376,216,15943,1,0,0:0:0:0:
376,176,16037,1,0,0:0:0:0:
384,136,16131,1,2,0:0:0:0:
408,104,16225,1,0,0:0:0:0:
256,8,16412,1,0,0:0:0:0:
256,8,16506,1,2,0:0:0:0:
104,104,16694,1,2,0:0:0:0:
248,152,16881,6,0,P|264:168|280:200,1,48,8|0,0:0|0:0,0:0:0:0:
288,224,17069,1,0,0:0:0:0:
288,264,17162,1,0,0:0:0:0:
272,296,17256,1,8,0:0:0:0:
248,328,17350,1,0,0:0:0:0:
216,352,17444,1,0,0:0:0:0:
176,360,17537,1,0,0:0:0:0:
136,368,17631,1,8,0:0:0:0:
96,360,17725,2,0,P|56:344|40:328,1,48
104,264,17912,2,0,P|112:216|96:160,2,96,0|0|0,0:0|0:0|0:0,0:0:0:0:
32,312,18381,5,10,0:0:0:0:
208,216,18569,1,2,0:0:0:0:
208,216,18662,1,0,0:0:0:0:
208,216,18756,1,8,0:0:0:0:
48,104,18944,2,0,P|32:72|32:48,1,48,2|0,0:0|0:0,0:0:0:0:
152,56,19131,2,0,P|200:88|216:136,1,96,2|0,0:0|0:0,0:0:0:0:
352,32,19412,1,0,0:0:0:0:
352,32,19506,2,0,P|336:96|304:128,1,96,8|0,0:1|0:0,0:0:0:0:
40,200,19881,5,10,0:0:0:0:
80,168,19975,1,0,0:0:0:0:
128,184,20069,1,0,0:0:0:0:
176,200,20162,1,0,0:0:0:0:
224,216,20256,1,8,0:0:0:0:
448,120,20444,1,2,0:0:0:0:
408,88,20538,1,0,0:0:0:0:
360,104,20632,1,8,0:0:0:0:
312,120,20725,1,0,0:0:0:0:
264,136,20819,1,0,0:0:0:0:
96,264,21006,1,10,0:0:0:0:
96,264,21100,1,0,0:0:0:0:
96,264,21194,1,0,0:0:0:0:
32,64,21381,5,10,0:0:0:0:
72,32,21475,1,0,0:0:0:0:
120,48,21569,1,0,0:0:0:0:
168,64,21662,1,0,0:0:0:0:
216,80,21756,1,8,0:0:0:0:
432,160,21944,1,2,0:0:0:0:
392,128,22038,1,0,0:0:0:0:
344,144,22132,1,8,0:0:0:0:
296,160,22225,1,0,0:0:0:0:
248,176,22319,1,0,0:0:0:0:
48,232,22506,1,10,0:0:0:0:
48,232,22600,1,0,0:0:0:0:
48,232,22694,1,0,0:0:0:0:
272,320,22881,5,10,0:0:0:0:
232,288,22975,1,0,0:0:0:0:
184,304,23069,1,0,0:0:0:0:
136,320,23162,1,0,0:0:0:0:
88,336,23256,1,8,0:0:0:0:
168,192,23444,1,2,0:0:0:0:
208,160,23538,1,0,0:0:0:0:
256,176,23632,1,8,0:0:0:0:
304,192,23725,1,0,0:0:0:0:
352,208,23819,1,0,0:0:0:0:
496,264,24006,1,10,0:0:0:0:
496,264,24100,1,0,0:0:0:0:
496,264,24194,1,0,0:0:0:0:
400,120,24381,6,0,P|392:96|392:72,1,48,8|0,0:0|0:0,0:0:0:0:
472,64,24569,2,0,P|480:88|480:112,1,48
336,176,24756,2,0,P|312:120|320:24,1,144,10|0,0:0|0:0,0:0:0:0:
472,64,25131,2,0,P|480:88|480:112,1,48,8|0,0:0|0:0,0:0:0:0:
400,216,25319,2,0,P|400:248|408:272,1,48
496,360,25506,1,0,0:0:0:0:
496,360,25600,1,0,0:0:0:0:
496,360,25694,1,0,0:0:0:0:
264,192,25881,6,0,P|208:192|168:216,1,96,12|0,0:0|0:0,0:0:0:0:
304,360,26163,2,0,P|332:312|331:265,1,96,8|0,0:0|0:0,0:0:0:0:
136,304,26444,2,0,P|164:352|205:375,1,96,8|0,0:0|0:0,0:0:0:0:
496,224,26819,1,0,0:0:0:0:
496,224,26913,1,0,0:0:0:0:
496,224,27006,2,0,P|488:176|456:136,1,96
240,128,27381,6,0,P|216:128|184:112,1,48,2|0,0:0|0:0,0:0:0:0:
40,48,27569,2,0,P|88:40|136:40,1,96,8|0,0:0|0:0,0:0:0:0:
312,48,27850,1,0,0:0:0:0:
312,48,27944,2,0,P|264:56|216:56,1,96,8|2,0:0|0:0,0:0:0:0:
40,128,28225,1,0,0:0:0:0:
40,128,28319,2,0,P|88:120|136:120,1,96,8|0,0:0|0:0,0:0:0:0:
312,128,28600,1,0,0:0:0:0:
312,128,28694,2,0,P|264:136|216:136,1,96,8|2,0:0|0:0,0:0:0:0:
40,208,28975,5,0,0:0:0:0:
40,208,29069,2,0,P|88:200|136:200,1,96,8|0,0:0|0:0,0:0:0:0:
312,208,29350,1,0,0:0:0:0:
312,208,29444,2,0,P|264:216|216:216,1,96,8|2,0:0|0:0,0:0:0:0:
40,288,29725,1,0,0:0:0:0:
40,288,29819,2,0,P|88:280|136:280,2,96,8|0|8,0:0|0:0|0:0,0:0:0:0:
0,368,30288,1,0,0:0:0:0:
0,368,30381,1,6,0:0:0:0:
240,352,30569,6,0,P|280:344|304:328,1,48
344,288,30756,1,8,0:0:0:0:
256,120,30944,1,4,0:0:0:0:
256,120,31319,1,0,0:0:0:0:
72,248,31506,2,0,P|128:256|168:256,1,96,8|0,0:0|0:0,0:0:0:0:
456,232,31881,1,4,0:0:0:0:
200,176,32069,2,0,P|144:168|104:168,2,96,8|0|8,0:0|0:0|0:0,0:0:0:0:
408,328,32632,1,0,0:0:0:0:
488,16,33007,1,8,0:0:0:0:
480,32,33382,5,8,0:0:0:0:
424,128,33569,1,0,0:0:0:0:
400,160,33663,1,0,0:0:0:0:
368,184,33757,1,8,0:0:0:0:
328,200,33850,1,0,0:0:0:0:
288,208,33944,1,0,0:0:0:0:
248,208,34038,1,0,0:0:0:0:
208,200,34132,2,0,P|176:192|152:176,1,48,0|0,0:0|0:0,0:0:0:0:
208,72,34319,2,0,P|240:80|264:96,1,48
280,112,34507,1,0,0:0:0:0:
304,136,34600,1,0,0:0:0:0:
320,168,34694,1,0,0:0:0:0:
328,208,34788,1,0,0:0:0:0:
320,248,34882,6,0,P|312:272|280:304,1,48,8|0,0:0|0:0,0:0:0:0:
216,272,35069,2,0,P|184:280|160:296,1,48
112,352,35257,2,0,P|80:352|56:344,1,48,8|0,0:0|0:0,0:0:0:0:
48,248,35444,2,0,P|40:208|48:160,1,48
144,176,35632,2,0,P|176:168|200:144,1,48,2|0,0:0|0:0,0:0:0:0:
272,208,35819,2,0,P|320:216|344:208,1,48,0|0,0:0|0:0,0:0:0:0:
464,192,36007,2,0,P|432:176|416:152,1,48,2|0,0:0|0:0,0:0:0:0:
376,56,36194,1,0,0:0:0:0:
200,104,36382,5,8,0:0:0:0:
32,32,36569,2,0,P|48:56|56:80,1,48
40,152,36757,2,0,P|32:208|40:256,1,96,8|0,0:0|0:0,0:0:0:0:
56,280,37038,1,0,0:0:0:0:
80,312,37132,1,0,0:0:0:0:
112,336,37225,1,0,0:0:0:0:
152,344,37319,1,0,0:0:0:0:
192,344,37413,1,0,0:0:0:0:
232,336,37507,2,0,P|264:320|280:304,1,48
392,248,37694,2,0,P|368:232|352:208,1,48
296,96,37882,6,0,P|344:80|392:88,1,96,8|0,0:0|0:0,0:0:0:0:
424,104,38163,1,0,0:0:0:0:
448,128,38257,1,8,0:0:0:0:
464,160,38350,1,0,0:0:0:0:
472,200,38444,1,0,0:0:0:0:
464,240,38538,1,0,0:0:0:0:
448,272,38632,2,0,P|392:312|320:312,1,144
328,200,39007,2,0,L|304:312,1,96,8|0,0:1|0:0,0:0:0:0:
264,112,39382,5,10,0:0:0:0:
232,136,39475,1,0,0:0:0:0:
224,176,39569,1,0,0:0:0:0:
216,216,39663,1,0,0:0:0:0:
208,256,39757,1,8,0:0:0:0:
144,72,39944,1,2,0:0:0:0:
136,112,40038,2,0,L|120:184,1,48,0|8,0:0|0:0,0:0:0:0:
16,208,40225,1,0,0:0:0:0:
24,168,40319,2,0,L|40:96,1,48,2|0,0:0|0:0,0:0:0:0:
56,24,40507,1,8,0:0:0:0:
56,24,40601,1,0,0:0:0:0:
56,24,40694,1,0,0:0:0:0:
264,32,40882,5,10,0:0:0:0:
288,64,40976,1,0,0:0:0:0:
328,72,41069,1,0,0:0:0:0:
368,80,41163,1,0,0:0:0:0:
408,88,41257,1,8,0:0:0:0:
464,192,41444,1,2,0:0:0:0:
424,184,41538,2,0,L|360:168,1,48,0|8,0:0|0:0,0:0:0:0:
240,144,41726,1,0,0:0:0:0:
272,168,41819,1,2,0:0:0:0:
288,200,41913,1,0,0:0:0:0:
288,240,42007,1,8,0:0:0:0:
272,280,42101,1,0,0:0:0:0:
240,304,42194,1,0,0:0:0:0:
200,312,42288,1,0,0:0:0:0:
160,304,42382,6,0,P|128:288|104:224,1,96,10|0,0:0|0:0,0:0:0:0:
136,120,42663,1,0,0:0:0:0:
136,120,42757,2,0,P|120:64|64:40,1,96,8|0,0:0|0:0,0:0:0:0:
24,256,43132,1,8,0:0:0:0:
64,112,43319,1,0,0:0:0:0:
176,232,43507,1,8,0:0:0:0:
8,176,43694,1,0,0:0:0:0:
216,144,43882,2,0,B|288:136|312:72|312:72|344:80|344:128,2,192,10|8|8,0:0|0:0|0:0,0:0:0:0:
192,144,45007,6,0,L|136:128,1,48
200,240,45194,2,0,L|144:224,1,48
64,80,45382,2,0,P|112:40|168:40,1,96,12|0,0:0|0:0,0:0:0:0:
136,224,45663,2,0,P|77:202|49:153,1,96,8|0,0:0|0:0,0:0:0:0:
232,88,45944,2,0,P|242:149|214:198,1,96,8|0,0:0|0:0,0:0:0:0:
88,296,46319,1,0,0:0:0:0:
272,240,46507,1,0,0:0:0:0:
104,168,46694,1,0,0:0:0:0:
176,320,46882,6,0,P|232:352|280:352,1,96,12|0,0:0|0:0,0:0:0:0:
432,352,47163,1,0,0:0:0:0:
432,352,47257,2,0,P|376:320|328:320,1,96,8|0,0:0|0:0,0:0:0:0:
272,240,47538,1,0,0:0:0:0:
272,240,47632,2,0,P|264:176|280:128,1,96,8|0,0:0|0:0,0:0:0:0:
352,24,47913,1,0,0:0:0:0:
352,24,48007,2,0,P|360:88|344:136,1,96,8|0,0:0|0:0,0:0:0:0:
200,64,48288,5,0,0:0:0:0:
200,64,48382,2,0,P|144:40|80:48,1,96,8|0,0:0|0:0,0:0:0:0:
128,136,48663,1,0,0:0:0:0:
128,136,48757,2,0,P|80:144|40:176,1,96,8|0,0:0|0:0,0:0:0:0:
120,232,49038,1,0,0:0:0:0:
120,232,49132,2,0,P|88:280|88:336,1,96,8|0,0:0|0:0,0:0:0:0:
176,304,49413,1,0,0:0:0:0:
176,304,49507,2,0,P|200:352|256:376,1,96,8|0,0:0|0:0,0:0:0:0:
440,256,49882,6,0,L|336:272,1,96,8|0,1:2|0:0,0:0:0:0:
272,280,50163,1,0,0:0:0:0:
272,280,50257,1,8,0:0:0:0:
56,232,50445,2,0,L|32:280,1,48
112,184,50632,2,0,L|216:168,1,96,8|0,0:0|0:0,0:0:0:0:
280,160,50913,1,0,0:0:0:0:
280,160,51007,1,8,0:0:0:0:
464,128,51195,2,0,L|488:176,1,48
408,80,51382,6,0,L|296:64,1,96,8|0,0:0|0:0,0:0:0:0:
240,56,51663,1,0,0:0:0:0:
240,56,51757,1,8,0:0:0:0:
112,184,51945,1,0,0:0:0:0:
112,184,52038,1,0,0:0:0:0:
112,184,52132,1,8,0:0:0:0:
160,40,52320,1,0,0:0:0:0:
160,40,52413,1,0,0:0:0:0:
160,40,52507,1,8,0:0:0:0:
256,192,52695,1,0,0:0:0:0:
256,192,52788,1,0,0:0:0:0:
256,192,52882,1,4,0:1:0:0:
40,288,53257,6,0,B|96:336|160:304|160:304|192:320|192:360,2,192,0|0|0,0:0|1:0|0:0,0:0:0:0:
96,56,54382,2,0,P|128:104|108:232,1,192,8|0,0:0|0:0,0:0:0:0:
352,240,54945,1,0,0:0:0:0:
224,168,55132,1,0,0:0:0:0:
416,168,55320,2,0,P|440:200|376:336,1,192,8|0,0:0|0:0,0:0:0:0:
256,352,55882,5,8,0:1:0:0:
256,112,56257,1,0,0:0:0:0:
256,272,56632,1,0,0:0:0:0:
256,32,57007,1,8,0:1:0:0:
256,192,57382,1,0,0:0:0:0:
256,192,58132,2,0,P|216:240|160:256,1,96,0|0,1:0|0:0,0:0:0:0:
148,256,58414,1,0,0:0:0:0:
112,240,58507,1,0,0:0:0:0:
80,216,58601,2,0,L|40:240,2,24
72,176,58789,1,0,0:0:0:0:
160,168,58882,6,0,P|184:152|208:112,1,48,6|0,0:0|0:0,0:0:0:0:
160,40,59070,1,0,0:0:0:0:
160,40,59164,2,0,P|136:56|112:96,1,48,2|2,0:0|0:0,0:0:0:0:
256,192,59351,1,0,0:0:0:0:
256,192,59445,2,0,P|288:192|320:176,1,48,2|0,0:0|0:0,0:0:0:0:
400,56,59632,1,8,0:2:0:0:
400,56,59726,2,0,P|368:56|336:72,1,48,2|0,0:0|0:0,0:0:0:0:
400,200,59913,1,0,0:0:0:0:
400,200,60007,2,0,P|400:168|384:136,1,48,10|0,0:2|0:0,0:0:0:0:
256,48,60195,1,0,0:0:0:0:
256,48,60289,2,0,P|256:80|272:112,1,48,2|2,0:0|0:0,0:0:0:0:
456,112,60476,5,0,0:0:0:0:
456,112,60570,2,0,P|472:88|480:48,1,48,2|0,0:0|0:0,0:0:0:0:
288,200,60757,1,8,0:2:0:0:
288,200,60851,2,0,P|264:224|256:264,1,48,2|0,0:0|0:0,0:0:0:0:
440,368,61039,1,0,0:0:0:0:
440,368,61132,2,0,P|472:328|480:256,1,96,10|0,0:2|0:0,0:0:0:0:
328,264,61414,1,2,0:0:0:0:
328,264,61507,2,0,P|360:280|392:280,1,48,8|0,0:2|0:0,0:0:0:0:
504,120,61695,2,0,P|448:72|320:56,1,192,2|0,0:0|0:0,0:0:0:0:
120,160,62257,5,8,0:2:0:0:
328,264,62445,1,0,0:0:0:0:
216,72,62632,1,10,0:2:0:0:
216,72,62726,1,0,0:0:0:0:
424,168,62914,1,0,0:0:0:0:
424,168,63007,1,8,0:2:0:0:
264,304,63195,1,0,0:0:0:0:
120,160,63382,6,0,P|112:104|128:56,1,96,8|0,0:0|0:0,0:0:0:0:
192,216,63664,1,0,0:0:0:0:
192,216,63757,2,0,P|208:168|192:112,1,96,8|0,0:2|0:0,0:0:0:0:
32,272,64132,2,0,P|72:312|136:320,1,96,10|0,0:2|0:0,0:0:0:0:
264,304,64414,1,0,0:0:0:0:
264,304,64508,2,0,L|296:200,1,96,8|0,0:2|0:0,0:0:0:0:
352,8,64883,6,0,P|384:24|400:40,1,48,6|0,0:0|0:0,0:0:0:0:
336,144,65070,1,0,0:0:0:0:
336,144,65164,2,0,P|328:104|336:72,1,48,2|2,0:0|0:0,0:0:0:0:
480,152,65351,1,0,0:0:0:0:
480,152,65445,2,0,P|464:192|432:216,1,48,2|0,0:0|0:0,0:0:0:0:
272,224,65633,1,8,0:2:0:0:
272,224,65726,2,0,P|320:216|344:224,1,48,2|0,0:0|0:0,0:0:0:0:
360,336,65914,1,0,0:0:0:0:
360,336,66008,2,0,P|328:320|312:288,1,48,10|0,0:2|0:0,0:0:0:0:
416,208,66195,1,0,0:0:0:0:
416,208,66289,2,0,P|412:240|392:264,1,48,2|2,0:0|0:0,0:0:0:0:
256,368,66476,5,0,0:0:0:0:
256,368,66570,2,0,P|208:376|184:368,1,48,2|0,0:0|0:0,0:0:0:0:
160,200,66758,1,8,0:2:0:0:
160,200,66851,2,0,P|200:232|208:256,1,48,2|0,0:0|0:0,0:0:0:0:
40,360,67039,1,0,0:0:0:0:
40,360,67133,2,0,P|8:312|8:240,1,96,10|0,0:2|0:0,0:0:0:0:
136,272,67414,1,2,0:0:0:0:
136,272,67508,2,0,P|112:296|72:304,1,48,8|0,0:2|0:0,0:0:0:0:
0,136,67695,2,0,P|40:96|192:72,1,192,2|0,0:0|0:0,0:0:0:0:
384,144,68258,5,8,0:2:0:0:
232,256,68445,1,0,0:0:0:0:
296,48,68633,1,10,0:2:0:0:
296,48,68726,1,0,0:0:0:0:
456,256,68914,1,0,0:0:0:0:
456,256,69008,1,8,0:2:0:0:
432,64,69195,1,0,0:0:0:0:
176,80,69383,6,0,P|128:112|104:152,1,96,12|0,2:2|0:0,0:0:0:0:
192,352,69758,2,0,P|256:360|304:344,1,96,8|0,0:2|0:0,0:0:0:0:
352,296,70039,1,0,0:0:0:0:
352,296,70133,2,0,L|360:248,1,48,10|0,0:2|0:0,0:0:0:0:
416,192,70320,2,0,L|424:144,1,48
328,176,70508,2,0,L|336:128,1,48,8|0,0:2|0:0,0:0:0:0:
392,64,70695,2,0,L|400:16,1,48
472,272,70883,6,0,P|424:320|352:336,1,144,8|0,0:0|0:0,0:0:0:0:
272,304,71258,1,0,0:0:0:0:
216,88,71445,1,0,0:0:0:0:
216,88,71539,1,0,0:0:0:0:
216,88,71633,2,0,B|121:121|121:121|64:96,2,144,8|8|0,0:2|0:2|0:0,0:0:0:0:
128,32,72289,5,0,0:0:0:0:
128,32,72383,2,0,P|48:24|16:48,1,96,10|0,0:2|0:0,0:0:0:0:
104,208,72758,2,0,L|200:176,1,96,8|0,0:0|0:0,0:0:0:0:
424,256,73133,2,0,P|376:224|272:232,2,144,8|8|0,0:2|0:2|0:0,0:0:0:0:
256,360,73883,5,12,0:2:0:0:
128,288,74070,1,0,0:0:0:0:
336,264,74258,2,0,L|392:176,1,96,8|0,0:2|0:0,0:0:0:0:
480,32,74633,1,8,0:2:0:0:
480,32,74727,1,0,0:0:0:0:
504,208,74914,1,0,0:0:0:0:
504,208,75008,1,8,0:2:0:0:
328,64,75195,1,0,0:0:0:0:
336,264,75383,6,0,P|288:272|240:256,1,96,10|0,0:2|0:0,0:0:0:0:
120,40,75758,2,0,P|168:32|216:48,1,96,8|0,0:2|0:0,0:0:0:0:
296,176,76133,1,8,0:2:0:0:
88,120,76320,2,0,L|64:168,1,48
136,208,76508,2,0,L|112:256,1,48,8|0,0:2|0:0,0:0:0:0:
192,288,76695,2,0,L|168:336,1,48
248,368,76883,5,0,0:0:0:0:
288,376,76977,1,0,0:0:0:0:
328,376,77070,1,0,0:0:0:0:
368,360,77164,1,0,0:0:0:0:
392,328,77258,1,4,0:0:0:0:
264,144,77445,1,0,0:0:0:0:
264,144,77539,1,0,0:0:0:0:
264,144,77633,2,0,P|272:96|312:48,1,96,8|0,0:2|0:0,0:0:0:0:
496,200,78008,2,0,P|488:248|448:296,1,96,8|0,0:2|0:0,0:0:0:0:
392,328,78289,5,0,0:0:0:0:
392,328,78383,2,0,L|288:312,1,96,10|0,0:2|0:0,0:0:0:0:
208,344,78664,1,0,0:0:0:0:
208,344,78758,2,0,L|104:328,1,96,8|0,0:2|0:0,0:0:0:0:
24,200,79133,2,0,P|24:152|48:112,1,96,8|0,0:2|0:0,0:0:0:0:
216,136,79414,2,0,P|168:184|104:184,1,96
200,24,79695,2,0,P|256:24|304:64,1,96,0|10,0:0|0:2,0:0:0:0:
352,208,80070,5,0,0:0:0:0:
352,208,80164,1,0,0:0:0:0:
352,208,80258,2,0,P|400:240|456:232,1,96,8|0,0:2|0:0,0:0:0:0:
368,104,80633,2,0,P|320:104|280:136,1,96,8|0,0:2|0:0,0:0:0:0:
248,232,80914,1,0,0:0:0:0:
248,232,81008,2,0,P|200:256|128:240,1,96,8|0,0:2|0:0,0:0:0:0:
16,192,81383,5,0,0:0:0:0:
256,24,81758,1,0,0:0:0:0:
496,192,82133,1,0,0:0:0:0:
256,360,82508,1,2,0:0:0:0:
72,48,82883,6,0,P|96:64|144:72,1,48
216,56,83071,2,0,P|264:48|320:48,1,96,8|0,0:0|0:0,0:0:0:0:
480,80,83352,1,0,0:0:0:0:
480,80,83446,2,0,P|432:88|376:88,1,96,8|2,0:0|0:0,0:0:0:0:
216,136,83727,1,0,0:0:0:0:
216,136,83821,2,0,P|264:128|320:128,1,96,8|0,0:0|0:0,0:0:0:0:
480,160,84102,1,0,0:0:0:0:
480,160,84196,2,0,P|432:168|376:168,1,96,8|2,0:0|0:0,0:0:0:0:
216,216,84477,5,0,0:0:0:0:
216,216,84571,2,0,P|264:208|320:208,1,96,8|0,0:0|0:0,0:0:0:0:
480,240,84852,1,0,0:0:0:0:
480,240,84946,2,0,P|432:248|376:248,1,96,8|2,0:0|0:0,0:0:0:0:
216,296,85227,1,0,0:0:0:0:
216,296,85321,2,0,P|264:288|320:288,2,96,8|0|8,0:0|0:0|0:0,0:0:0:0:
152,344,85789,1,0,0:0:0:0:
152,344,85883,1,4,0:0:0:0:
16,224,86071,6,0,P|40:232|72:232,1,48
136,216,86258,1,8,0:0:0:0:
224,80,86446,1,4,0:0:0:0:
224,80,86821,1,8,0:0:0:0:
448,136,87008,2,0,P|392:136|344:152,1,96,4|8,0:0|0:0,0:0:0:0:
144,248,87383,1,0,0:0:0:0:
376,304,87571,2,0,P|440:304|496:288,2,96,4|0|0,0:0|0:0|0:0,0:0:0:0:
136,216,88133,1,0,0:0:0:0:
456,40,88508,1,8,0:0:0:0:
