osu file format v12

[General]
AudioFilename: ED.mp3
AudioLeadIn: 0
PreviewTime: 58132
Countdown: 1
SampleSet: Normal
StackLeniency: 0.7
Mode: 1
LetterboxInBreaks: 1
WidescreenStoryboard: 1

[Editor]
DistanceSpacing: 0.8
BeatDivisor: 4
GridSize: 16

[Metadata]
Title:Maware! Setsugekka (TV Size)
TitleUnicode:回レ!雪月花 (TV Size)
Artist:Harada Hitomi, Kayano Ai & Ogura Yui
ArtistUnicode:原田ひとみ,茅野愛衣 & 小倉唯
Creator:SakiK
Version:Taiko Oni
Source:Kikou Shoujo wa Kizutsukanai
Tags:機巧少女は傷つかない Machine Doll wa Kizutsukanai
BeatmapID:340340
BeatmapSetID:135899

[Difficulty]
HPDrainRate:5
CircleSize:4
OverallDifficulty:5
ApproachRate:5
SliderMultiplier:1.4
SliderTickRate:1

[Events]
//Background and Video events
Video,0,"yaya.avi"
0,0,"BG.jpg",0,0
//Break Periods
//Storyboard Layer 0 (Background)
//Storyboard Layer 1 (Fail)
//Storyboard Layer 2 (Pass)
//Storyboard Layer 3 (Foreground)
//Storyboard Sound Samples
//Background Colour Transformations
3,100,163,162,255

[TimingPoints]
381,375.011719116222,4,1,1,70,1,0
58132,-100,4,1,1,70,0,0
58882,-100,4,1,1,70,0,1
88508,-100,4,1,1,70,0,0

[HitObjects]
227,138,381,1,0,0:0:0:0:
227,138,756,1,8,0:0:0:0:
227,138,1131,1,0,0:0:0:0:
227,138,1224,1,0,0:0:0:0:
227,138,1318,1,0,0:0:0:0:
227,138,1506,1,8,0:0:0:0:
227,138,1693,1,8,0:0:0:0:
227,138,1881,1,0,0:0:0:0:
227,138,2068,1,8,0:0:0:0:
227,138,2162,1,8,0:0:0:0:
227,138,2256,1,0,0:0:0:0:
227,138,2443,1,8,0:0:0:0:
227,138,2631,1,0,0:0:0:0:
227,138,2818,1,8,0:0:0:0:
227,138,2912,1,8,0:0:0:0:
227,138,3006,1,0,0:0:0:0:
227,138,3193,1,8,0:0:0:0:
227,138,3381,1,0,0:0:0:0:
227,138,3568,1,8,0:0:0:0:
227,138,3662,1,8,0:0:0:0:
227,138,3756,1,0,0:0:0:0:
227,138,3943,1,8,0:0:0:0:
227,138,4131,1,0,0:0:0:0:
227,138,4318,1,8,0:0:0:0:
227,138,4412,1,8,0:0:0:0:
227,138,4506,1,0,0:0:0:0:
227,138,4693,1,8,0:0:0:0:
227,138,4787,1,8,0:0:0:0:
227,138,4881,1,0,0:0:0:0:
227,138,5068,1,8,0:0:0:0:
227,138,5256,5,0,0:0:0:0:
227,138,5443,1,8,0:0:0:0:
227,138,5537,1,8,0:0:0:0:
227,138,5631,1,0,0:0:0:0:
227,138,5818,1,8,0:0:0:0:
227,138,6006,1,0,0:0:0:0:
227,138,6193,1,8,0:0:0:0:
227,138,6287,1,8,0:0:0:0:
227,138,6381,1,0,0:0:0:0:
227,138,6568,1,0,0:0:0:0:
227,138,6662,1,0,0:0:0:0:
227,138,6756,1,8,0:0:0:0:
227,138,6943,1,0,0:0:0:0:
227,138,7037,1,0,0:0:0:0:
227,138,7131,1,8,0:0:0:0:
227,138,7224,1,0,0:0:0:0:
227,138,7318,1,0,0:0:0:0:
227,138,7412,1,0,0:0:0:0:
227,138,7506,1,8,0:0:0:0:
227,138,7881,1,0,0:0:0:0:
227,138,8068,1,8,0:0:0:0:
227,138,8162,1,8,0:0:0:0:
227,138,8256,1,0,0:0:0:0:
227,138,8443,1,8,0:0:0:0:
227,138,8537,1,8,0:0:0:0:
227,138,8631,1,0,0:0:0:0:
227,138,8818,1,8,0:0:0:0:
227,138,8912,1,8,0:0:0:0:
227,138,9006,1,0,0:0:0:0:
227,138,9193,1,8,0:0:0:0:
227,138,9287,1,8,0:0:0:0:
227,138,9381,1,0,0:0:0:0:
227,138,9568,1,8,0:0:0:0:
227,138,9662,1,8,0:0:0:0:
227,138,9756,1,0,0:0:0:0:
227,138,9943,1,8,0:0:0:0:
227,138,10037,1,8,0:0:0:0:
227,138,10131,1,0,0:0:0:0:
227,138,10318,1,8,0:0:0:0:
227,138,10412,1,8,0:0:0:0:
227,138,10506,1,0,0:0:0:0:
227,138,10600,1,8,0:0:0:0:
227,138,10693,1,8,0:0:0:0:
227,138,10787,1,0,0:0:0:0:
227,138,10881,1,8,0:0:0:0:
227,138,11068,1,8,0:0:0:0:
227,138,11162,1,8,0:0:0:0:
227,138,11256,1,0,0:0:0:0:
227,138,11443,1,8,0:0:0:0:
227,138,11537,1,8,0:0:0:0:
227,138,11631,1,0,0:0:0:0:
227,138,11818,1,8,0:0:0:0:
227,138,11912,1,8,0:0:0:0:
227,138,12006,1,0,0:0:0:0:
227,138,12193,1,8,0:0:0:0:
227,138,12287,1,8,0:0:0:0:
227,138,12381,1,0,0:0:0:0:
227,138,12568,1,8,0:0:0:0:
227,138,12662,1,8,0:0:0:0:
227,138,12756,1,0,0:0:0:0:
227,138,12943,1,8,0:0:0:0:
227,138,13037,1,8,0:0:0:0:
227,138,13131,1,0,0:0:0:0:
227,138,13318,1,8,0:0:0:0:
227,138,13506,1,8,0:0:0:0:
227,138,13693,1,8,0:0:0:0:
227,138,13881,1,4,0:0:0:0:
227,138,14068,1,0,0:0:0:0:
227,138,14162,1,0,0:0:0:0:
227,138,14256,1,8,0:0:0:0:
227,138,14443,1,0,0:0:0:0:
227,138,14537,1,0,0:0:0:0:
227,138,14631,1,8,0:0:0:0:
227,138,14725,1,0,0:0:0:0:
227,138,14818,1,8,0:0:0:0:
227,138,15006,1,8,0:0:0:0:
227,138,15193,1,0,0:0:0:0:
227,138,15287,1,8,0:0:0:0:
227,138,15381,1,0,0:0:0:0:
227,138,15475,1,0,0:0:0:0:
227,138,15568,1,8,0:0:0:0:
227,138,15756,1,0,0:0:0:0:
227,138,15943,1,0,0:0:0:0:
227,138,16037,1,0,0:0:0:0:
227,138,16131,1,8,0:0:0:0:
227,138,16318,1,8,0:0:0:0:
227,138,16506,1,8,0:0:0:0:
227,138,16694,1,8,0:0:0:0:
227,138,16881,1,0,0:0:0:0:
227,138,17069,1,0,0:0:0:0:
227,138,17162,1,0,0:0:0:0:
227,138,17256,1,8,0:0:0:0:
227,138,17444,1,0,0:0:0:0:
227,138,17537,1,0,0:0:0:0:
227,138,17631,1,8,0:0:0:0:
227,138,17725,1,0,0:0:0:0:
227,138,17912,1,0,0:0:0:0:
227,138,18006,1,8,0:0:0:0:
227,138,18194,1,0,0:0:0:0:
227,138,18287,1,8,0:0:0:0:
227,138,18381,1,0,0:0:0:0:
227,138,18569,1,0,0:0:0:0:
227,138,18756,1,0,0:0:0:0:
227,138,18850,1,0,0:0:0:0:
227,138,18944,1,8,0:0:0:0:
227,138,19131,1,0,0:0:0:0:
227,138,19319,1,0,0:0:0:0:
227,138,19412,1,0,0:0:0:0:
227,138,19506,1,8,0:0:0:0:
227,138,19881,1,0,0:0:0:0:
227,138,19975,1,8,0:0:0:0:
227,138,20162,1,0,0:0:0:0:
227,138,20256,1,8,0:0:0:0:
227,138,20444,1,0,0:0:0:0:
227,138,20537,1,8,0:0:0:0:
227,138,20725,1,0,0:0:0:0:
227,138,20819,1,8,0:0:0:0:
227,138,21006,1,0,0:0:0:0:
227,138,21100,1,0,0:0:0:0:
227,138,21194,1,8,0:0:0:0:
227,138,21287,1,0,0:0:0:0:
227,138,21381,1,0,0:0:0:0:
227,138,21475,1,8,0:0:0:0:
227,138,21662,1,0,0:0:0:0:
227,138,21756,1,8,0:0:0:0:
227,138,21944,1,0,0:0:0:0:
227,138,22037,1,8,0:0:0:0:
227,138,22225,1,0,0:0:0:0:
227,138,22319,1,8,0:0:0:0:
227,138,22506,1,0,0:0:0:0:
227,138,22600,1,0,0:0:0:0:
227,138,22694,1,8,0:0:0:0:
227,138,22787,1,0,0:0:0:0:
227,138,22881,1,8,0:0:0:0:
227,138,23069,1,0,0:0:0:0:
227,138,23162,1,8,0:0:0:0:
227,138,23350,1,0,0:0:0:0:
227,138,23444,1,8,0:0:0:0:
227,138,23631,1,0,0:0:0:0:
227,138,23819,1,8,0:0:0:0:
227,138,24006,1,0,0:0:0:0:
227,138,24194,1,8,0:0:0:0:
227,138,24381,1,0,0:0:0:0:
227,138,24569,1,0,0:0:0:0:
227,138,24663,1,0,0:0:0:0:
227,138,24756,1,8,0:0:0:0:
227,138,24944,1,0,0:0:0:0:
227,138,25038,1,0,0:0:0:0:
227,138,25131,1,8,0:0:0:0:
227,138,25319,1,0,0:0:0:0:
227,138,25506,1,0,0:0:0:0:
227,138,25600,1,0,0:0:0:0:
227,138,25694,1,0,0:0:0:0:
227,138,25788,1,0,0:0:0:0:
227,138,25881,1,8,0:0:0:0:
227,138,26069,1,0,0:0:0:0:
227,138,26163,1,8,0:0:0:0:
227,138,26350,1,0,0:0:0:0:
227,138,26444,1,8,0:0:0:0:
227,138,26631,1,0,0:0:0:0:
227,138,26819,1,0,0:0:0:0:
227,138,26913,1,0,0:0:0:0:
227,138,27006,1,8,0:0:0:0:
227,138,27194,1,0,0:0:0:0:
227,138,27381,1,12,0:0:0:0:
227,138,27569,1,8,0:0:0:0:
227,138,27662,1,8,0:0:0:0:
227,138,27756,1,0,0:0:0:0:
227,138,27943,1,8,0:0:0:0:
227,138,28131,1,0,0:0:0:0:
227,138,28318,1,8,0:0:0:0:
227,138,28412,1,8,0:0:0:0:
227,138,28506,1,0,0:0:0:0:
227,138,28694,1,8,0:0:0:0:
227,138,28881,1,0,0:0:0:0:
227,138,29068,1,8,0:0:0:0:
227,138,29162,1,8,0:0:0:0:
227,138,29256,1,0,0:0:0:0:
227,138,29443,1,8,0:0:0:0:
227,138,29631,1,0,0:0:0:0:
227,138,29818,1,8,0:0:0:0:
227,138,29912,1,8,0:0:0:0:
227,138,30006,1,0,0:0:0:0:
227,138,30193,1,8,0:0:0:0:
227,138,30287,1,8,0:0:0:0:
227,138,30381,1,0,0:0:0:0:
227,138,30568,1,8,0:0:0:0:
227,138,30756,5,0,0:0:0:0:
227,138,30943,1,8,0:0:0:0:
227,138,31319,1,8,0:0:0:0:
227,138,31506,1,0,0:0:0:0:
227,138,31693,1,0,0:0:0:0:
227,138,31881,1,0,0:0:0:0:
227,138,31975,1,0,0:0:0:0:
227,138,32068,1,0,0:0:0:0:
227,138,32162,1,0,0:0:0:0:
227,138,32256,1,8,0:0:0:0:
227,138,32350,1,0,0:0:0:0:
227,138,32443,5,0,0:0:0:0:
227,138,32537,1,0,0:0:0:0:
227,138,32632,1,8,0:0:0:0:
227,138,33006,1,12,0:0:0:0:
227,138,33569,5,0,0:0:0:0:
227,138,33663,1,0,0:0:0:0:
227,138,33757,1,8,0:0:0:0:
227,138,33850,1,0,0:0:0:0:
227,138,33944,1,0,0:0:0:0:
227,138,34038,1,0,0:0:0:0:
227,138,34132,1,8,0:0:0:0:
227,138,34226,1,0,0:0:0:0:
227,138,34319,1,0,0:0:0:0:
227,138,34507,1,8,0:0:0:0:
227,138,34694,1,0,0:0:0:0:
227,138,34788,1,0,0:0:0:0:
227,138,34882,1,8,0:0:0:0:
227,138,34976,1,0,0:0:0:0:
227,138,35069,1,0,0:0:0:0:
227,138,35163,1,0,0:0:0:0:
227,138,35257,1,8,0:0:0:0:
227,138,35444,1,0,0:0:0:0:
227,138,35632,1,0,0:0:0:0:
227,138,35725,1,0,0:0:0:0:
227,138,35819,1,8,0:0:0:0:
227,138,36007,1,8,0:0:0:0:
227,138,36195,1,0,0:0:0:0:
227,138,36382,1,8,0:0:0:0:
227,138,36570,1,0,0:0:0:0:
227,138,36663,1,0,0:0:0:0:
227,138,36757,1,8,0:0:0:0:
227,138,36945,1,0,0:0:0:0:
227,138,37038,1,0,0:0:0:0:
227,138,37132,1,8,0:0:0:0:
227,138,37226,1,0,0:0:0:0:
227,138,37319,1,0,0:0:0:0:
227,138,37413,1,0,0:0:0:0:
227,138,37507,1,8,0:0:0:0:
227,138,37695,1,0,0:0:0:0:
227,138,37882,1,8,0:0:0:0:
227,138,38070,1,8,0:0:0:0:
227,138,38163,1,0,0:0:0:0:
227,138,38257,1,0,0:0:0:0:
227,138,38351,1,0,0:0:0:0:
227,138,38445,1,0,0:0:0:0:
227,138,38632,1,8,0:0:0:0:
227,138,39007,1,12,0:0:0:0:
227,138,39382,1,0,0:0:0:0:
227,138,39476,1,8,0:0:0:0:
227,138,39663,1,0,0:0:0:0:
227,138,39757,1,8,0:0:0:0:
227,138,39945,1,0,0:0:0:0:
227,138,40038,1,8,0:0:0:0:
227,138,40226,1,0,0:0:0:0:
227,138,40320,1,8,0:0:0:0:
227,138,40507,1,0,0:0:0:0:
227,138,40601,1,0,0:0:0:0:
227,138,40695,1,8,0:0:0:0:
227,138,40788,1,0,0:0:0:0:
227,138,40882,1,0,0:0:0:0:
227,138,40976,1,8,0:0:0:0:
227,138,41163,1,0,0:0:0:0:
227,138,41257,1,8,0:0:0:0:
227,138,41445,1,0,0:0:0:0:
227,138,41538,1,8,0:0:0:0:
227,138,41726,1,0,0:0:0:0:
227,138,41820,1,8,0:0:0:0:
227,138,42007,1,0,0:0:0:0:
227,138,42101,1,0,0:0:0:0:
227,138,42195,1,8,0:0:0:0:
227,138,42288,1,0,0:0:0:0:
227,138,42382,1,8,0:0:0:0:
227,138,42570,1,0,0:0:0:0:
227,138,42663,1,8,0:0:0:0:
227,138,42851,1,0,0:0:0:0:
227,138,42945,1,8,0:0:0:0:
227,138,43132,1,0,0:0:0:0:
227,138,43320,1,0,0:0:0:0:
227,138,43507,1,8,0:0:0:0:
227,138,43695,1,0,0:0:0:0:
227,138,43882,1,0,0:0:0:0:
227,138,44070,1,0,0:0:0:0:
227,138,44164,1,0,0:0:0:0:
227,138,44257,1,8,0:0:0:0:
227,138,44445,1,0,0:0:0:0:
227,138,44539,1,0,0:0:0:0:
227,138,44632,1,8,0:0:0:0:
227,138,44820,1,0,0:0:0:0:
227,138,45007,1,8,0:0:0:0:
227,138,45101,1,0,0:0:0:0:
227,138,45195,1,0,0:0:0:0:
227,138,45289,1,0,0:0:0:0:
227,138,45382,1,8,0:0:0:0:
227,138,45570,1,0,0:0:0:0:
227,138,45664,1,8,0:0:0:0:
227,138,45851,1,0,0:0:0:0:
227,138,45945,1,8,0:0:0:0:
227,138,46132,1,0,0:0:0:0:
227,138,46320,1,0,0:0:0:0:
227,138,46414,1,0,0:0:0:0:
227,138,46507,1,8,0:0:0:0:
227,138,46695,1,0,0:0:0:0:
227,138,46882,1,4,0:0:0:0:
227,138,47070,1,0,0:0:0:0:
227,138,47164,1,0,0:0:0:0:
227,138,47257,1,8,0:0:0:0:
227,138,47444,1,0,0:0:0:0:
227,138,47538,1,0,0:0:0:0:
227,138,47631,1,8,0:0:0:0:
227,138,47819,1,0,0:0:0:0:
227,138,47913,1,0,0:0:0:0:
227,138,48007,1,8,0:0:0:0:
227,138,48194,1,0,0:0:0:0:
227,138,48288,1,0,0:0:0:0:
227,138,48381,1,8,0:0:0:0:
227,138,48570,1,0,0:0:0:0:
227,138,48664,1,0,0:0:0:0:
227,138,48757,1,8,0:0:0:0:
227,138,48945,1,0,0:0:0:0:
227,138,49039,1,0,0:0:0:0:
227,138,49132,1,8,0:0:0:0:
227,138,49320,1,0,0:0:0:0:
227,138,49414,1,0,0:0:0:0:
227,138,49507,1,8,0:0:0:0:
227,138,49695,1,0,0:0:0:0:
227,138,49788,1,0,0:0:0:0:
227,138,49882,1,8,0:0:0:0:
227,138,50070,1,0,0:0:0:0:
227,138,50164,1,8,0:0:0:0:
227,138,50257,1,0,0:0:0:0:
227,138,50445,1,0,0:0:0:0:
227,138,50538,1,0,0:0:0:0:
227,138,50632,1,8,0:0:0:0:
227,138,50820,1,0,0:0:0:0:
227,138,50913,1,8,0:0:0:0:
227,138,51007,1,0,0:0:0:0:
227,138,51195,1,0,0:0:0:0:
227,138,51289,1,0,0:0:0:0:
227,138,51382,1,8,0:0:0:0:
227,138,51570,1,0,0:0:0:0:
227,138,51664,1,0,0:0:0:0:
227,138,51757,1,8,0:0:0:0:
227,138,51945,1,0,0:0:0:0:
227,138,52039,1,0,0:0:0:0:
227,138,52132,1,8,0:0:0:0:
227,138,52320,1,0,0:0:0:0:
227,138,52413,1,0,0:0:0:0:
227,138,52507,1,8,0:0:0:0:
227,138,52601,1,0,0:0:0:0:
227,138,52695,1,0,0:0:0:0:
227,138,52788,1,0,0:0:0:0:
227,138,52882,1,8,0:0:0:0:
227,138,53632,1,8,0:0:0:0:
227,138,54382,1,0,0:0:0:0:
227,138,55132,1,8,0:0:0:0:
227,138,55882,1,0,0:0:0:0:
227,138,56632,1,0,0:0:0:0:
227,138,57382,1,0,0:0:0:0:
278,179,58132,2,0,L|86:281,1,210
77,253,58882,5,0,0:0:0:0:
256,192,58882,12,0,59069,0:0:0:0:
278,179,58976,5,0,0:0:0:0:
278,179,59070,1,8,0:0:0:0:
256,192,59164,12,0,59351,0:0:0:0:
278,179,59164,1,0,0:0:0:0:
278,179,59257,1,0,0:0:0:0:
278,179,59351,1,8,0:0:0:0:
256,192,59445,12,0,59632,0:0:0:0:
278,179,59445,1,0,0:0:0:0:
278,179,59539,1,0,0:0:0:0:
278,179,59632,1,8,0:0:0:0:
256,192,59726,12,0,59913,0:0:0:0:
278,179,59726,1,0,0:0:0:0:
278,179,59820,1,0,0:0:0:0:
278,179,59914,1,8,0:0:0:0:
256,192,60007,12,0,60194,0:0:0:0:
278,179,60007,1,0,0:0:0:0:
278,179,60101,1,0,0:0:0:0:
278,179,60195,1,8,0:0:0:0:
256,192,60289,12,0,60476,0:0:0:0:
250,173,60289,1,0,0:0:0:0:
278,179,60382,1,0,0:0:0:0:
278,179,60476,1,8,0:0:0:0:
256,192,60570,12,0,60757,0:0:0:0:
278,179,60570,1,0,0:0:0:0:
278,179,60664,1,0,0:0:0:0:
278,179,60757,1,8,0:0:0:0:
256,192,60851,12,0,61038,0:0:0:0:
278,179,60851,1,0,0:0:0:0:
278,179,60945,1,0,0:0:0:0:
278,179,61039,1,8,0:0:0:0:
278,179,61132,1,0,0:0:0:0:
278,179,61320,1,0,0:0:0:0:
278,179,61414,1,8,0:0:0:0:
278,179,61601,1,0,0:0:0:0:
278,179,61695,1,8,0:0:0:0:
278,179,61882,1,0,0:0:0:0:
278,179,62070,1,0,0:0:0:0:
278,179,62164,1,0,0:0:0:0:
278,179,62257,1,8,0:0:0:0:
278,179,62445,1,0,0:0:0:0:
278,179,62632,1,0,0:0:0:0:
278,179,62820,1,0,0:0:0:0:
278,179,62914,1,8,0:0:0:0:
278,179,63101,1,0,0:0:0:0:
278,179,63195,1,8,0:0:0:0:
278,179,63382,1,0,0:0:0:0:
278,179,63570,1,0,0:0:0:0:
278,179,63664,1,0,0:0:0:0:
278,179,63757,1,8,0:0:0:0:
278,179,63945,1,0,0:0:0:0:
278,179,64039,1,0,0:0:0:0:
278,179,64132,1,8,0:0:0:0:
278,179,64320,1,0,0:0:0:0:
278,179,64414,1,0,0:0:0:0:
278,179,64508,1,8,0:0:0:0:
278,179,64695,1,0,0:0:0:0:
256,192,64883,12,0,65070,0:0:0:0:
278,179,64883,1,8,0:0:0:0:
278,179,64976,1,8,0:0:0:0:
278,179,65070,1,0,0:0:0:0:
256,192,65164,12,0,65351,0:0:0:0:
278,179,65164,1,8,0:0:0:0:
278,179,65258,1,8,0:0:0:0:
278,179,65351,1,0,0:0:0:0:
256,192,65445,12,0,65632,0:0:0:0:
278,179,65445,1,8,0:0:0:0:
278,179,65539,1,8,0:0:0:0:
278,179,65633,1,0,0:0:0:0:
256,192,65726,12,0,65913,0:0:0:0:
278,179,65726,1,8,0:0:0:0:
278,179,65820,1,8,0:0:0:0:
278,179,65914,1,0,0:0:0:0:
256,192,66008,12,0,66195,0:0:0:0:
278,179,66008,1,8,0:0:0:0:
278,179,66101,1,8,0:0:0:0:
278,179,66195,1,0,0:0:0:0:
256,192,66289,12,0,66476,0:0:0:0:
278,179,66289,1,8,0:0:0:0:
278,179,66383,1,8,0:0:0:0:
278,179,66476,1,0,0:0:0:0:
256,192,66570,12,0,66757,0:0:0:0:
278,179,66570,1,8,0:0:0:0:
278,179,66664,1,8,0:0:0:0:
278,179,66758,1,0,0:0:0:0:
256,192,66851,12,0,67038,0:0:0:0:
278,179,66851,1,8,0:0:0:0:
278,179,66945,1,8,0:0:0:0:
278,179,67039,1,0,0:0:0:0:
278,179,67133,1,8,0:0:0:0:
278,179,67320,1,0,0:0:0:0:
278,179,67414,1,8,0:0:0:0:
278,179,67601,1,0,0:0:0:0:
278,179,67695,1,8,0:0:0:0:
278,179,67883,1,0,0:0:0:0:
278,179,68070,1,0,0:0:0:0:
278,179,68164,1,0,0:0:0:0:
278,179,68258,1,8,0:0:0:0:
278,179,68445,1,0,0:0:0:0:
278,179,68633,1,8,0:0:0:0:
278,179,68820,1,8,0:0:0:0:
278,179,68914,1,0,0:0:0:0:
278,179,69008,1,8,0:0:0:0:
278,179,69195,1,0,0:0:0:0:
278,179,69383,1,0,0:0:0:0:
278,179,69476,1,0,0:0:0:0:
278,179,69570,1,8,0:0:0:0:
278,179,69758,1,8,0:0:0:0:
278,179,69945,1,0,0:0:0:0:
278,179,70133,1,0,0:0:0:0:
278,179,70226,1,0,0:0:0:0:
278,179,70320,1,0,0:0:0:0:
278,179,70414,1,0,0:0:0:0:
278,179,70508,1,8,0:0:0:0:
278,179,70601,1,0,0:0:0:0:
278,179,70695,1,0,0:0:0:0:
278,179,70789,1,0,0:0:0:0:
278,179,70883,1,0,0:0:0:0:
278,179,71070,1,0,0:0:0:0:
278,179,71164,1,0,0:0:0:0:
278,179,71258,1,8,0:0:0:0:
278,179,71445,1,0,0:0:0:0:
278,179,71539,1,0,0:0:0:0:
278,179,71633,1,0,0:0:0:0:
278,179,71914,1,0,0:0:0:0:
278,179,72195,1,0,0:0:0:0:
278,179,72289,1,0,0:0:0:0:
278,179,72383,1,8,0:0:0:0:
278,179,72664,1,8,0:0:0:0:
278,179,72945,1,0,0:0:0:0:
278,179,73039,1,0,0:0:0:0:
278,179,73133,1,8,0:0:0:0:
278,179,73414,1,8,0:0:0:0:
278,179,73695,1,8,0:0:0:0:
278,179,73883,1,4,0:0:0:0:
278,179,74070,1,0,0:0:0:0:
278,179,74164,1,0,0:0:0:0:
278,179,74258,1,8,0:0:0:0:
278,179,74445,1,0,0:0:0:0:
278,179,74633,1,8,0:0:0:0:
278,179,74820,1,0,0:0:0:0:
278,179,74914,1,0,0:0:0:0:
278,179,75008,1,8,0:0:0:0:
278,179,75195,1,0,0:0:0:0:
278,179,75383,1,8,0:0:0:0:
278,179,75477,1,8,0:0:0:0:
278,179,75570,1,0,0:0:0:0:
278,179,75758,1,8,0:0:0:0:
278,179,75945,1,0,0:0:0:0:
278,179,76133,1,8,0:0:0:0:
278,179,76227,1,8,0:0:0:0:
278,179,76320,1,0,0:0:0:0:
278,179,76414,1,0,0:0:0:0:
278,179,76508,1,8,0:0:0:0:
278,179,76602,1,0,0:0:0:0:
278,179,76695,1,8,0:0:0:0:
278,179,76789,1,0,0:0:0:0:
256,192,76883,12,0,77164,0:0:0:0:
278,179,77258,1,4,0:0:0:0:
278,179,77445,1,0,0:0:0:0:
278,179,77539,1,0,0:0:0:0:
278,179,77633,1,8,0:0:0:0:
278,179,77820,1,0,0:0:0:0:
278,179,78008,1,8,0:0:0:0:
278,179,78195,1,0,0:0:0:0:
278,179,78289,1,0,0:0:0:0:
278,179,78383,1,8,0:0:0:0:
278,179,78570,1,0,0:0:0:0:
278,179,78758,1,8,0:0:0:0:
278,179,78945,1,0,0:0:0:0:
256,192,79133,12,0,79320,0:0:0:0:
256,192,79508,12,0,79695,0:0:0:0:
278,179,79883,5,0,0:0:0:0:
278,179,80070,1,0,0:0:0:0:
278,179,80164,1,0,0:0:0:0:
278,179,80258,1,8,0:0:0:0:
278,179,80446,1,0,0:0:0:0:
278,179,80633,1,8,0:0:0:0:
278,179,80821,1,0,0:0:0:0:
278,179,80914,1,8,0:0:0:0:
278,179,81196,1,0,0:0:0:0:
278,179,81289,1,8,0:0:0:0:
278,179,81383,1,0,0:0:0:0:
278,179,81758,1,4,0:0:0:0:
278,179,82133,1,4,0:0:0:0:
278,179,82508,1,12,0:0:0:0:
227,138,82883,1,0,0:0:0:0:
227,138,83070,1,8,0:0:0:0:
227,138,83164,1,8,0:0:0:0:
227,138,83258,1,0,0:0:0:0:
227,138,83445,1,8,0:0:0:0:
227,138,83633,1,0,0:0:0:0:
227,138,83820,1,8,0:0:0:0:
227,138,83914,1,8,0:0:0:0:
227,138,84008,1,0,0:0:0:0:
227,138,84195,1,8,0:0:0:0:
227,138,84383,1,0,0:0:0:0:
227,138,84570,1,8,0:0:0:0:
227,138,84664,1,8,0:0:0:0:
227,138,84758,1,0,0:0:0:0:
227,138,84945,1,8,0:0:0:0:
227,138,85133,1,0,0:0:0:0:
227,138,85320,1,8,0:0:0:0:
227,138,85414,1,8,0:0:0:0:
227,138,85508,1,0,0:0:0:0:
227,138,85695,1,8,0:0:0:0:
227,138,85789,1,8,0:0:0:0:
227,138,85883,1,0,0:0:0:0:
227,138,86070,1,8,0:0:0:0:
227,138,86258,5,0,0:0:0:0:
227,138,86445,1,8,0:0:0:0:
227,138,86820,1,8,0:0:0:0:
227,138,87008,1,0,0:0:0:0:
227,138,87195,1,0,0:0:0:0:
227,138,87383,1,8,0:0:0:0:
227,138,87477,1,0,0:0:0:0:
227,138,87570,1,0,0:0:0:0:
227,138,87664,1,0,0:0:0:0:
227,138,87758,1,8,0:0:0:0:
227,138,87852,1,0,0:0:0:0:
227,138,87946,1,0,0:0:0:0:
227,138,88039,1,0,0:0:0:0:
256,192,88133,12,0,88508,0:0:0:0:
