osu file format v12

[General]
AudioFilename: ED.mp3
AudioLeadIn: 1000
PreviewTime: 58132
Countdown: 0
SampleSet: Soft
StackLeniency: 0.7
Mode: 3
LetterboxInBreaks: 0
SpecialStyle: 0
WidescreenStoryboard: 1

[Editor]
Bookmarks: 85133
DistanceSpacing: 1.6
BeatDivisor: 2
GridSize: 32

[Metadata]
Title:Maware! Setsugekka (TV Size)
TitleUnicode:回レ!雪月花 (TV Size)
Artist:Harada Hitomi, Kayano Ai & Ogura Yui
ArtistUnicode:原田ひとみ,茅野愛衣 & 小倉唯
Creator:Chocoliti
Version:7K Beginner
Source:Kikou Shoujo wa Kizutsukanai
Tags:機巧少女は傷つかない Machine Doll wa Kizutsukanai ending ED [FX] AEM PROGUY Jubeat Saucer Pop'n Music Sunny Park Reflec Beat Colette All Seasons Dance Dance Revolution DDR
BeatmapID:331963
BeatmapSetID:129383

[Difficulty]
HPDrainRate:6
CircleSize:7
OverallDifficulty:7
ApproachRate:8
SliderMultiplier:1.6
SliderTickRate:1

[Events]
//Background and Video events
0,0,"BG.jpg",0,0
//Break Periods
//Storyboard Layer 0 (Background)
//Storyboard Layer 1 (Fail)
//Storyboard Layer 2 (Pass)
//Storyboard Layer 3 (Foreground)
//Storyboard Sound Samples
//Background Colour Transformations
3,100,163,162,255

[TimingPoints]
381,375.011719116222,4,2,1,40,1,0
33382,-117.647058823529,4,2,1,10,0,0
39007,-117.647058823529,4,2,1,40,0,0
39382,-100,4,2,1,40,0,0
58882,-100,4,2,1,40,0,1
82508,-100,4,2,1,40,0,0

[Colours]
Combo1 : 239,45,255
Combo2 : 62,187,255
Combo3 : 237,155,101

[HitObjects]
109,192,381,1,0,0:0:0:0:
402,192,756,1,0,0:0:0:0:
182,192,1131,1,0,0:0:0:0:
329,192,1318,1,0,0:0:0:0:
182,192,1506,1,0,0:0:0:0:
329,192,1693,1,0,0:0:0:0:
36,192,1881,1,8,0:0:0:0:
109,192,2256,1,8,0:0:0:0:
182,192,2631,1,8,0:0:0:0:
256,192,3006,1,8,0:0:0:0:
475,192,3381,1,8,0:0:0:0:
402,192,3756,1,8,0:0:0:0:
329,192,4131,1,8,0:0:0:0:
256,192,4506,1,8,0:0:0:0:
109,192,4881,1,8,0:0:0:0:
109,192,5256,1,8,0:0:0:0:
256,192,5631,1,8,0:0:0:0:
256,192,6006,1,8,0:0:0:0:
402,192,6381,1,8,0:0:0:0:
402,192,6756,1,8,0:0:0:0:
36,192,7131,1,8,0:0:0:0:
475,192,7131,1,0,0:0:0:0:
256,192,7318,1,0,0:0:0:0:
329,192,7506,1,0,0:0:0:0:
182,192,7506,1,4,0:0:0:0:
109,192,7881,1,8,0:0:0:0:
402,192,8256,1,8,0:0:0:0:
109,192,8631,1,8,0:0:0:0:
402,192,9006,1,8,0:0:0:0:
182,192,9381,1,8,0:0:0:0:
329,192,9756,1,8,0:0:0:0:
182,192,10131,1,8,0:0:0:0:
329,192,10506,1,8,0:0:0:0:
475,192,10881,1,8,0:0:0:0:
402,192,11256,1,8,0:0:0:0:
329,192,11631,1,8,0:0:0:0:
256,192,12006,1,8,0:0:0:0:
36,192,12381,1,8,0:0:0:0:
182,192,12381,1,0,0:0:0:0:
475,192,12756,1,0,0:0:0:0:
329,192,12756,1,8,0:0:0:0:
182,192,13131,1,8,0:0:0:0:
36,192,13131,1,0,0:0:0:0:
329,192,13506,1,0,0:0:0:0:
475,192,13506,1,0,0:0:0:0:
109,192,13881,1,4,0:0:0:0:
182,192,14256,1,8,0:0:0:0:
256,192,14631,1,8,0:0:0:0:
329,192,15006,1,8,0:0:0:0:
182,192,15381,1,8,0:0:0:0:
329,192,15756,1,8,0:0:0:0:
109,192,16131,1,8,0:0:0:0:
256,192,16318,1,8,0:0:0:0:
402,192,16506,1,8,0:0:0:0:
182,192,16881,1,4,0:0:0:0:
182,192,17256,1,8,0:0:0:0:
329,192,17631,1,8,0:0:0:0:
329,192,18006,1,8,0:0:0:0:
475,192,18381,1,8,0:0:0:0:
36,192,18569,1,8,0:0:0:0:
475,192,18756,1,8,0:0:0:0:
329,192,19131,1,8,0:0:0:0:
182,192,19506,1,4,0:0:0:0:
36,192,19506,1,0,0:0:0:0:
256,192,19881,1,8,0:0:0:0:
256,192,20256,1,8,0:0:0:0:
329,192,20631,1,8,0:0:0:0:
182,192,21006,1,8,0:0:0:0:
36,192,21381,1,8,0:0:0:0:
109,192,21756,1,8,0:0:0:0:
182,192,22131,1,8,0:0:0:0:
256,192,22506,1,8,0:0:0:0:
402,192,22881,1,8,0:0:0:0:
329,192,23256,1,8,0:0:0:0:
256,192,23631,1,8,0:0:0:0:
182,192,24006,1,8,0:0:0:0:
109,192,24381,1,0,0:0:0:0:
402,192,24381,1,8,0:0:0:0:
109,192,24756,1,8,0:0:0:0:
402,192,24756,1,0,0:0:0:0:
109,192,25131,1,0,0:0:0:0:
402,192,25131,1,8,0:0:0:0:
36,192,25506,1,4,0:0:0:0:
475,192,25881,1,4,0:0:0:0:
256,192,26163,1,4,0:0:0:0:
329,192,26444,1,4,0:0:0:0:
182,192,26631,1,4,0:0:0:0:
36,192,27006,1,0,0:0:0:0:
109,192,27381,1,8,0:0:0:0:
109,192,27756,1,8,0:0:0:0:
256,192,28131,1,8,0:0:0:0:
256,192,28506,1,8,0:0:0:0:
402,192,28881,1,8,0:0:0:0:
402,192,29256,1,8,0:0:0:0:
182,192,29631,1,8,0:0:0:0:
182,192,30006,1,8,0:0:0:0:
475,192,30381,1,8,0:0:0:0:
329,192,30381,1,0,0:0:0:0:
182,192,31131,1,8,0:0:0:0:
36,192,31131,1,0,0:0:0:0:
109,192,31881,1,0,0:0:0:0:
402,192,32069,1,0,0:0:0:0:
109,192,32256,1,0,0:0:0:0:
402,192,32444,1,0,0:0:0:0:
109,192,32632,1,0,0:0:0:0:
329,192,33007,1,4,0:0:0:0:
182,192,33007,1,0,0:0:0:0:
36,192,33382,1,0,0:0:0:0:
36,192,33757,1,0,0:0:0:0:
475,192,34132,1,0,0:0:0:0:
109,192,34882,1,0,0:0:0:0:
182,192,35257,1,0,0:0:0:0:
402,192,35632,1,0,0:0:0:0:
329,192,36007,1,0,0:0:0:0:
36,192,36382,1,0,0:0:0:0:
36,192,36757,1,0,0:0:0:0:
475,192,37132,1,0,0:0:0:0:
109,192,37882,1,0,0:0:0:0:
402,192,38257,1,0,0:0:0:0:
109,192,38632,1,0,0:0:0:0:
182,192,39007,1,4,0:0:0:0:
329,192,39007,1,0,0:0:0:0:
36,192,39382,1,8,0:0:0:0:
109,192,39757,1,8,0:0:0:0:
182,192,40132,1,8,0:0:0:0:
256,192,40507,1,8,0:0:0:0:
475,192,40882,1,8,0:0:0:0:
402,192,41257,1,8,0:0:0:0:
329,192,41632,1,8,0:0:0:0:
256,192,42007,1,8,0:0:0:0:
36,192,42382,1,8,0:0:0:0:
475,192,42757,1,8,0:0:0:0:
182,192,43132,1,8,0:0:0:0:
329,192,43507,1,8,0:0:0:0:
109,192,43882,1,8,0:0:0:0:
402,192,44257,1,8,0:0:0:0:
256,192,44632,1,8,0:0:0:0:
109,192,45007,1,4,0:0:0:0:
402,192,45382,1,4,0:0:0:0:
256,192,45382,1,0,0:0:0:0:
182,192,45663,1,0,0:0:0:0:
256,192,45944,1,0,0:0:0:0:
109,192,46132,1,4,0:0:0:0:
402,192,46507,1,0,0:0:0:0:
36,192,46882,1,8,0:0:0:0:
36,192,47257,1,8,0:0:0:0:
109,192,47632,1,8,0:0:0:0:
109,192,48007,1,8,0:0:0:0:
182,192,48382,1,8,0:0:0:0:
182,192,48757,1,8,0:0:0:0:
256,192,49132,1,8,0:0:0:0:
256,192,49507,1,8,0:0:0:0:
329,192,49882,1,8,0:0:0:0:
329,192,50257,1,8,0:0:0:0:
402,192,50632,1,8,0:0:0:0:
402,192,51007,1,8,0:0:0:0:
475,192,51382,1,8,0:0:0:0:
475,192,51757,1,8,0:0:0:0:
329,192,52132,1,8,0:0:0:0:
182,192,52507,1,8,0:0:0:0:
36,192,52882,1,6,0:0:0:0:
329,192,52882,1,0,0:0:0:0:
36,192,53257,1,2,0:0:0:0:
36,192,53632,1,2,0:0:0:0:
36,192,54007,1,2,0:0:0:0:
475,192,54382,1,2,0:0:0:0:
182,192,54382,1,0,0:0:0:0:
475,192,54757,1,2,0:0:0:0:
475,192,55132,1,2,0:0:0:0:
475,192,55507,1,2,0:0:0:0:
109,192,55882,1,8,0:0:0:0:
182,192,56257,1,0,0:0:0:0:
256,192,56632,1,8,0:0:0:0:
329,192,57007,1,0,0:0:0:0:
402,192,57382,1,8,0:0:0:0:
109,192,57382,1,8,0:0:0:0:
182,192,58132,1,4,0:0:0:0:
329,192,58132,1,0,0:0:0:0:
475,192,58882,1,4,0:0:0:0:
36,192,59257,1,0,0:0:0:0:
402,192,59632,1,0,0:0:0:0:
109,192,60007,1,4,0:0:0:0:
329,192,60382,1,0,0:0:0:0:
182,192,60757,1,0,0:0:0:0:
475,192,61132,1,4,0:0:0:0:
329,192,61132,1,0,0:0:0:0:
36,192,61507,1,0,0:0:0:0:
182,192,61507,1,0,0:0:0:0:
256,192,61882,1,8,0:0:0:0:
329,192,62257,1,8,0:0:0:0:
182,192,62632,1,8,0:0:0:0:
109,192,63007,1,8,0:0:0:0:
402,192,63382,1,8,0:0:0:0:
329,192,63757,1,8,0:0:0:0:
256,192,64132,1,8,0:0:0:0:
182,192,64508,1,8,0:0:0:0:
36,192,64508,1,0,0:0:0:0:
475,192,64883,1,4,0:0:0:0:
36,192,65258,1,0,0:0:0:0:
402,192,65633,1,0,0:0:0:0:
109,192,66008,1,4,0:0:0:0:
329,192,66383,1,0,0:0:0:0:
182,192,66758,1,0,0:0:0:0:
475,192,67133,1,0,0:0:0:0:
329,192,67133,1,4,0:0:0:0:
182,192,67508,1,0,0:0:0:0:
36,192,67508,1,0,0:0:0:0:
256,192,67883,1,8,0:0:0:0:
329,192,68258,1,8,0:0:0:0:
182,192,68633,1,8,0:0:0:0:
109,192,69008,1,8,0:0:0:0:
182,192,69383,1,8,0:0:0:0:
329,192,69758,1,8,0:0:0:0:
182,192,70133,1,0,0:0:0:0:
36,192,70133,1,0,0:0:0:0:
329,192,70508,1,0,0:0:0:0:
475,192,70508,1,0,0:0:0:0:
256,192,70883,1,4,0:0:0:0:
182,192,71258,1,0,0:0:0:0:
402,192,71633,1,4,0:0:0:0:
109,192,71914,1,0,0:0:0:0:
109,192,72195,1,0,0:0:0:0:
475,192,72383,1,4,0:0:0:0:
402,192,72758,1,0,0:0:0:0:
329,192,73133,1,4,0:0:0:0:
256,192,73508,1,0,0:0:0:0:
36,192,73883,1,8,0:0:0:0:
182,192,74258,1,8,0:0:0:0:
475,192,74633,1,8,0:0:0:0:
329,192,75008,1,8,0:0:0:0:
109,192,75383,1,8,0:0:0:0:
256,192,75758,1,8,0:0:0:0:
402,192,76133,1,8,0:0:0:0:
329,192,76508,1,8,0:0:0:0:
109,192,76883,1,0,0:0:0:0:
256,192,76883,1,0,0:0:0:0:
182,192,77258,1,8,0:0:0:0:
36,192,77258,1,0,0:0:0:0:
475,192,77633,1,8,0:0:0:0:
329,192,77633,1,0,0:0:0:0:
256,192,78008,1,8,0:0:0:0:
182,192,78383,1,8,0:0:0:0:
109,192,78758,1,8,0:0:0:0:
36,192,79133,1,8,0:0:0:0:
182,192,79508,1,8,0:0:0:0:
329,192,79883,1,8,0:0:0:0:
256,192,80258,1,8,0:0:0:0:
182,192,80633,1,8,0:0:0:0:
256,192,81008,1,8,0:0:0:0:
329,192,81383,1,0,0:0:0:0:
475,192,81383,1,4,0:0:0:0:
182,192,81758,1,4,0:0:0:0:
36,192,81758,1,0,0:0:0:0:
109,192,82133,128,4,82508:0:0:0:0:
402,192,82133,128,0,82508:0:0:0:0:
36,192,82883,1,8,0:0:0:0:
475,192,82883,1,0,0:0:0:0:
182,192,83258,1,8,0:0:0:0:
475,192,83633,1,8,0:0:0:0:
329,192,84008,1,8,0:0:0:0:
36,192,84383,1,8,0:0:0:0:
109,192,84758,1,8,0:0:0:0:
182,192,85133,1,8,0:0:0:0:
256,192,85508,1,8,0:0:0:0:
475,192,85883,1,2,0:0:0:0:
402,192,86258,1,2,0:0:0:0:
329,192,86633,1,2,0:0:0:0:
256,192,87008,1,2,0:0:0:0:
109,192,87383,1,0,0:0:0:0:
402,192,87571,1,0,0:0:0:0:
109,192,87758,1,0,0:0:0:0:
402,192,87946,1,0,0:0:0:0:
109,192,88133,1,0,0:0:0:0:
36,192,88508,1,4,0:0:0:0:
475,192,88508,1,0,0:0:0:0:
