osu file format v12

[General]
AudioFilename: ED.mp3
AudioLeadIn: 1000
PreviewTime: 58132
Countdown: 0
SampleSet: Soft
StackLeniency: 0.7
Mode: 3
LetterboxInBreaks: 0
SpecialStyle: 0
WidescreenStoryboard: 1

[Editor]
DistanceSpacing: 1.6
BeatDivisor: 4
GridSize: 8

[Metadata]
Title:Maware! Setsugekka (TV Size)
TitleUnicode:回レ!雪月花 (TV Size)
Artist:Harada Hitomi, Kayano Ai & Ogura Yui
ArtistUnicode:原田ひとみ,茅野愛衣 & 小倉唯
Creator:Chocoliti
Version:7K Another
Source:Kikou Shoujo wa Kizutsukanai
Tags:機巧少女は傷つかない Machine Doll wa Kizutsukanai ending ED [FX] AEM PROGUY Jubeat Saucer Pop'n Music Sunny Park Reflec Beat Colette All Seasons Dance Dance Revolution DDR
BeatmapID:326968
BeatmapSetID:129383

[Difficulty]
HPDrainRate:8
CircleSize:7
OverallDifficulty:9
ApproachRate:8
SliderMultiplier:1.6
SliderTickRate:1

[Events]
//Background and Video events
0,0,"BG.jpg",0,0
//Break Periods
//Storyboard Layer 0 (Background)
//Storyboard Layer 1 (Fail)
//Storyboard Layer 2 (Pass)
//Storyboard Layer 3 (Foreground)
//Storyboard Sound Samples
//Background Colour Transformations
3,100,163,162,255

[TimingPoints]
381,375.011719116222,4,2,1,40,1,0
33382,-117.647058823529,4,2,1,10,0,0
39007,-117.647058823529,4,2,1,40,0,0
39382,-100,4,2,1,40,0,0
58882,-100,4,2,1,40,0,1
82508,-100,4,2,1,40,0,0

[Colours]
Combo1 : 239,45,255
Combo2 : 62,187,255
Combo3 : 237,155,101

[HitObjects]
109,192,381,1,0,0:0:0:0:
402,192,756,1,0,0:0:0:0:
36,192,1131,1,0,0:0:0:0:
182,192,1131,1,0,0:0:0:0:
329,192,1224,1,0,0:0:0:0:
256,192,1318,1,0,0:0:0:0:
109,192,1318,1,0,0:0:0:0:
475,192,1506,1,0,0:0:0:0:
329,192,1506,1,0,0:0:0:0:
36,192,1506,1,0,0:0:0:0:
402,192,1693,1,0,0:0:0:0:
256,192,1693,1,0,0:0:0:0:
109,192,1693,1,0,0:0:0:0:
36,192,1881,1,8,0:0:0:0:
182,192,1881,1,0,0:0:0:0:
329,192,1881,1,0,0:0:0:0:
329,192,2068,1,0,0:0:0:0:
475,192,2068,1,0,0:0:0:0:
182,192,2068,1,8,0:0:0:0:
36,192,2256,1,8,0:0:0:0:
256,192,2256,1,0,0:0:0:0:
402,192,2256,1,0,0:0:0:0:
182,192,2349,1,8,0:0:0:0:
256,192,2443,1,8,0:0:0:0:
329,192,2443,1,0,0:0:0:0:
36,192,2631,1,8,0:0:0:0:
329,192,2631,1,0,0:0:0:0:
182,192,2631,1,0,0:0:0:0:
329,192,2818,1,0,0:0:0:0:
475,192,2818,1,0,0:0:0:0:
182,192,2818,1,8,0:0:0:0:
36,192,3006,1,8,0:0:0:0:
256,192,3006,1,0,0:0:0:0:
402,192,3006,1,0,0:0:0:0:
182,192,3099,1,8,0:0:0:0:
256,192,3193,1,8,0:0:0:0:
329,192,3193,1,0,0:0:0:0:
36,192,3381,1,8,0:0:0:0:
329,192,3381,1,0,0:0:0:0:
182,192,3381,1,0,0:0:0:0:
329,192,3568,1,0,0:0:0:0:
475,192,3568,1,0,0:0:0:0:
182,192,3568,1,8,0:0:0:0:
36,192,3756,1,8,0:0:0:0:
256,192,3756,1,0,0:0:0:0:
402,192,3756,1,0,0:0:0:0:
182,192,3849,1,8,0:0:0:0:
256,192,3943,1,8,0:0:0:0:
329,192,3943,1,0,0:0:0:0:
36,192,4131,1,8,0:0:0:0:
329,192,4131,1,0,0:0:0:0:
182,192,4131,1,0,0:0:0:0:
329,192,4318,1,0,0:0:0:0:
475,192,4318,1,0,0:0:0:0:
182,192,4318,1,8,0:0:0:0:
36,192,4506,1,8,0:0:0:0:
256,192,4506,1,0,0:0:0:0:
402,192,4506,1,0,0:0:0:0:
182,192,4599,1,0,0:0:0:0:
329,192,4599,1,8,0:0:0:0:
109,192,4693,1,0,0:0:0:0:
256,192,4693,1,8,0:0:0:0:
329,192,4787,1,8,0:0:0:0:
182,192,4787,1,0,0:0:0:0:
36,192,4881,1,0,0:0:0:0:
475,192,4881,1,8,0:0:0:0:
256,192,4881,1,0,0:0:0:0:
475,192,5068,1,0,0:0:0:0:
329,192,5068,1,8,0:0:0:0:
182,192,5068,1,0,0:0:0:0:
36,192,5256,1,0,0:0:0:0:
402,192,5256,1,8,0:0:0:0:
182,192,5256,1,0,0:0:0:0:
329,192,5349,1,8,0:0:0:0:
402,192,5443,1,8,0:0:0:0:
256,192,5443,1,0,0:0:0:0:
36,192,5631,1,0,0:0:0:0:
475,192,5631,1,8,0:0:0:0:
256,192,5631,1,0,0:0:0:0:
475,192,5818,1,8,0:0:0:0:
329,192,5818,1,0,0:0:0:0:
182,192,5818,1,0,0:0:0:0:
36,192,6006,1,0,0:0:0:0:
402,192,6006,1,8,0:0:0:0:
182,192,6006,1,0,0:0:0:0:
329,192,6099,1,8,0:0:0:0:
109,192,6193,1,0,0:0:0:0:
256,192,6193,1,8,0:0:0:0:
36,192,6381,1,0,0:0:0:0:
475,192,6381,1,8,0:0:0:0:
256,192,6381,1,0,0:0:0:0:
475,192,6568,1,8,0:0:0:0:
329,192,6568,1,0,0:0:0:0:
182,192,6568,1,0,0:0:0:0:
36,192,6756,1,0,0:0:0:0:
402,192,6756,1,8,0:0:0:0:
182,192,6756,1,0,0:0:0:0:
329,192,6849,1,8,0:0:0:0:
402,192,6943,1,8,0:0:0:0:
256,192,6943,1,0,0:0:0:0:
36,192,7131,1,0,0:0:0:0:
475,192,7131,1,0,0:0:0:0:
256,192,7131,1,8,0:0:0:0:
475,192,7318,1,0,0:0:0:0:
329,192,7318,1,8,0:0:0:0:
256,192,7412,1,8,0:0:0:0:
109,192,7412,1,0,0:0:0:0:
36,192,7506,1,0,0:0:0:0:
402,192,7506,1,4,0:0:0:0:
182,192,7506,1,0,0:0:0:0:
36,192,7881,1,0,0:0:0:0:
329,192,7881,1,8,0:0:0:0:
475,192,7881,1,0,0:0:0:0:
109,192,8068,1,0,0:0:0:0:
256,192,8068,1,0,0:0:0:0:
329,192,8068,1,8,0:0:0:0:
36,192,8256,1,0,0:0:0:0:
182,192,8256,1,8,0:0:0:0:
475,192,8256,1,0,0:0:0:0:
329,192,8349,1,8,0:0:0:0:
402,192,8443,1,0,0:0:0:0:
256,192,8443,1,8,0:0:0:0:
36,192,8631,1,0,0:0:0:0:
329,192,8631,1,8,0:0:0:0:
475,192,8631,1,0,0:0:0:0:
109,192,8818,1,0,0:0:0:0:
256,192,8818,1,0,0:0:0:0:
329,192,8818,1,8,0:0:0:0:
36,192,9006,1,0,0:0:0:0:
182,192,9006,1,8,0:0:0:0:
475,192,9006,1,0,0:0:0:0:
329,192,9100,1,8,0:0:0:0:
402,192,9193,1,8,0:0:0:0:
109,192,9193,1,0,0:0:0:0:
36,192,9381,1,8,0:0:0:0:
329,192,9381,1,0,0:0:0:0:
475,192,9381,1,0,0:0:0:0:
109,192,9568,1,8,0:0:0:0:
256,192,9568,1,0,0:0:0:0:
329,192,9568,1,0,0:0:0:0:
36,192,9756,1,0,0:0:0:0:
182,192,9756,1,8,0:0:0:0:
475,192,9756,1,0,0:0:0:0:
329,192,9850,1,8,0:0:0:0:
402,192,9943,1,0,0:0:0:0:
256,192,9943,1,8,0:0:0:0:
36,192,10131,1,0,0:0:0:0:
475,192,10131,1,0,0:0:0:0:
329,192,10131,1,8,0:0:0:0:
109,192,10318,1,0,0:0:0:0:
256,192,10318,1,8,0:0:0:0:
329,192,10318,1,0,0:0:0:0:
402,192,10506,1,0,0:0:0:0:
36,192,10506,1,0,0:0:0:0:
182,192,10506,1,8,0:0:0:0:
329,192,10600,1,0,0:0:0:0:
256,192,10600,1,8,0:0:0:0:
109,192,10693,1,0,0:0:0:0:
182,192,10693,1,8,0:0:0:0:
475,192,10787,1,0,0:0:0:0:
329,192,10787,1,8,0:0:0:0:
36,192,10881,1,0,0:0:0:0:
256,192,10881,1,8,0:0:0:0:
182,192,10881,1,0,0:0:0:0:
109,192,11068,1,0,0:0:0:0:
402,192,11068,1,0,0:0:0:0:
329,192,11068,1,8,0:0:0:0:
36,192,11256,1,0,0:0:0:0:
475,192,11256,1,0,0:0:0:0:
329,192,11256,1,8,0:0:0:0:
109,192,11443,1,0,0:0:0:0:
402,192,11443,1,0,0:0:0:0:
256,192,11443,1,8,0:0:0:0:
36,192,11631,1,0,0:0:0:0:
475,192,11631,1,0,0:0:0:0:
182,192,11631,1,8,0:0:0:0:
109,192,11818,1,0,0:0:0:0:
402,192,11818,1,0,0:0:0:0:
256,192,11818,1,8,0:0:0:0:
36,192,12006,1,0,0:0:0:0:
182,192,12006,1,0,0:0:0:0:
329,192,12006,1,8,0:0:0:0:
109,192,12193,1,0,0:0:0:0:
402,192,12193,1,8,0:0:0:0:
475,192,12193,1,0,0:0:0:0:
36,192,12381,1,0,0:0:0:0:
475,192,12381,1,0,0:0:0:0:
256,192,12381,1,8,0:0:0:0:
329,192,12475,1,8,0:0:0:0:
109,192,12568,1,0,0:0:0:0:
402,192,12568,1,8,0:0:0:0:
329,192,12662,1,8,0:0:0:0:
36,192,12756,1,0,0:0:0:0:
256,192,12756,1,8,0:0:0:0:
475,192,12756,1,0,0:0:0:0:
182,192,12850,1,8,0:0:0:0:
109,192,12943,1,8,0:0:0:0:
402,192,12943,1,0,0:0:0:0:
182,192,13037,1,8,0:0:0:0:
256,192,13131,1,8,0:0:0:0:
36,192,13131,1,0,0:0:0:0:
475,192,13131,1,0,0:0:0:0:
475,192,13318,1,0,0:0:0:0:
329,192,13318,1,0,0:0:0:0:
182,192,13318,1,0,0:0:0:0:
36,192,13318,1,0,0:0:0:0:
475,192,13506,1,0,0:0:0:0:
329,192,13506,1,0,0:0:0:0:
182,192,13506,1,0,0:0:0:0:
36,192,13506,1,0,0:0:0:0:
475,192,13693,1,0,0:0:0:0:
36,192,13693,1,0,0:0:0:0:
182,192,13693,1,0,0:0:0:0:
329,192,13693,1,0,0:0:0:0:
36,192,13881,1,0,0:0:0:0:
329,192,13881,1,0,0:0:0:0:
475,192,13881,1,0,0:0:0:0:
256,192,13881,1,4,0:0:0:0:
402,192,14068,1,8,0:0:0:0:
182,192,14068,1,0,0:0:0:0:
109,192,14068,1,0,0:0:0:0:
329,192,14162,1,8,0:0:0:0:
256,192,14256,1,8,0:0:0:0:
36,192,14256,1,0,0:0:0:0:
182,192,14350,1,8,0:0:0:0:
256,192,14443,1,8,0:0:0:0:
402,192,14443,1,0,0:0:0:0:
329,192,14537,1,8,0:0:0:0:
36,192,14631,1,0,0:0:0:0:
475,192,14631,1,8,0:0:0:0:
182,192,14631,1,0,0:0:0:0:
109,192,14818,1,8,0:0:0:0:
402,192,14818,1,0,0:0:0:0:
329,192,14818,1,0,0:0:0:0:
182,192,14912,1,8,0:0:0:0:
256,192,15006,1,8,0:0:0:0:
36,192,15006,1,0,0:0:0:0:
329,192,15100,1,8,0:0:0:0:
256,192,15193,1,8,0:0:0:0:
402,192,15193,1,0,0:0:0:0:
182,192,15287,1,8,0:0:0:0:
109,192,15381,1,8,0:0:0:0:
36,192,15381,1,0,0:0:0:0:
329,192,15381,1,0,0:0:0:0:
402,192,15475,1,8,0:0:0:0:
109,192,15568,1,8,0:0:0:0:
256,192,15568,1,0,0:0:0:0:
402,192,15662,1,8,0:0:0:0:
182,192,15756,1,8,0:0:0:0:
36,192,15756,1,0,0:0:0:0:
475,192,15756,1,0,0:0:0:0:
329,192,15850,1,8,0:0:0:0:
182,192,15943,1,8,0:0:0:0:
36,192,15943,1,0,0:0:0:0:
329,192,16037,1,8,0:0:0:0:
109,192,16131,1,0,0:0:0:0:
256,192,16131,1,8,0:0:0:0:
402,192,16225,1,8,0:0:0:0:
182,192,16318,1,0,0:0:0:0:
329,192,16318,1,8,0:0:0:0:
402,192,16412,1,0,0:0:0:0:
475,192,16506,1,0,0:0:0:0:
36,192,16506,1,8,0:0:0:0:
256,192,16694,1,0,0:0:0:0:
329,192,16694,1,8,0:0:0:0:
36,192,16881,1,0,0:0:0:0:
182,192,16881,1,0,0:0:0:0:
475,192,16881,1,4,0:0:0:0:
402,192,17069,1,8,0:0:0:0:
109,192,17069,1,0,0:0:0:0:
182,192,17069,1,0,0:0:0:0:
329,192,17162,1,8,0:0:0:0:
36,192,17256,1,0,0:0:0:0:
256,192,17256,1,8,0:0:0:0:
182,192,17350,1,8,0:0:0:0:
109,192,17444,1,0,0:0:0:0:
329,192,17444,1,8,0:0:0:0:
256,192,17537,1,8,0:0:0:0:
36,192,17631,1,0,0:0:0:0:
329,192,17631,1,8,0:0:0:0:
475,192,17631,1,0,0:0:0:0:
402,192,17725,1,8,0:0:0:0:
329,192,17819,1,8,0:0:0:0:
109,192,17819,1,0,0:0:0:0:
256,192,17912,1,8,0:0:0:0:
36,192,18006,1,0,0:0:0:0:
182,192,18006,1,8,0:0:0:0:
109,192,18100,1,8,0:0:0:0:
182,192,18194,1,8,0:0:0:0:
402,192,18194,1,0,0:0:0:0:
256,192,18287,1,8,0:0:0:0:
36,192,18381,1,0,0:0:0:0:
329,192,18381,1,8,0:0:0:0:
329,192,18569,1,8,0:0:0:0:
475,192,18569,1,0,0:0:0:0:
36,192,18756,1,0,0:0:0:0:
329,192,18756,1,8,0:0:0:0:
256,192,18850,1,8,0:0:0:0:
109,192,18850,1,0,0:0:0:0:
329,192,18944,1,8,0:0:0:0:
475,192,18944,1,0,0:0:0:0:
402,192,19131,1,0,0:0:0:0:
256,192,19131,1,8,0:0:0:0:
109,192,19506,1,0,0:0:0:0:
256,192,19506,1,4,0:0:0:0:
402,192,19694,1,0,0:0:0:0:
36,192,19881,1,0,0:0:0:0:
182,192,19881,1,8,0:0:0:0:
475,192,19881,1,0,0:0:0:0:
256,192,20069,1,8,0:0:0:0:
109,192,20069,1,0,0:0:0:0:
402,192,20069,1,0,0:0:0:0:
36,192,20256,1,0,0:0:0:0:
182,192,20256,1,8,0:0:0:0:
329,192,20256,1,0,0:0:0:0:
329,192,20444,1,0,0:0:0:0:
475,192,20444,1,0,0:0:0:0:
256,192,20444,1,8,0:0:0:0:
36,192,20631,1,0,0:0:0:0:
402,192,20631,1,0,0:0:0:0:
182,192,20631,1,8,0:0:0:0:
256,192,20819,1,8,0:0:0:0:
109,192,20819,1,0,0:0:0:0:
475,192,20819,1,0,0:0:0:0:
36,192,21006,1,0,0:0:0:0:
402,192,21006,1,0,0:0:0:0:
329,192,21006,1,8,0:0:0:0:
475,192,21194,1,0,0:0:0:0:
256,192,21194,1,8,0:0:0:0:
182,192,21194,1,0,0:0:0:0:
36,192,21381,1,0,0:0:0:0:
182,192,21381,1,8,0:0:0:0:
402,192,21381,1,0,0:0:0:0:
256,192,21475,1,8,0:0:0:0:
329,192,21569,1,8,0:0:0:0:
109,192,21569,1,0,0:0:0:0:
402,192,21662,1,8,0:0:0:0:
36,192,21756,1,0,0:0:0:0:
182,192,21756,1,0,0:0:0:0:
329,192,21756,1,8,0:0:0:0:
256,192,21850,1,8,0:0:0:0:
329,192,21944,1,8,0:0:0:0:
475,192,21944,1,0,0:0:0:0:
36,192,22131,1,0,0:0:0:0:
402,192,22131,1,0,0:0:0:0:
256,192,22131,1,8,0:0:0:0:
256,192,22319,1,8,0:0:0:0:
109,192,22319,1,0,0:0:0:0:
329,192,22319,1,0,0:0:0:0:
36,192,22506,1,0,0:0:0:0:
329,192,22506,1,8,0:0:0:0:
475,192,22506,1,0,0:0:0:0:
182,192,22694,1,8,0:0:0:0:
402,192,22694,1,0,0:0:0:0:
109,192,22694,1,0,0:0:0:0:
36,192,22881,1,0,0:0:0:0:
256,192,22881,1,8,0:0:0:0:
475,192,22881,1,0,0:0:0:0:
182,192,23162,1,8,0:0:0:0:
329,192,23162,1,0,0:0:0:0:
256,192,23444,1,8,0:0:0:0:
402,192,23444,1,0,0:0:0:0:
475,192,23444,1,0,0:0:0:0:
329,192,23537,1,0,0:0:0:0:
182,192,23537,1,8,0:0:0:0:
109,192,23631,1,8,0:0:0:0:
256,192,23631,1,0,0:0:0:0:
36,192,23631,1,0,0:0:0:0:
475,192,23819,1,0,0:0:0:0:
329,192,23819,1,8,0:0:0:0:
182,192,23819,1,0,0:0:0:0:
36,192,24006,1,0,0:0:0:0:
256,192,24006,1,8,0:0:0:0:
402,192,24006,1,0,0:0:0:0:
329,192,24194,1,0,0:0:0:0:
182,192,24194,1,8,0:0:0:0:
109,192,24194,1,0,0:0:0:0:
36,192,24381,1,0,0:0:0:0:
182,192,24381,1,8,0:0:0:0:
329,192,24381,1,0,0:0:0:0:
182,192,24569,1,8,0:0:0:0:
36,192,24569,1,0,0:0:0:0:
329,192,24569,1,0,0:0:0:0:
182,192,24756,1,0,0:0:0:0:
329,192,24756,1,8,0:0:0:0:
475,192,24756,1,0,0:0:0:0:
402,192,25131,1,0,0:0:0:0:
256,192,25131,1,8,0:0:0:0:
109,192,25131,1,0,0:0:0:0:
329,192,25506,1,4,0:0:0:0:
475,192,25506,1,0,0:0:0:0:
36,192,25506,1,0,0:0:0:0:
182,192,25881,1,4,0:0:0:0:
36,192,25881,1,0,0:0:0:0:
329,192,25881,1,0,0:0:0:0:
402,192,26163,1,4,0:0:0:0:
256,192,26163,1,0,0:0:0:0:
329,192,26444,1,4,0:0:0:0:
182,192,26444,1,0,0:0:0:0:
36,192,26631,1,4,0:0:0:0:
402,192,26631,1,0,0:0:0:0:
256,192,26631,1,0,0:0:0:0:
109,192,26725,1,0,0:0:0:0:
182,192,26819,1,0,0:0:0:0:
329,192,26819,1,0,0:0:0:0:
402,192,27006,1,0,0:0:0:0:
475,192,27006,1,0,0:0:0:0:
256,192,27194,1,0,0:0:0:0:
109,192,27194,1,0,0:0:0:0:
329,192,27381,1,0,0:0:0:0:
182,192,27381,1,0,0:0:0:0:
36,192,27381,1,8,0:0:0:0:
182,192,27568,1,8,0:0:0:0:
329,192,27568,1,0,0:0:0:0:
475,192,27568,1,0,0:0:0:0:
402,192,27756,1,0,0:0:0:0:
256,192,27756,1,8,0:0:0:0:
36,192,27756,1,0,0:0:0:0:
182,192,27849,1,8,0:0:0:0:
329,192,27943,1,0,0:0:0:0:
256,192,27943,1,8,0:0:0:0:
36,192,28131,1,0,0:0:0:0:
182,192,28131,1,8,0:0:0:0:
329,192,28131,1,0,0:0:0:0:
475,192,28318,1,0,0:0:0:0:
329,192,28318,1,0,0:0:0:0:
182,192,28318,1,8,0:0:0:0:
36,192,28506,1,0,0:0:0:0:
256,192,28506,1,8,0:0:0:0:
402,192,28506,1,0,0:0:0:0:
182,192,28599,1,8,0:0:0:0:
329,192,28693,1,0,0:0:0:0:
256,192,28694,1,8,0:0:0:0:
329,192,28881,1,0,0:0:0:0:
182,192,28881,1,8,0:0:0:0:
36,192,28881,1,0,0:0:0:0:
182,192,29068,1,8,0:0:0:0:
329,192,29068,1,0,0:0:0:0:
475,192,29068,1,0,0:0:0:0:
402,192,29256,1,0,0:0:0:0:
256,192,29256,1,8,0:0:0:0:
36,192,29256,1,0,0:0:0:0:
182,192,29349,1,8,0:0:0:0:
329,192,29443,1,0,0:0:0:0:
256,192,29443,1,8,0:0:0:0:
329,192,29631,1,0,0:0:0:0:
182,192,29631,1,8,0:0:0:0:
36,192,29631,1,0,0:0:0:0:
182,192,29818,1,0,0:0:0:0:
475,192,29818,1,0,0:0:0:0:
329,192,29818,1,8,0:0:0:0:
402,192,30006,1,8,0:0:0:0:
256,192,30006,1,0,0:0:0:0:
36,192,30006,1,0,0:0:0:0:
182,192,30099,1,0,0:0:0:0:
329,192,30100,1,8,0:0:0:0:
256,192,30193,1,8,0:0:0:0:
109,192,30193,1,0,0:0:0:0:
182,192,30287,1,0,0:0:0:0:
329,192,30287,1,8,0:0:0:0:
36,192,30381,1,0,0:0:0:0:
256,192,30381,1,8,0:0:0:0:
475,192,30381,1,0,0:0:0:0:
402,192,30569,1,0,0:0:0:0:
329,192,30569,1,2,0:0:0:0:
182,192,30569,1,0,0:0:0:0:
109,192,30756,1,0,0:0:0:0:
256,192,30756,1,2,0:0:0:0:
182,192,30944,1,2,0:0:0:0:
36,192,30944,1,0,0:0:0:0:
329,192,30944,1,0,0:0:0:0:
402,192,31319,1,2,0:0:0:0:
256,192,31319,1,0,0:0:0:0:
109,192,31319,1,0,0:0:0:0:
256,192,31506,1,0,0:0:0:0:
402,192,31506,1,2,0:0:0:0:
329,192,31694,1,2,0:0:0:0:
182,192,31694,1,0,0:0:0:0:
475,192,31694,1,0,0:0:0:0:
36,192,31881,1,0,0:0:0:0:
475,192,31975,1,0,0:0:0:0:
182,192,32069,1,0,0:0:0:0:
329,192,32163,1,0,0:0:0:0:
109,192,32256,1,0,0:0:0:0:
402,192,32350,1,0,0:0:0:0:
256,192,32444,1,0,0:0:0:0:
182,192,32538,1,0,0:0:0:0:
329,192,32632,1,0,0:0:0:0:
36,192,32819,1,0,0:0:0:0:
402,192,33007,1,4,0:0:0:0:
475,192,33007,1,0,0:0:0:0:
182,192,33382,1,0,0:0:0:0:
36,192,33382,1,0,0:0:0:0:
182,192,33757,1,0,0:0:0:0:
36,192,33757,1,0,0:0:0:0:
475,192,34132,1,0,0:0:0:0:
182,192,34507,1,0,0:0:0:0:
329,192,34507,1,0,0:0:0:0:
36,192,34882,1,0,0:0:0:0:
182,192,35069,1,0,0:0:0:0:
256,192,35257,1,0,0:0:0:0:
329,192,35444,1,0,0:0:0:0:
475,192,35632,1,0,0:0:0:0:
402,192,35819,1,0,0:0:0:0:
329,192,36007,1,0,0:0:0:0:
475,192,36194,1,0,0:0:0:0:
182,192,36382,1,0,0:0:0:0:
36,192,36382,1,0,0:0:0:0:
36,192,36757,1,0,0:0:0:0:
182,192,36757,1,0,0:0:0:0:
475,192,37132,1,0,0:0:0:0:
256,192,37319,1,0,0:0:0:0:
182,192,37507,1,0,0:0:0:0:
329,192,37507,1,0,0:0:0:0:
109,192,37882,1,0,0:0:0:0:
182,192,38069,1,0,0:0:0:0:
256,192,38257,1,0,0:0:0:0:
329,192,38444,1,0,0:0:0:0:
475,192,38632,1,0,0:0:0:0:
182,192,39007,1,0,0:0:0:0:
329,192,39007,1,4,0:0:0:0:
36,192,39382,1,0,0:0:0:0:
402,192,39382,1,0,0:0:0:0:
256,192,39382,1,8,0:0:0:0:
329,192,39475,1,0,0:0:0:0:
182,192,39475,1,8,0:0:0:0:
182,192,39663,1,8,0:0:0:0:
329,192,39663,1,0,0:0:0:0:
36,192,39757,1,0,0:0:0:0:
256,192,39757,1,8,0:0:0:0:
402,192,39757,1,0,0:0:0:0:
475,192,39944,1,0,0:0:0:0:
109,192,39944,1,0,0:0:0:0:
256,192,39944,1,8,0:0:0:0:
402,192,40038,1,8,0:0:0:0:
36,192,40132,1,0,0:0:0:0:
329,192,40132,1,8,0:0:0:0:
182,192,40132,1,0,0:0:0:0:
256,192,40225,1,8,0:0:0:0:
329,192,40319,1,8,0:0:0:0:
475,192,40319,1,0,0:0:0:0:
36,192,40507,1,0,0:0:0:0:
402,192,40507,1,8,0:0:0:0:
182,192,40507,1,0,0:0:0:0:
36,192,40882,1,0,0:0:0:0:
402,192,40882,1,0,0:0:0:0:
256,192,40882,1,8,0:0:0:0:
329,192,40975,1,0,0:0:0:0:
182,192,40976,1,8,0:0:0:0:
182,192,41163,1,8,0:0:0:0:
329,192,41163,1,0,0:0:0:0:
36,192,41257,1,0,0:0:0:0:
256,192,41257,1,8,0:0:0:0:
402,192,41257,1,0,0:0:0:0:
475,192,41444,1,0,0:0:0:0:
109,192,41444,1,0,0:0:0:0:
256,192,41444,1,8,0:0:0:0:
402,192,41538,1,8,0:0:0:0:
36,192,41632,1,0,0:0:0:0:
109,192,41679,1,0,0:0:0:0:
182,192,41726,1,0,0:0:0:0:
256,192,41772,1,0,0:0:0:0:
475,192,41819,1,0,0:0:0:0:
402,192,41866,1,0,0:0:0:0:
329,192,41913,1,0,0:0:0:0:
256,192,41960,1,0,0:0:0:0:
36,192,42007,1,0,0:0:0:0:
109,192,42054,1,0,0:0:0:0:
182,192,42101,1,0,0:0:0:0:
256,192,42147,1,0,0:0:0:0:
329,192,42194,1,0,0:0:0:0:
36,192,42382,1,0,0:0:0:0:
402,192,42382,1,0,0:0:0:0:
256,192,42382,1,8,0:0:0:0:
182,192,42475,1,8,0:0:0:0:
329,192,42475,1,0,0:0:0:0:
329,192,42663,1,8,0:0:0:0:
182,192,42663,1,0,0:0:0:0:
256,192,42757,1,0,0:0:0:0:
402,192,42757,1,8,0:0:0:0:
36,192,42757,1,0,0:0:0:0:
256,192,42944,1,8,0:0:0:0:
109,192,42944,1,0,0:0:0:0:
475,192,42944,1,0,0:0:0:0:
402,192,43038,1,8,0:0:0:0:
36,192,43132,1,0,0:0:0:0:
329,192,43132,1,8,0:0:0:0:
182,192,43132,1,0,0:0:0:0:
256,192,43225,1,8,0:0:0:0:
329,192,43319,1,8,0:0:0:0:
475,192,43319,1,0,0:0:0:0:
475,192,43507,1,0,0:0:0:0:
182,192,43507,1,8,0:0:0:0:
36,192,43507,1,0,0:0:0:0:
256,192,43882,1,8,0:0:0:0:
402,192,43882,1,0,0:0:0:0:
36,192,43882,1,0,0:0:0:0:
329,192,43975,1,0,0:0:0:0:
182,192,43975,1,8,0:0:0:0:
182,192,44163,1,8,0:0:0:0:
329,192,44163,1,0,0:0:0:0:
36,192,44257,1,0,0:0:0:0:
402,192,44257,1,0,0:0:0:0:
256,192,44257,1,8,0:0:0:0:
475,192,44444,1,0,0:0:0:0:
109,192,44444,1,0,0:0:0:0:
256,192,44444,1,8,0:0:0:0:
402,192,44538,1,8,0:0:0:0:
182,192,44632,1,0,0:0:0:0:
329,192,44632,1,8,0:0:0:0:
36,192,44632,1,0,0:0:0:0:
256,192,44725,1,8,0:0:0:0:
475,192,44819,1,0,0:0:0:0:
329,192,44819,1,8,0:0:0:0:
36,192,45007,1,0,0:0:0:0:
182,192,45007,1,4,0:0:0:0:
475,192,45007,1,0,0:0:0:0:
36,192,45382,1,0,0:0:0:0:
256,192,45382,1,4,0:0:0:0:
182,192,45382,1,0,0:0:0:0:
475,192,45663,1,0,0:0:0:0:
329,192,45663,1,4,0:0:0:0:
182,192,45663,1,0,0:0:0:0:
329,192,45944,1,4,0:0:0:0:
182,192,45944,1,0,0:0:0:0:
36,192,45944,1,0,0:0:0:0:
475,192,46132,1,4,0:0:0:0:
256,192,46132,1,0,0:0:0:0:
109,192,46132,1,0,0:0:0:0:
182,192,46226,1,0,0:0:0:0:
256,192,46319,1,0,0:0:0:0:
402,192,46319,1,0,0:0:0:0:
475,192,46507,1,0,0:0:0:0:
329,192,46507,1,0,0:0:0:0:
256,192,46694,1,0,0:0:0:0:
109,192,46694,1,0,0:0:0:0:
36,192,46882,1,0,0:0:0:0:
475,192,46882,1,0,0:0:0:0:
182,192,46882,1,8,0:0:0:0:
402,192,47069,1,0,0:0:0:0:
256,192,47069,1,8,0:0:0:0:
329,192,47163,1,8,0:0:0:0:
36,192,47257,1,0,0:0:0:0:
256,192,47257,1,8,0:0:0:0:
182,192,47257,1,0,0:0:0:0:
182,192,47444,1,0,0:0:0:0:
329,192,47444,1,0,0:0:0:0:
256,192,47538,1,0,0:0:0:0:
36,192,47632,1,0,0:0:0:0:
329,192,47632,1,8,0:0:0:0:
402,192,47632,1,0,0:0:0:0:
475,192,47819,1,8,0:0:0:0:
182,192,47819,1,0,0:0:0:0:
402,192,47913,1,8,0:0:0:0:
36,192,48007,1,0,0:0:0:0:
329,192,48007,1,8,0:0:0:0:
256,192,48007,1,0,0:0:0:0:
109,192,48194,1,8,0:0:0:0:
402,192,48194,1,0,0:0:0:0:
182,192,48288,1,8,0:0:0:0:
36,192,48382,1,0,0:0:0:0:
256,192,48382,1,8,0:0:0:0:
329,192,48382,1,0,0:0:0:0:
402,192,48570,1,8,0:0:0:0:
256,192,48570,1,0,0:0:0:0:
329,192,48663,1,8,0:0:0:0:
36,192,48757,1,0,0:0:0:0:
256,192,48757,1,8,0:0:0:0:
182,192,48757,1,0,0:0:0:0:
182,192,48945,1,8,0:0:0:0:
329,192,48945,1,0,0:0:0:0:
256,192,49038,1,8,0:0:0:0:
36,192,49132,1,0,0:0:0:0:
329,192,49132,1,8,0:0:0:0:
402,192,49132,1,0,0:0:0:0:
475,192,49320,1,8,0:0:0:0:
182,192,49320,1,0,0:0:0:0:
402,192,49413,1,8,0:0:0:0:
36,192,49507,1,0,0:0:0:0:
329,192,49507,1,8,0:0:0:0:
256,192,49507,1,0,0:0:0:0:
109,192,49695,1,8,0:0:0:0:
402,192,49695,1,0,0:0:0:0:
182,192,49788,1,8,0:0:0:0:
36,192,49882,1,0,0:0:0:0:
256,192,49882,1,8,0:0:0:0:
329,192,49882,1,0,0:0:0:0:
402,192,50070,1,8,0:0:0:0:
182,192,50070,1,0,0:0:0:0:
329,192,50163,1,8,0:0:0:0:
36,192,50257,1,0,0:0:0:0:
256,192,50257,1,8,0:0:0:0:
182,192,50257,1,0,0:0:0:0:
182,192,50445,1,8,0:0:0:0:
402,192,50445,1,0,0:0:0:0:
256,192,50538,1,8,0:0:0:0:
36,192,50632,1,0,0:0:0:0:
329,192,50632,1,8,0:0:0:0:
402,192,50632,1,0,0:0:0:0:
256,192,50820,1,8,0:0:0:0:
182,192,50820,1,0,0:0:0:0:
402,192,50913,1,8,0:0:0:0:
36,192,51007,1,0,0:0:0:0:
329,192,51007,1,8,0:0:0:0:
475,192,51007,1,0,0:0:0:0:
109,192,51195,1,8,0:0:0:0:
402,192,51195,1,0,0:0:0:0:
182,192,51288,1,8,0:0:0:0:
36,192,51382,1,0,0:0:0:0:
256,192,51382,1,8,0:0:0:0:
329,192,51382,1,0,0:0:0:0:
182,192,51570,1,0,0:0:0:0:
475,192,51570,1,8,0:0:0:0:
329,192,51663,1,8,0:0:0:0:
36,192,51757,1,0,0:0:0:0:
256,192,51757,1,8,0:0:0:0:
402,192,51757,1,0,0:0:0:0:
182,192,51945,1,8,0:0:0:0:
109,192,51945,1,0,0:0:0:0:
256,192,52038,1,8,0:0:0:0:
36,192,52132,1,0,0:0:0:0:
329,192,52132,1,8,0:0:0:0:
475,192,52132,1,0,0:0:0:0:
475,192,52320,1,8,0:0:0:0:
182,192,52320,1,0,0:0:0:0:
402,192,52413,1,8,0:0:0:0:
36,192,52507,1,0,0:0:0:0:
329,192,52507,1,8,0:0:0:0:
256,192,52507,1,0,0:0:0:0:
109,192,52695,1,8,0:0:0:0:
402,192,52695,1,0,0:0:0:0:
182,192,52788,1,8,0:0:0:0:
36,192,52882,1,2,0:0:0:0:
256,192,52882,1,4,0:0:0:0:
475,192,52882,1,0,0:0:0:0:
182,192,53070,1,0,0:0:0:0:
36,192,53070,1,2,0:0:0:0:
182,192,53257,1,0,0:0:0:0:
36,192,53257,1,2,0:0:0:0:
329,192,53257,1,0,0:0:0:0:
36,192,53445,1,2,0:0:0:0:
182,192,53445,1,0,0:0:0:0:
182,192,53632,1,0,0:0:0:0:
36,192,53632,1,2,0:0:0:0:
475,192,53632,1,0,0:0:0:0:
182,192,53820,1,0,0:0:0:0:
36,192,53820,1,2,0:0:0:0:
182,192,54007,1,0,0:0:0:0:
36,192,54007,1,2,0:0:0:0:
402,192,54007,1,0,0:0:0:0:
182,192,54195,1,0,0:0:0:0:
36,192,54195,1,2,0:0:0:0:
475,192,54382,1,2,0:0:0:0:
329,192,54382,1,0,0:0:0:0:
109,192,54382,1,0,0:0:0:0:
329,192,54570,1,0,0:0:0:0:
475,192,54570,1,2,0:0:0:0:
329,192,54757,1,0,0:0:0:0:
475,192,54757,1,2,0:0:0:0:
182,192,54757,1,0,0:0:0:0:
329,192,54945,1,0,0:0:0:0:
475,192,54945,1,2,0:0:0:0:
109,192,54945,1,0,0:0:0:0:
329,192,55132,1,0,0:0:0:0:
475,192,55132,1,2,0:0:0:0:
36,192,55132,1,0,0:0:0:0:
329,192,55320,1,0,0:0:0:0:
475,192,55320,1,2,0:0:0:0:
329,192,55507,1,0,0:0:0:0:
475,192,55507,1,2,0:0:0:0:
182,192,55507,1,0,0:0:0:0:
329,192,55695,1,0,0:0:0:0:
475,192,55695,1,2,0:0:0:0:
402,192,55882,1,0,0:0:0:0:
36,192,55882,1,0,0:0:0:0:
182,192,55882,1,8,0:0:0:0:
329,192,55976,1,0,0:0:0:0:
256,192,56070,1,0,0:0:0:0:
182,192,56163,1,0,0:0:0:0:
329,192,56257,1,0,0:0:0:0:
256,192,56351,1,0,0:0:0:0:
182,192,56445,1,0,0:0:0:0:
109,192,56539,1,0,0:0:0:0:
36,192,56632,1,8,0:0:0:0:
475,192,56632,1,0,0:0:0:0:
329,192,56632,1,0,0:0:0:0:
109,192,56726,1,0,0:0:0:0:
182,192,56820,1,0,0:0:0:0:
256,192,56914,1,0,0:0:0:0:
329,192,57007,1,0,0:0:0:0:
182,192,57101,1,0,0:0:0:0:
256,192,57195,1,0,0:0:0:0:
329,192,57289,1,0,0:0:0:0:
402,192,57382,1,0,0:0:0:0:
36,192,57382,1,8,0:0:0:0:
182,192,57382,1,0,0:0:0:0:
329,192,57476,1,0,0:0:0:0:
256,192,57570,1,0,0:0:0:0:
182,192,57664,1,0,0:0:0:0:
109,192,57757,1,0,0:0:0:0:
256,192,57851,1,0,0:0:0:0:
329,192,57945,1,0,0:0:0:0:
402,192,58039,1,0,0:0:0:0:
329,192,58132,1,0,0:0:0:0:
475,192,58132,1,0,0:0:0:0:
36,192,58132,1,0,0:0:0:0:
182,192,58132,1,4,0:0:0:0:
475,192,58882,1,0,0:0:0:0:
36,192,58882,1,0,0:0:0:0:
182,192,58882,1,4,0:0:0:0:
402,192,58976,1,0,0:0:0:0:
329,192,59070,1,0,0:0:0:0:
109,192,59070,1,0,0:0:0:0:
182,192,59164,1,4,0:0:0:0:
256,192,59257,1,0,0:0:0:0:
36,192,59257,1,0,0:0:0:0:
475,192,59257,1,0,0:0:0:0:
329,192,59351,1,0,0:0:0:0:
182,192,59445,1,4,0:0:0:0:
402,192,59445,1,0,0:0:0:0:
109,192,59539,1,0,0:0:0:0:
36,192,59632,1,0,0:0:0:0:
329,192,59632,1,0,0:0:0:0:
475,192,59632,1,0,0:0:0:0:
182,192,59726,1,4,0:0:0:0:
256,192,59820,1,0,0:0:0:0:
109,192,59820,1,0,0:0:0:0:
329,192,59914,1,0,0:0:0:0:
475,192,60007,1,0,0:0:0:0:
36,192,60007,1,0,0:0:0:0:
256,192,60007,1,4,0:0:0:0:
402,192,60101,1,0,0:0:0:0:
329,192,60195,1,0,0:0:0:0:
109,192,60195,1,0,0:0:0:0:
182,192,60289,1,4,0:0:0:0:
256,192,60382,1,0,0:0:0:0:
36,192,60382,1,0,0:0:0:0:
402,192,60382,1,0,0:0:0:0:
329,192,60476,1,0,0:0:0:0:
182,192,60570,1,4,0:0:0:0:
402,192,60570,1,0,0:0:0:0:
109,192,60664,1,0,0:0:0:0:
36,192,60757,1,0,0:0:0:0:
475,192,60757,1,0,0:0:0:0:
329,192,60757,1,0,0:0:0:0:
182,192,60851,1,4,0:0:0:0:
256,192,60945,1,0,0:0:0:0:
402,192,60945,1,0,0:0:0:0:
329,192,61039,1,0,0:0:0:0:
475,192,61132,1,0,0:0:0:0:
36,192,61132,1,0,0:0:0:0:
182,192,61132,1,4,0:0:0:0:
402,192,61414,1,0,0:0:0:0:
256,192,61414,1,4,0:0:0:0:
109,192,61414,1,0,0:0:0:0:
475,192,61695,1,0,0:0:0:0:
329,192,61695,1,4,0:0:0:0:
182,192,61695,1,0,0:0:0:0:
329,192,62070,1,0,0:0:0:0:
256,192,62070,1,8,0:0:0:0:
109,192,62070,1,0,0:0:0:0:
182,192,62257,1,8,0:0:0:0:
36,192,62257,1,0,0:0:0:0:
402,192,62257,1,0,0:0:0:0:
475,192,62445,1,0,0:0:0:0:
182,192,62445,1,8,0:0:0:0:
329,192,62445,1,0,0:0:0:0:
402,192,62632,1,0,0:0:0:0:
256,192,62632,1,8,0:0:0:0:
109,192,62632,1,0,0:0:0:0:
475,192,62914,1,0,0:0:0:0:
256,192,62914,1,8,0:0:0:0:
329,192,62914,1,0,0:0:0:0:
36,192,63195,1,0,0:0:0:0:
182,192,63195,1,0,0:0:0:0:
329,192,63195,1,8,0:0:0:0:
475,192,63382,1,0,0:0:0:0:
329,192,63382,1,8,0:0:0:0:
182,192,63570,1,8,0:0:0:0:
402,192,63757,1,0,0:0:0:0:
256,192,63757,1,8,0:0:0:0:
109,192,63945,1,8,0:0:0:0:
329,192,64132,1,0,0:0:0:0:
182,192,64132,1,8,0:0:0:0:
36,192,64320,1,0,0:0:0:0:
182,192,64320,1,0,0:0:0:0:
256,192,64320,1,8,0:0:0:0:
402,192,64508,1,0,0:0:0:0:
256,192,64508,1,8,0:0:0:0:
475,192,64508,1,0,0:0:0:0:
182,192,64601,1,8,0:0:0:0:
329,192,64695,1,0,0:0:0:0:
256,192,64695,1,8,0:0:0:0:
475,192,64883,1,0,0:0:0:0:
36,192,64883,1,0,0:0:0:0:
182,192,64883,1,4,0:0:0:0:
402,192,64977,1,0,0:0:0:0:
329,192,65071,1,0,0:0:0:0:
109,192,65071,1,0,0:0:0:0:
182,192,65165,1,4,0:0:0:0:
256,192,65258,1,0,0:0:0:0:
475,192,65258,1,0,0:0:0:0:
36,192,65258,1,0,0:0:0:0:
329,192,65352,1,0,0:0:0:0:
182,192,65446,1,4,0:0:0:0:
402,192,65446,1,0,0:0:0:0:
109,192,65540,1,0,0:0:0:0:
475,192,65633,1,0,0:0:0:0:
36,192,65633,1,0,0:0:0:0:
329,192,65633,1,0,0:0:0:0:
182,192,65727,1,4,0:0:0:0:
256,192,65821,1,0,0:0:0:0:
109,192,65821,1,0,0:0:0:0:
329,192,65915,1,0,0:0:0:0:
475,192,66008,1,0,0:0:0:0:
36,192,66008,1,0,0:0:0:0:
256,192,66008,1,4,0:0:0:0:
402,192,66102,1,0,0:0:0:0:
109,192,66196,1,0,0:0:0:0:
329,192,66196,1,0,0:0:0:0:
182,192,66290,1,4,0:0:0:0:
36,192,66383,1,0,0:0:0:0:
402,192,66383,1,0,0:0:0:0:
256,192,66383,1,0,0:0:0:0:
329,192,66477,1,0,0:0:0:0:
182,192,66571,1,4,0:0:0:0:
402,192,66571,1,0,0:0:0:0:
109,192,66665,1,0,0:0:0:0:
36,192,66758,1,0,0:0:0:0:
329,192,66758,1,0,0:0:0:0:
475,192,66758,1,0,0:0:0:0:
182,192,66852,1,4,0:0:0:0:
402,192,66946,1,0,0:0:0:0:
256,192,66946,1,0,0:0:0:0:
329,192,67040,1,0,0:0:0:0:
475,192,67133,1,0,0:0:0:0:
182,192,67133,1,4,0:0:0:0:
36,192,67133,1,0,0:0:0:0:
402,192,67415,1,0,0:0:0:0:
109,192,67415,1,0,0:0:0:0:
256,192,67415,1,4,0:0:0:0:
182,192,67695,1,0,0:0:0:0:
329,192,67695,1,4,0:0:0:0:
475,192,67695,1,0,0:0:0:0:
36,192,68070,1,0,0:0:0:0:
256,192,68070,1,8,0:0:0:0:
109,192,68070,1,0,0:0:0:0:
475,192,68258,1,0,0:0:0:0:
329,192,68258,1,8,0:0:0:0:
182,192,68258,1,0,0:0:0:0:
109,192,68445,1,0,0:0:0:0:
256,192,68445,1,8,0:0:0:0:
402,192,68445,1,0,0:0:0:0:
36,192,68633,1,0,0:0:0:0:
182,192,68633,1,8,0:0:0:0:
329,192,68633,1,0,0:0:0:0:
109,192,68914,1,0,0:0:0:0:
256,192,68914,1,8,0:0:0:0:
402,192,68914,1,0,0:0:0:0:
475,192,69195,1,0,0:0:0:0:
329,192,69195,1,8,0:0:0:0:
182,192,69195,1,0,0:0:0:0:
36,192,69383,1,0,0:0:0:0:
109,192,69383,1,0,0:0:0:0:
256,192,69383,1,8,0:0:0:0:
475,192,69570,1,0,0:0:0:0:
329,192,69570,1,8,0:0:0:0:
182,192,69570,1,0,0:0:0:0:
402,192,69664,1,8,0:0:0:0:
329,192,69758,1,8,0:0:0:0:
182,192,69758,1,0,0:0:0:0:
109,192,70133,1,0,0:0:0:0:
256,192,70133,1,0,0:0:0:0:
329,192,70133,1,0,0:0:0:0:
475,192,70508,1,0,0:0:0:0:
256,192,70508,1,0,0:0:0:0:
402,192,70508,1,0,0:0:0:0:
36,192,70883,1,0,0:0:0:0:
182,192,70883,1,4,0:0:0:0:
329,192,70883,1,0,0:0:0:0:
475,192,71258,1,0,0:0:0:0:
329,192,71258,1,0,0:0:0:0:
182,192,71258,1,0,0:0:0:0:
402,192,71445,1,0,0:0:0:0:
256,192,71445,1,0,0:0:0:0:
109,192,71445,1,0,0:0:0:0:
329,192,71539,1,0,0:0:0:0:
36,192,71633,1,0,0:0:0:0:
182,192,71633,1,4,0:0:0:0:
475,192,71633,1,0,0:0:0:0:
182,192,71914,1,4,0:0:0:0:
329,192,71914,1,0,0:0:0:0:
329,192,72195,1,0,0:0:0:0:
475,192,72195,1,0,0:0:0:0:
182,192,72195,1,4,0:0:0:0:
109,192,72289,1,0,0:0:0:0:
36,192,72383,1,0,0:0:0:0:
256,192,72383,1,4,0:0:0:0:
402,192,72383,1,0,0:0:0:0:
109,192,72570,1,0,0:0:0:0:
329,192,72570,1,0,0:0:0:0:
182,192,72570,1,0,0:0:0:0:
36,192,72664,1,0,0:0:0:0:
402,192,72758,1,0,0:0:0:0:
256,192,72758,1,0,0:0:0:0:
475,192,72945,1,0,0:0:0:0:
182,192,72945,1,0,0:0:0:0:
329,192,72945,1,0,0:0:0:0:
36,192,73133,1,0,0:0:0:0:
256,192,73133,1,4,0:0:0:0:
475,192,73133,1,0,0:0:0:0:
402,192,73320,1,0,0:0:0:0:
182,192,73320,1,0,0:0:0:0:
256,192,73320,1,0,0:0:0:0:
109,192,73414,1,0,0:0:0:0:
329,192,73508,1,0,0:0:0:0:
182,192,73508,1,0,0:0:0:0:
475,192,73695,1,0,0:0:0:0:
256,192,73695,1,0,0:0:0:0:
402,192,73695,1,0,0:0:0:0:
36,192,73883,1,0,0:0:0:0:
182,192,73883,1,8,0:0:0:0:
329,192,73883,1,0,0:0:0:0:
256,192,74070,1,8,0:0:0:0:
475,192,74070,1,0,0:0:0:0:
402,192,74070,1,0,0:0:0:0:
36,192,74258,1,0,0:0:0:0:
329,192,74258,1,8,0:0:0:0:
109,192,74258,1,0,0:0:0:0:
256,192,74445,1,8,0:0:0:0:
402,192,74445,1,0,0:0:0:0:
182,192,74445,1,0,0:0:0:0:
36,192,74633,1,0,0:0:0:0:
329,192,74633,1,8,0:0:0:0:
475,192,74633,1,0,0:0:0:0:
329,192,74914,1,0,0:0:0:0:
182,192,74914,1,8,0:0:0:0:
36,192,75008,1,0,0:0:0:0:
256,192,75008,1,8,0:0:0:0:
402,192,75008,1,0,0:0:0:0:
402,192,75195,1,8,0:0:0:0:
109,192,75195,1,0,0:0:0:0:
182,192,75195,1,0,0:0:0:0:
36,192,75383,1,0,0:0:0:0:
329,192,75383,1,8,0:0:0:0:
475,192,75383,1,0,0:0:0:0:
256,192,75570,1,8,0:0:0:0:
402,192,75570,1,0,0:0:0:0:
182,192,75664,1,8,0:0:0:0:
36,192,75758,1,0,0:0:0:0:
329,192,75758,1,8,0:0:0:0:
402,192,75758,1,0,0:0:0:0:
256,192,75945,1,8,0:0:0:0:
109,192,75945,1,0,0:0:0:0:
475,192,75945,1,0,0:0:0:0:
36,192,76133,1,0,0:0:0:0:
182,192,76133,1,0,0:0:0:0:
329,192,76133,1,8,0:0:0:0:
256,192,76320,1,8,0:0:0:0:
402,192,76320,1,0,0:0:0:0:
109,192,76320,1,0,0:0:0:0:
36,192,76508,1,0,0:0:0:0:
329,192,76508,1,8,0:0:0:0:
475,192,76508,1,0,0:0:0:0:
109,192,76602,1,0,0:0:0:0:
182,192,76695,1,0,0:0:0:0:
329,192,76695,1,0,0:0:0:0:
36,192,76883,1,0,0:0:0:0:
402,192,76883,1,0,0:0:0:0:
256,192,76883,1,0,0:0:0:0:
182,192,76977,1,0,0:0:0:0:
329,192,77070,1,0,0:0:0:0:
109,192,77070,1,0,0:0:0:0:
256,192,77164,1,0,0:0:0:0:
36,192,77258,1,0,0:0:0:0:
475,192,77258,1,0,0:0:0:0:
329,192,77258,1,4,0:0:0:0:
329,192,77445,1,0,0:0:0:0:
256,192,77445,1,0,0:0:0:0:
182,192,77539,1,0,0:0:0:0:
36,192,77633,1,0,0:0:0:0:
402,192,77633,1,0,0:0:0:0:
256,192,77633,1,8,0:0:0:0:
475,192,77820,1,0,0:0:0:0:
329,192,77820,1,8,0:0:0:0:
109,192,77820,1,0,0:0:0:0:
36,192,78008,1,0,0:0:0:0:
402,192,78008,1,8,0:0:0:0:
182,192,78008,1,0,0:0:0:0:
329,192,78195,1,8,0:0:0:0:
109,192,78195,1,0,0:0:0:0:
475,192,78195,1,0,0:0:0:0:
36,192,78383,1,0,0:0:0:0:
402,192,78383,1,0,0:0:0:0:
256,192,78383,1,8,0:0:0:0:
182,192,78570,1,0,0:0:0:0:
329,192,78570,1,8,0:0:0:0:
109,192,78570,1,0,0:0:0:0:
36,192,78758,1,0,0:0:0:0:
329,192,78758,1,8,0:0:0:0:
475,192,78758,1,0,0:0:0:0:
402,192,78945,1,0,0:0:0:0:
256,192,78945,1,8,0:0:0:0:
36,192,79133,1,0,0:0:0:0:
402,192,79133,1,8,0:0:0:0:
182,192,79133,1,0,0:0:0:0:
475,192,79414,1,0,0:0:0:0:
329,192,79414,1,8,0:0:0:0:
36,192,79508,1,0,0:0:0:0:
402,192,79508,1,0,0:0:0:0:
256,192,79508,1,8,0:0:0:0:
329,192,79695,1,8,0:0:0:0:
182,192,79695,1,0,0:0:0:0:
475,192,79695,1,0,0:0:0:0:
475,192,79883,1,0,0:0:0:0:
256,192,79883,1,8,0:0:0:0:
36,192,79883,1,0,0:0:0:0:
402,192,80070,1,0,0:0:0:0:
329,192,80070,1,8,0:0:0:0:
182,192,80070,1,0,0:0:0:0:
36,192,80258,1,0,0:0:0:0:
475,192,80258,1,0,0:0:0:0:
182,192,80258,1,8,0:0:0:0:
256,192,80446,1,8,0:0:0:0:
109,192,80446,1,0,0:0:0:0:
329,192,80446,1,0,0:0:0:0:
36,192,80633,1,0,0:0:0:0:
402,192,80633,1,8,0:0:0:0:
475,192,80633,1,0,0:0:0:0:
329,192,80821,1,8,0:0:0:0:
182,192,80821,1,0,0:0:0:0:
109,192,80821,1,0,0:0:0:0:
36,192,81008,1,0,0:0:0:0:
475,192,81008,1,0,0:0:0:0:
329,192,81008,1,8,0:0:0:0:
402,192,81196,1,0,0:0:0:0:
256,192,81196,1,8,0:0:0:0:
109,192,81196,1,0,0:0:0:0:
475,192,81383,1,0,0:0:0:0:
329,192,81383,1,4,0:0:0:0:
182,192,81383,1,0,0:0:0:0:
329,192,81758,1,0,0:0:0:0:
182,192,81758,1,4,0:0:0:0:
36,192,81758,1,0,0:0:0:0:
36,192,82133,128,0,82508:0:0:0:0:
182,192,82133,128,0,82508:0:0:0:0:
329,192,82133,128,4,82508:0:0:0:0:
475,192,82133,128,0,82508:0:0:0:0:
36,192,82883,1,0,0:0:0:0:
329,192,82883,1,8,0:0:0:0:
475,192,82883,1,0,0:0:0:0:
109,192,83071,1,0,0:0:0:0:
256,192,83071,1,0,0:0:0:0:
402,192,83071,1,8,0:0:0:0:
182,192,83258,1,0,0:0:0:0:
36,192,83258,1,0,0:0:0:0:
329,192,83258,1,8,0:0:0:0:
402,192,83352,1,8,0:0:0:0:
329,192,83446,1,8,0:0:0:0:
256,192,83446,1,0,0:0:0:0:
475,192,83633,1,8,0:0:0:0:
182,192,83633,1,0,0:0:0:0:
36,192,83633,1,0,0:0:0:0:
402,192,83821,1,8,0:0:0:0:
256,192,83821,1,0,0:0:0:0:
109,192,83821,1,0,0:0:0:0:
475,192,84008,1,0,0:0:0:0:
182,192,84008,1,0,0:0:0:0:
329,192,84008,1,8,0:0:0:0:
109,192,84102,1,8,0:0:0:0:
256,192,84196,1,0,0:0:0:0:
182,192,84196,1,8,0:0:0:0:
475,192,84383,1,0,0:0:0:0:
329,192,84383,1,8,0:0:0:0:
36,192,84383,1,0,0:0:0:0:
402,192,84571,1,8,0:0:0:0:
256,192,84571,1,0,0:0:0:0:
109,192,84571,1,0,0:0:0:0:
182,192,84758,1,0,0:0:0:0:
329,192,84758,1,8,0:0:0:0:
36,192,84758,1,0,0:0:0:0:
402,192,84852,1,8,0:0:0:0:
329,192,84946,1,8,0:0:0:0:
256,192,84946,1,0,0:0:0:0:
475,192,85133,1,0,0:0:0:0:
182,192,85133,1,8,0:0:0:0:
36,192,85133,1,0,0:0:0:0:
402,192,85321,1,0,0:0:0:0:
256,192,85321,1,8,0:0:0:0:
109,192,85321,1,0,0:0:0:0:
475,192,85508,1,0,0:0:0:0:
182,192,85508,1,8,0:0:0:0:
329,192,85508,1,0,0:0:0:0:
109,192,85602,1,8,0:0:0:0:
256,192,85696,1,0,0:0:0:0:
182,192,85696,1,8,0:0:0:0:
329,192,85789,1,8,0:0:0:0:
36,192,85883,1,0,0:0:0:0:
256,192,85883,1,2,0:0:0:0:
475,192,85883,1,0,0:0:0:0:
182,192,86071,1,0,0:0:0:0:
329,192,86071,1,2,0:0:0:0:
475,192,86071,1,0,0:0:0:0:
36,192,86258,1,2,0:0:0:0:
109,192,86446,1,2,0:0:0:0:
256,192,86446,1,0,0:0:0:0:
402,192,86446,1,0,0:0:0:0:
36,192,86821,1,0,0:0:0:0:
182,192,86821,1,0,0:0:0:0:
329,192,86821,1,2,0:0:0:0:
475,192,87008,1,2,0:0:0:0:
109,192,87196,1,0,0:0:0:0:
256,192,87196,1,0,0:0:0:0:
402,192,87196,1,2,0:0:0:0:
36,192,87383,1,0,0:0:0:0:
475,192,87477,1,0,0:0:0:0:
182,192,87571,1,0,0:0:0:0:
329,192,87665,1,0,0:0:0:0:
109,192,87758,1,0,0:0:0:0:
402,192,87852,1,0,0:0:0:0:
256,192,87946,1,0,0:0:0:0:
182,192,88040,1,0,0:0:0:0:
329,192,88134,1,0,0:0:0:0:
36,192,88321,1,0,0:0:0:0:
475,192,88508,1,4,0:0:0:0:
402,192,88509,1,0,0:0:0:0:
