osu file format v9

[General]
AudioFilename: nachu nachu.mp3
AudioLeadIn: 0
PreviewTime: 50159
Countdown: 1
SampleSet: Normal
StackLeniency: 0.5
Mode: 0
LetterboxInBreaks: 1

[Editor]
Bookmarks: 10265,20265,38936,49093
DistanceSpacing: 1
BeatDivisor: 4
GridSize: 4

[Metadata]
Title:nachu*nachu
Artist:Harada Hitomi
Creator:Thite
Version:nachu
Source:
Tags:gowww abba

[Difficulty]
HPDrainRate:6
CircleSize:5
OverallDifficulty:7
ApproachRate:8
SliderMultiplier:1.8
SliderTickRate:1

[Events]
//Background and Video events
0,0,"0056.jpg"
//Break Periods
2,70516,74566
//Storyboard Layer 0 (Background)
//Storyboard Layer 1 (Fail)
//Storyboard Layer 2 (Pass)
//Storyboard Layer 3 (Foreground)
//Storyboard Sound Samples
//Background Colour Transformations
3,100,163,162,255

[TimingPoints]
316,312.5,4,1,0,80,1,0
10316,-100,4,1,0,80,0,1
10343,-100,4,1,0,80,0,0
40316,-133.333333333333,4,1,0,80,0,0
45316,-100,4,1,0,80,0,0
50316,-100,4,1,0,80,0,1
69378,-100,4,1,0,29,0,1
69691,-100,4,1,0,70,0,1
70003,-100,4,1,0,80,0,1
70316,-100,4,1,0,80,0,0
79843,-100,4,2,0,80,0,0
80265,-100,4,1,0,80,0,0
90316,-133.333333333333,4,1,0,80,0,0
92191,-100,4,1,0,80,0,0
100265,-133.333333333333,4,1,0,80,0,0
104952,-100,4,1,0,80,0,0
110265,-100,4,1,0,80,0,1
130265,-100,4,1,0,80,0,0

[Colours]
Combo1 : 255,147,0
Combo2 : 70,255,0
Combo3 : 0,230,255

[HitObjects]
64,136,10316,1,0
232,64,10628,1,8
160,232,10941,2,0,B|160:136,2,90,0|0|8
160,232,11409,2,0,B|272:232|304:88,1,180
360,192,11878,1,8
488,72,12191,1,0
360,360,12503,5,8
304,288,12659,1,0
248,360,12816,1,0
88,272,13128,1,0
248,192,13441,1,0
88,104,13753,1,0
256,296,14066,6,0,B|336:208|448:232,1,180,0|2
256,88,14691,6,0,B|176:176|64:152,1,180,0|2
424,104,15316,5,0
264,192,15628,1,8
432,264,15941,2,0,B|360:192,1,90
368,200,16253,1,8
368,200,16409,2,0,B|368:320|240:312,1,180
258,312,16878,1,8
120,192,17191,1,0
256,72,17503,1,8
344,312,17816,6,0,B|352:200|496:200,1,180
168,72,18441,6,0,B|160:184|16:184,1,180
256,192,19066,5,0
256,200,19223,1,0
256,208,19379,1,0
256,216,19535,1,0
256,224,19691,1,0
256,104,20316,6,0,B|504:104,3,180,0|8|0|8
480,160,21409,2,0,B|296:160,1,180
344,216,21878,1,8
200,216,22191,1,0
88,304,22503,1,8
88,72,22816,6,0,B|8:136|40:208|144:256,1,180,0|8
136,168,23284,1,0
184,112,23441,2,0,B|248:32|320:64|368:168,1,180,0|8
264,136,23909,2,0,B|316:196|376:196|432:116,1,180,0|0
416,64,24378,1,8
416,208,24691,2,0,B|424:288|344:288|344:288|296:344,1,180,0|8
256,280,25159,5,0
256,280,25316,2,0,B|208:224|208:224|152:160|48:216,1,180,0|8
48,216,25784,2,0,B|0:160|0:160|24:104|88:112,1,180
136,56,26253,1,8
184,112,26409,1,0
184,112,26566,2,0,B|176:176|136:208|136:208|136:312,1,180,0|8
136,352,27034,2,0,B|200:320|256:184,1,180
280,152,27503,1,8
336,200,27659,6,0,B|376:240|376:304,2,90
280,152,28128,1,8
224,112,28284,2,0,B|176:72|112:112,1,90
80,136,28597,1,0
80,208,28753,2,0,B|80:312,1,90,8|0
136,352,29066,6,0,B|216:280|136:184,1,180,0|2
232,224,29534,1,0
320,192,29691,2,0,B|248:280|344:368,1,180,0|2
368,40,30316,6,0,B|368:136|520:184,1,180,0|8
480,168,30941,2,0,B|376:184|336:288,1,180,0|8
344,272,31409,2,0,B|328:176|216:136,1,180,0|0
232,144,31878,1,8
232,144,32191,1,0
184,200,32347,1,8
232,256,32503,1,0
184,312,32659,1,8
232,368,32816,6,0,B|336:368|336:368|400:312,1,180,0|8
448,272,33284,2,0,B|448:368,2,90
448,200,33753,1,8
448,128,33909,2,0,B|432:72|384:40|336:80|328:136,1,180
328,200,34378,1,8
328,56,34691,1,0
328,128,34847,1,8
184,328,35159,5,0
184,256,35316,2,0,B|176:136|64:104,1,180,0|8
80,184,35784,2,0,B|176:200|248:96,1,180
256,184,36253,1,8
304,128,36409,1,0
328,200,36566,2,0,B|376:320|520:240,3,180,0|8|0|8
256,192,37659,12,0,38753
256,80,39222,5,0
256,80,39300,1,0
256,80,39378,1,0
256,152,39534,1,0
256,152,39612,1,0
256,152,39691,1,0
256,224,39847,1,8
256,296,40003,1,0
256,368,40159,1,8
256,368,40316,6,0,B|320:280|424:256,1,202.49999396503,0|0
420,332,40941,1,0
420,184,41253,1,8
256,368,41566,6,0,B|192:280|88:256,1,202.49999396503
88,332,42191,1,0
92,184,42503,1,8
256,16,42816,6,0,B|320:104|424:128,1,202.49999396503
488,152,43441,2,0,B|488:248,1,67.4999979883433,0|0
488,288,43753,1,8
432,248,43909,1,0
376,288,44066,2,0,B|256:280|256:144,1,202.49999396503
256,88,44691,1,0
256,88,45003,5,2
24,328,45316,6,0,B|128:296|120:160,1,180,0|8
112,120,45784,1,0
64,168,45941,2,0,B|34:205|24:272,2,90,0|0|8
112,120,46409,1,0
176,80,46566,2,0,B|280:16|384:56,3,180,0|8|0|8
392,312,47816,5,0
120,312,48128,1,8
120,312,48284,1,8
256,80,48597,1,0
256,80,48753,1,8
256,80,48909,1,0
400,192,49222,6,0,B|304:192,3,90
128,192,50003,1,2
440,192,50316,5,4
88,192,50628,1,12
256,352,50941,1,0
304,272,51097,1,0
208,272,51253,1,8
256,192,51409,2,0,B|296:120|296:120|416:120,1,180
440,192,51878,1,12
88,192,52191,1,4
256,40,52503,5,8
256,128,52659,1,0
328,72,52816,2,0,B|392:8,1,90
304,168,53128,2,0,B|232:240,1,90,8|0
408,160,53441,2,0,B|480:88,2,90,0|0|8
344,224,53909,2,0,B|232:348|168:264,1,180
192,196,54378,1,2
192,376,54691,1,0
192,288,54847,1,0
192,288,55003,1,2
192,96,55316,6,0,B|256:48|256:48|360:48,1,180,0|8
472,184,55941,2,0,B|400:240,1,90
328,288,56253,1,8
248,336,56409,2,0,B|160:272|192:144,1,180
272,176,56878,1,8
216,248,57034,1,0
136,296,57191,1,0
136,56,57503,5,8
136,144,57659,1,0
136,56,57816,1,0
376,328,58128,5,8
376,240,58284,1,0
376,328,58441,1,0
136,192,58753,5,8
256,192,58909,1,0
376,192,59066,1,0
256,32,59378,5,2
136,192,59691,1,0
256,352,60003,1,2
72,352,60316,5,4
432,352,60628,1,12
256,144,60941,1,0
200,216,61097,1,0
144,144,61253,1,8
88,216,61409,2,0,B|16:176|16:176|16:48,1,180
88,24,61878,1,12
448,16,62191,1,4
256,216,62503,5,8
312,144,62659,1,0
368,216,62816,2,0,B|408:144|408:144|432:144|432:144|480:64,1,180,0|8
368,216,63441,2,0,B|328:288|328:288|304:288|304:288|256:368,1,180,0|8
352,352,63909,2,0,B|312:288|312:288|288:288|288:288|240:208,1,180,0|8
176,280,64378,1,8
176,100,64691,1,0
176,188,64847,1,8
176,188,64925,1,0
176,188,65003,1,8
360,188,65316,6,0,B|464:132|448:20,2,180,0|8|0
276,224,66097,1,0
188,240,66253,1,8
100,240,66409,2,0,B|-20:216|60:96|140:136,1,180
188,124,66878,2,0,B|188:20,2,90,8|0|0
256,280,67503,5,8
256,192,67659,1,0
256,100,67816,1,4
168,360,68128,1,4
392,208,68441,1,4
120,208,68753,1,4
344,360,69066,1,4
256,100,69378,5,0
200,52,69534,1,0
256,4,69691,1,0
312,52,69847,1,0
256,100,70003,1,0
256,116,70081,1,0
256,132,70158,1,0
256,148,70237,1,0
256,164,70316,1,4
256,336,75316,5,0
256,64,75628,1,8
496,192,75941,2,0,B|496:48,2,90,0|0|8
496,192,76409,2,0,B|456:224|456:224|376:224|376:224|320:176,1,180
336,104,76878,1,8
336,376,77191,1,0
168,192,77503,5,8
168,280,77659,1,0
168,192,77816,2,0,B|128:192|80:160|80:160|32:192|-40:200,3,180
256,192,79066,5,0
256,192,79222,1,0
256,192,79378,1,0
256,192,79534,1,0
256,192,79691,1,0
256,16,80003,5,2
256,368,80316,6,0,B|264:256|408:240,1,180,0|8
256,16,80941,2,0,B|248:128|104:144,1,180,0|8
112,200,81409,2,0,B|64:216|0:192,2,90
144,136,81878,2,0,B|216:110|216:192|336:184,1,180,8|0
311,184,82347,5,0
312,112,82503,1,8
312,184,82659,1,0
312,184,82816,2,0,B|312:304|432:304,2,180,0|8|0
312,112,83597,1,0
352,48,83753,1,8
376,112,83909,2,0,B|376:216|376:216|408:176|456:232,1,180
488,272,84378,1,8
368,352,84691,1,0
96,352,85003,6,0,B|216:352,1,90,8|0
248,320,85316,2,0,B|236:232|72:208,1,180,0|8
80,280,85784,2,0,B|-4:248|0:164|96:152,1,180
116,216,86253,1,8
152,152,86409,1,0
152,152,86566,2,0,B|272:160|280:272,1,180,0|8
212,288,87034,2,0,B|228:360|332:352|348:280,1,180
360,216,87503,1,8
372,144,87659,1,0
296,168,87816,6,0,B|184:216,1,90
216,128,88128,2,0,B|112:176,1,90,8|0
136,88,88441,2,0,B|48:128,2,90,0|0|8
200,64,88909,1,0
264,40,89066,6,0,B|352:8,1,90
256,112,89378,2,8,B|144:160,1,90
312,160,89691,2,0,B|408:120,1,90
312,232,90003,2,8,B|216:272,1,90,8|8
368,280,90316,6,0,B|448:248|448:248|464:224|448:168,2,134.999995976687,4|0|0
304,304,91097,1,8
304,304,91253,1,8
240,280,91409,2,0,B|160:248|160:248|144:224|160:168,1,134.999995976687
152,136,91878,1,8
400,136,92190,5,0
400,136,92347,2,0,B|400:32,2,90,0|8|0
400,208,92815,2,0,B|400:344|520:368,1,180,0|8
480,288,93284,1,0
480,288,93440,2,0,B|416:376|304:384,1,180,0|8
256,384,93909,1,0
184,376,94065,2,0,B|136:368|104:312,1,90
72,264,94378,1,8
144,272,94534,2,0,B|264:296|264:176,1,180
264,112,95003,5,8
200,152,95159,1,0
264,184,95316,2,0,B|384:208|384:88,1,180,0|8
384,24,95784,2,0,B|488:40|472:224,1,180
472,232,96253,1,8
408,192,96409,1,0
408,264,96566,2,0,B|384:320|288:344|248:232,3,180,0|8|0|8
264,264,97659,1,0
256,192,97816,12,0,98753
168,120,99222,5,0
168,120,99300,1,0
168,120,99378,2,0,B|272:176,1,90
288,104,99691,2,0,B|400:168,3,90
424,184,100316,6,0,B|536:240|480:320|400:336,1,202.49999396503,4|0
360,344,100941,1,0
296,336,101097,1,0
232,312,101253,1,8
184,264,101409,2,0,B|240:216|240:144,1,134.999995976687
240,80,101878,2,0,B|232:152|304:216,1,134.999995976687,0|0
288,200,102503,1,8
88,200,102816,6,0,B|-16:200|0:72|96:88,1,202.49999396503,4|0
152,88,103441,1,0
280,88,103753,1,8
216,88,103909,1,0
152,88,104066,2,0,B|66:73|50:201|154:201,1,202.49999396503,0|0
216,200,104691,1,0
256,24,105003,1,2
256,344,105316,6,0,B|256:232|256:232|344:144,1,180,0|8
360,136,105784,2,0,B|456:232,1,90
480,248,106097,2,0,B|480:112,2,90,0|8|0
480,320,106566,1,4
368,80,106878,1,12
248,320,107191,1,4
128,80,107503,1,12
0,320,107816,6,0,B|112:304|152:208,1,180,4|8
56,224,108284,2,0,B|96:144|208:144,1,180,0|8
144,224,108753,1,8
232,224,108909,1,8
448,80,109222,5,0
360,160,109378,1,0
424,256,109534,1,0
336,336,109691,1,0
256,48,110003,5,2
72,192,110316,5,4
424,192,110628,1,12
256,352,110941,1,0
208,272,111097,1,0
304,272,111253,1,8
256,192,111409,2,0,B|216:120|216:120|96:120,1,180
72,192,111878,1,12
424,192,112191,1,4
256,32,112503,6,0,B|376:32,1,90,8|0
440,32,112816,2,0,B|320:136,1,90
280,96,113128,2,0,B|280:168|352:168|352:168|352:256,1,180,8|0
352,320,113597,1,0
288,256,113753,1,8
224,320,113909,2,0,B|176:272|176:272|96:272|120:176,1,180
120,112,114378,1,8
300,112,114691,1,0
212,112,114847,1,8
212,112,115003,1,8
40,112,115316,6,0,B|38:213|38:213|-8:320,2,180,0|8|0
72,24,116097,1,0
72,24,116253,1,8
104,112,116409,2,0,B|105:213|105:213|152:320,1,180
200,352,116878,2,0,B|200:208,2,90,8|0|0
320,112,117503,5,8
320,200,117659,1,0
320,112,117816,2,0,B|312:16|456:0,1,180,0|8
400,88,118284,1,0
432,168,118441,2,0,B|280:144|336:48,1,180,0|8
400,88,118909,2,0,B|480:200|368:264,1,180
320,304,119378,5,12
256,40,119691,1,0
208,304,120003,1,12
144,40,120316,5,4
416,40,120628,1,12
288,280,120941,1,0
288,192,121097,1,0
368,240,121253,1,8
368,152,121409,2,0,B|432:208|432:208|432:352,1,180
368,360,121878,1,12
96,360,122190,1,4
96,360,122503,5,8
184,288,122659,1,0
296,328,122816,5,0
224,232,122972,1,0
256,120,123128,5,8
168,192,123284,1,0
56,152,123441,5,0
128,248,123597,1,0
96,360,123753,5,8
184,288,123909,2,0,B|272:216|176:112,1,180
120,80,124378,1,12
200,40,124534,1,0
200,40,124612,1,0
200,40,124691,1,12
288,24,124847,1,0
288,24,124925,1,0
288,24,125003,1,12
288,112,125159,1,0
288,200,125316,6,0,B|288:288,1,90,4|0
352,120,125628,2,0,B|352:8,1,90,8|0
416,200,125941,2,0,B|416:312,2,90,4|0|8
416,200,126409,2,4,B|416:16,1,180
480,88,126878,5,12
480,224,127034,1,0
480,88,127191,1,4
32,88,127503,6,0,B|32:200,2,90,0|0|4
136,336,128128,1,4
256,96,128441,1,4
376,336,128753,1,4
256,192,129066,12,4,130316
