osu file format v6

[General]
AudioFilename: little explorer.mp3
AudioLeadIn: 5300
PreviewTime: 1276
Countdown: 0
SampleSet: Normal
StackLeniency: 0.4
Mode: 0
LetterboxInBreaks: 0

[Editor]
Bookmarks: 2118,15832,32975,46689,60404,70689,84404,98118,108404,118832
DistanceSpacing: 0.899999976158142
BeatDivisor: 6
GridSize: 32

[Metadata]
Title:little explorer
Artist:Harada Hitomi
Creator:DJPop
Version:Insane
Source:eden*
Tags:mikage minori nbkz Sakai Yu Kagami Chikotam Kimcheee IURO Tenmon Eiichiro Yanagi Harada Hitomi

[Difficulty]
HPDrainRate:5
CircleSize:5
OverallDifficulty:8
SliderMultiplier:1.9
SliderTickRate:2

[Events]
//Background and Video events
Video,-43850,"little explorer.avi"
0,0,"little explorer.png"
//Break Periods
2,40996,45082
//Storyboard Layer 0 (Background)
//Storyboard Layer 1 (Fail)
//Storyboard Layer 2 (Pass)
//Storyboard Layer 3 (Foreground)
//Storyboard Sound Samples
//Background Colour Transformations
3,100,0,0,0

[TimingPoints]
404,428.571428571429,4,1,1,80,1,0
2279,-100,4,2,1,80,0,0
4475,-100,4,1,1,80,0,0
5707,-100,4,2,1,80,0,0
6886,-100,4,1,1,80,0,0
7582,-100,4,2,1,80,0,0
7796,-100,4,1,1,80,0,0
8439,-100,4,2,1,80,0,0
8654,-100,4,1,1,80,0,0
8975,-100,4,1,1,80,0,0
9296,-100,4,2,1,80,0,0
10368,-100,4,1,1,80,0,0
11011,-100,4,2,1,80,0,0
11439,-100,4,1,1,80,0,0
12725,-100,4,2,1,80,0,0
13582,-100,4,1,1,80,0,0
26118,-100,4,1,1,75,0,0
29439,-100,4,1,1,70,0,0
29654,-100,4,1,1,65,0,0
29975,-100,4,1,1,60,0,0
30404,-100,4,1,1,55,0,0
30832,-100,4,1,1,50,0,0
31261,-100,4,1,1,45,0,0
31689,-100,4,1,1,40,0,0
32118,-100,4,1,1,35,0,0
32546,-100,4,1,1,30,0,0
32868,-100,4,2,0,30,0,0
58689,-100,4,2,0,29,0,0
58904,-100,4,2,0,32,0,0
59003,-100,4,2,0,35,0,0
59111,-100,4,2,0,31,0,0
59219,-100,4,2,0,34,0,0
59327,-100,4,2,0,37,0,0
59435,-100,4,2,0,40,0,0
59543,-100,4,2,0,36,0,0
59651,-100,4,2,0,39,0,0
59759,-100,4,2,0,42,0,0
59867,-100,4,2,0,45,0,0
59975,-100,4,2,0,41,0,0
60082,-100,4,2,0,44,0,0
60189,-100,4,2,0,47,0,0
60296,-100,4,2,0,50,0,0
60404,-100,4,1,1,50,0,0
70582,-100,4,1,1,65,0,0
79582,-100,4,1,1,70,0,0
80225,-100,4,1,1,75,0,0
80868,-100,4,1,1,80,0,0
80975,-100,4,1,1,80,0,1
84350,-100,4,1,1,80,0,0
84404,-100,4,1,1,80,0,1
101493,-100,4,1,1,80,0,0
101546,-100,4,1,1,80,0,1
111939,-100,4,1,1,50,0,1
112261,-100,4,1,1,55,0,1
112475,-100,4,1,1,60,0,1
112689,-100,4,1,1,65,0,1
112904,-100,4,1,1,70,0,1
113118,-100,4,1,1,75,0,1
113332,-100,4,1,1,80,0,1
115368,-100,4,1,1,100,0,1
118904,-100,4,1,1,100,0,0

[Colours]
Combo1 : 96,0,0
Combo2 : 255,255,255
Combo3 : 140,128,192
Combo4 : 255,178,200

[HitObjects]
224,64,2118,5,6
112,112,2439,1,0
224,160,2761,1,0
288,160,2975,1,0
400,208,3296,1,0
288,256,3618,1,0
224,256,3832,5,2
112,304,4154,1,0
192,328,4368,1,0
224,336,4475,1,0
256,344,4582,1,0
288,352,4689,2,0,B|432:352,2,142.5,2|0|0
256,288,5546,5,2
160,224,5868,1,0
256,160,6189,1,0
256,160,6404,1,0
352,96,6725,1,0
256,32,7046,1,0
256,32,7153,1,0
256,32,7261,6,0,B|128:15|80:79,1,190,2|0
48,136,7903,1,0
24,199,8118,2,0,B|0:256|23:329|96:352,1,190,2|0
160,352,8761,1,0
192,352,8868,1,0
224,352,8975,6,0,B|320:384|288:256|384:288,1,190,4|2
384,216,9618,2,0,B|288:248|320:120|224:152,1,190
160,152,10261,1,2
96,152,10475,1,0
64,136,10582,1,0
48,104,10689,6,0,B|24:16|147:-5|160:64,1,190,4|2
224,96,11332,1,0
288,64,11546,1,0
312,80,11654,1,0
336,96,11761,1,0
360,112,11868,1,0
384,128,11975,1,2
408,144,12082,1,0
432,160,12189,1,0
456,176,12296,1,0
480,192,12404,6,0,B|500:320|383:320,1,190,4|2
320,320,13046,2,0,B|128:320,1,190
64,320,13689,1,2
48,288,13796,1,0
32,256,13904,1,0
64,192,14118,5,0
128,160,14332,1,0
64,128,14546,1,2
128,96,14761,1,0
144,64,14868,1,0
176,48,14975,1,2
208,64,15082,1,0
224,96,15189,1,0
288,128,15403,1,2
224,160,15618,1,0
256,176,15725,1,0
288,192,15832,5,4
288,320,16154,1,0
288,320,16261,1,8
288,320,16368,1,0
288,320,16475,1,0
416,320,16796,1,0
416,320,16904,1,0
416,320,17011,1,0
416,320,17118,1,8
416,192,17439,1,0
416,192,17546,5,0
416,64,17868,1,0
416,64,17975,1,8
416,64,18082,1,0
416,64,18189,1,0
288,64,18510,1,0
288,64,18618,1,0
288,64,18725,1,0
288,64,18832,1,8
160,64,19153,1,0
160,64,19261,5,0
48,128,19583,1,0
48,128,19689,1,8
48,128,19796,1,0
48,128,19904,1,0
160,192,20225,1,0
160,192,20333,1,0
160,192,20439,1,0
160,192,20546,1,8
48,256,20868,1,0
48,256,20975,5,0
160,320,21297,1,0
160,320,21404,1,8
160,320,21511,1,0
160,320,21618,1,0
288,320,21939,1,0
288,320,22047,1,0
288,320,22154,1,0
288,320,22261,1,8
288,192,22582,1,0
288,192,22689,5,4
416,224,23011,1,0
416,248,23118,1,8
416,272,23225,1,0
416,296,23332,1,0
416,160,23653,1,0
416,136,23761,1,0
416,112,23868,1,0
416,88,23975,1,8
288,64,24296,1,0
288,64,24404,5,0
160,64,24726,1,0
117,68,24832,1,8
80,88,24939,1,0
64,128,25046,1,0
64,256,25368,1,0
80,295,25475,1,0
117,315,25582,1,0
160,320,25688,1,8
288,320,26011,1,0
288,320,26118,5,0
352,352,26332,1,0
416,320,26546,1,8
480,352,26761,1,0
480,192,27189,1,0
448,128,27404,1,8
416,64,27618,1,0
352,32,27832,5,0
288,64,28046,1,0
272,96,28154,1,0
256,128,28261,1,8
224,192,28475,1,0
192,256,28689,1,0
160,320,28904,1,0
128,256,29118,1,8
96,320,29332,1,0
64,256,29546,5,4
32,192,29761,1,0
144,32,30189,1,0
256,192,30618,1,0
368,32,31046,1,0
480,192,31475,5,0
352,336,31904,1,0
160,336,32332,1,0
32,192,32761,1,0
32,192,32975,1,0
352,96,35118,5,0
160,96,35546,1,0
160,288,35975,1,0
352,288,36404,1,0
256,192,37046,5,0
32,32,38546,5,0
160,176,38975,1,0
352,176,39404,1,0
480,32,39832,1,0
256,208,40475,5,0
256,352,40796,1,0
448,192,45832,5,0
256,192,46261,1,0
64,192,46689,1,0
256,328,48832,5,0
392,192,49261,1,0
256,56,49689,1,0
120,192,50118,1,0
256,192,50761,5,0
160,272,53118,5,0
352,272,53546,1,0
256,112,54189,5,0
256,112,54404,1,0
256,352,56546,5,0
256,352,56618,1,0
256,352,56689,1,0
256,288,57046,1,0
256,96,57993,5,0
256,96,58100,1,0
255,29,58368,1,0
255,29,58529,1,0
320,32,58796,5,0
352,48,58904,1,0
384,64,59011,1,0
416,80,59118,1,0
448,96,59225,1,0
464,128,59332,1,0
480,160,59439,1,0
496,192,59546,1,0
480,224,59654,1,0
464,256,59761,1,0
448,288,59868,1,0
416,304,59975,1,0
384,320,60082,1,0
352,336,60189,1,0
320,352,60296,1,0
288,320,60404,5,0
288,256,60618,1,0
160,352,61046,1,0
32,256,61475,1,0
32,96,61904,1,0
96,64,62118,5,0
160,32,62332,1,0
320,32,62761,1,0
480,32,63189,1,0
352,128,63618,1,0
288,128,63832,5,0
224,128,64046,1,0
64,160,64475,1,0
64,320,64904,1,0
224,352,65332,1,0
256,288,65546,5,0
288,224,65761,1,0
384,352,66189,1,0
480,224,66618,1,0
480,64,67046,1,0
416,32,67261,5,0
352,64,67475,1,0
192,64,67903,1,0
320,160,68332,1,0
160,160,68761,1,0
96,192,68975,5,0
32,160,69189,1,0
32,320,69618,1,0
192,352,70046,1,0
320,256,70475,1,0
384,256,70689,6,0,B|384:352,2,95,2|0|8
448,256,71332,1,2
480,192,71546,2,0,B|480:96,1,95,2|0
416,64,71975,2,0,B|416:160,1,95,8|0
352,128,72404,6,0,B|352:32,2,95,2|0|8
320,192,73046,1,2
288,128,73261,2,0,B|288:68|232:64,1,95,2|0
168,64,73689,2,0,B|112:68|112:128,1,95,8|0
48,128,74118,6,0,B|48:32,2,95,2|0|8
48,192,74761,1,2
112,224,74975,1,2
48,256,75189,2,0,B|37:320|96:320,1,95,0|8
160,352,75618,1,0
192,288,75832,6,0,B|192:192,1,95,2|0
224,128,76261,1,8
288,128,76475,1,2
320,192,76689,2,0,B|320:288,2,95,2|0|8
352,128,77332,1,0
384,64,77546,5,2
448,64,77761,1,0
480,128,77975,1,8
416,160,78189,2,0,B|416:256,1,95
480,288,78618,1,0
448,352,78832,1,8
384,352,79046,1,0
352,288,79261,5,0
288,288,79475,1,0
256,352,79689,1,10
192,352,79904,2,0,B|96:352,1,95,0|2
32,320,80332,1,0
32,288,80439,1,0
32,256,80546,1,10
96,224,80761,1,0
32,192,80975,5,4
64,128,81189,1,0
80,96,81296,1,0
96,64,81404,1,4
136,128,81618,1,0
152,160,81725,1,0
168,192,81832,1,4
208,128,82046,1,0
224,96,82154,1,0
240,64,82261,1,4
280,128,82475,1,0
296,160,82582,1,0
312,192,82689,5,4
352,128,82904,1,0
416,96,83118,1,4
480,128,83332,1,0
416,160,83546,1,4
432,192,83654,1,0
448,224,83761,1,0
384,256,83975,1,4
368,288,84082,1,0
352,320,84189,1,0
288,288,84404,6,0,B|272:312|224:325|176:312|160:288,1,142.5,4|0
160,288,84832,1,8
96,320,85046,1,0
64,256,85261,2,0,B|40:240|27:192|40:144|64:128,1,142.5
63,128,85689,1,8
96,64,85904,1,0
160,96,86118,6,0,B|176:120|224:133|272:120|288:96,1,142.5
287,96,86546,1,8
352,64,86761,1,0
416,32,86975,2,0,B|472:40|500:96|472:152|416:160,1,190,0|8
416,320,87832,5,0
320,240,88154,2,0,C|320:192,1,47.5,0|8
256,192,88475,1,0
256,256,88689,1,0
160,336,89011,2,0,C|160:288,1,47.5,0|8
96,288,89332,1,0
96,224,89546,6,0,B|64:128|192:160|160:64,1,190,0|8
224,32,90189,1,0
288,64,90404,2,0,C|384:64,1,95
352,128,90832,2,0,C|448:128,1,95,8|0
416,192,91261,6,0,B|448:288|320:256|352:352,1,190,0|8
280,352,91904,2,0,B|312:256|184:288|216:192,1,190
144,192,92546,2,0,C|48:192,1,95,8|0
48,128,92975,6,0,B|65:32|193:32,1,190,0|8
256,32,93618,2,0,C|448:32,1,190
400,96,94261,2,0,C|304:96,1,95,8|0
352,160,94689,6,0,B|320:256|448:224|416:320,1,190,4|8
352,352,95332,1,0
288,352,95546,2,0,C|192:352,1,95,0|2
224,288,95975,2,0,C|320:288,1,95,10|2
288,224,96404,5,2
256,112,96725,2,0,C|256:159,1,47.5,2|8
224,224,97046,1,2
192,160,97261,1,2
96,240,97582,2,0,C|96:192,1,47.5,2|8
64,128,97904,1,2
32,192,98118,5,4
32,320,98439,1,0
32,320,98546,1,8
96,352,98761,1,0
160,320,98975,1,0
224,224,99296,1,0
224,224,99404,1,8
256,160,99618,1,0
288,224,99832,5,0
352,320,100154,1,0
352,320,100261,1,8
416,352,100475,1,0
480,320,100689,2,0,C|480:128,1,190,0|8
480,64,101332,1,0
480,48,101439,1,0
480,32,101546,5,4
352,32,101868,1,0
224,32,102189,2,0,C|176:32,1,47.5
144,48,102404,2,0,C|96:48,2,47.5
176,64,102725,2,0,C|224:64,2,47.5
144,80,103046,1,0
176,96,103154,1,0
144,112,103261,5,2
32,192,103582,1,2
144,256,103904,1,2
128,320,104118,1,2
160,336,104225,1,0
192,352,104332,1,0
224,336,104439,1,0
256,352,104546,1,0
288,336,104654,1,0
320,352,104761,1,0
352,336,104868,1,0
384,320,104975,6,0,B|464:278|464:224|448:160,1,190,4|8
432,96,105618,2,0,B|416:48|360:18|304:48|288:96,1,190
256,160,106261,2,0,B|256:256,1,95,8|0
224,320,106689,6,0,B|208:360|144:378|80:360|64:320,1,190,0|8
32,256,107332,2,0,B|0:160|128:192|96:96,1,190
128,32,107975,2,0,C|224:32,1,95,8|0
288,32,108404,5,4
448,32,108832,1,8
480,48,108939,1,0
496,80,109046,1,0
480,112,109154,1,0
448,128,109261,1,8
416,192,109475,1,8
448,256,109689,1,8
480,272,109796,1,0
496,304,109904,1,0
480,336,110011,1,0
448,352,110118,5,4
336,336,110404,1,8
288,344,110546,1,8
272,304,110689,1,0
256,264,110832,1,0
208,272,110975,1,0
192,232,111118,1,0
176,192,111261,1,0
128,200,111404,1,0
112,160,111546,1,0
96,120,111689,1,0
48,128,111832,5,4
32,64,112046,2,0,C|32:32,2,31.6666666666667,0|0|0
64,32,112261,2,0,C|64:64,2,31.6666666666667
96,64,112475,2,0,C|96:32,2,31.6666666666667
128,32,112689,2,0,C|128:64,2,31.6666666666667
160,64,112904,2,0,C|160:32,2,31.6666666666667
192,32,113118,2,0,C|192:64,2,31.6666666666667
224,48,113332,1,8
304,96,113546,5,4
384,144,113761,1,0
384,144,113868,1,8
464,192,114082,1,0
464,192,114189,1,8
384,240,114404,1,0
384,240,114511,1,8
304,288,114725,1,0
304,288,114832,1,8
292,264,114939,1,8
280,240,115046,1,8
268,216,115154,1,8
256,192,115261,5,4
256,192,115314,12,0,118832
