osu file format v13

[General]
AudioFilename: op.mp3
AudioLeadIn: 1500
PreviewTime: 66004
Countdown: 0
SampleSet: Soft
StackLeniency: 0.4
Mode: 0
LetterboxInBreaks: 0
WidescreenStoryboard: 0

[Editor]
DistanceSpacing: 2
BeatDivisor: 4
GridSize: 32
TimelineZoom: 1.6

[Metadata]
Title:The Brave Under The Summer Sky.
TitleUnicode:The Brave Under The Summer Sky.
Artist:Harada Hitomi
ArtistUnicode:原田ひとみ
Creator:Minakami Yuki
Version:Insane
Source:夏空のペルセウス
Tags:natsuzora no perseus minori galgame eroge opening short ver mtbbsben
BeatmapID:509031
BeatmapSetID:216934

[Difficulty]
HPDrainRate:6
CircleSize:4.3
OverallDifficulty:7
ApproachRate:8
SliderMultiplier:1.6
SliderTickRate:1

[Events]
//Background and Video events
0,0,"bg.jpg",0,0
Video,0,"opvideo.flv"
//Break Periods
//Storyboard Layer 0 (Background)
//Storyboard Layer 1 (Fail)
//Storyboard Layer 2 (Pass)
//Storyboard Layer 3 (Foreground)
//Storyboard Sound Samples
//Background Colour Transformations
3,100,163,162,255

[TimingPoints]
227,444.444444444444,4,2,2,50,1,0
3782,-133.333333333333,4,2,2,50,0,0
4226,-133.333333333333,4,2,2,30,0,0
4671,-133.333333333333,4,2,2,50,0,0
5115,-133.333333333333,4,2,2,30,0,0
5560,-133.333333333333,4,2,1,50,0,0
7338,-100,4,2,1,50,0,0
16226,-100,4,2,2,50,0,0
16560,-100,4,2,1,50,0,0
32226,-100,4,2,1,60,0,0
46560,-100,4,2,1,50,0,0
48226,-100,4,2,2,50,0,0
48671,-100,4,2,1,50,0,0
50004,-100,4,2,2,50,0,0
50449,-100,4,2,1,50,0,0
61004,-100,4,2,2,50,0,0
61560,-100,4,2,1,50,0,0
61893,-100,4,2,2,50,0,0
62449,-100,4,2,2,60,0,0
64226,-100,4,2,1,60,0,0
66004,-90.9090909090909,4,2,1,65,0,1
79338,-90.9090909090909,4,2,1,40,0,1
80226,-90.9090909090909,4,2,1,65,0,1
98893,-90.9090909090909,4,2,2,65,0,1
99782,-90.9090909090909,4,2,2,65,0,0
100560,-90.9090909090909,4,2,2,35,0,0

[Colours]
Combo1 : 255,128,192
Combo2 : 128,255,255
Combo3 : 255,0,255
Combo4 : 0,128,255

[HitObjects]
138,80,227,5,2,0:0:0:0:
138,80,2004,5,2,0:0:0:0:
138,80,3782,6,0,P|80:89|29:60,1,120.000004577637,2|2,0:0|0:0,0:0:0:0:
176,150,4671,2,0,P|234:159|285:130,1,120.000004577637,2|2,0:0|0:0,0:0:0:0:
456,76,5560,6,0,L|337:68,1,120.000004577637,2|2,0:0|0:0,0:0:0:0:
393,306,6449,2,0,L|512:298,1,120.000004577637,2|2,0:0|0:0,0:0:0:0:
335,249,7115,1,0,0:0:0:0:
335,249,7226,1,0,0:0:0:0:
335,249,7338,6,0,P|277:244|230:279,1,120,6|0,0:0|0:0,0:0:0:0:
196,308,7782,2,0,L|185:212,1,80,2|0,0:0|0:0,0:0:0:0:
158,195,8115,1,0,0:0:0:0:
129,161,8226,2,0,L|138:64,1,80,2|0,0:0|0:0,0:0:0:0:
261,118,8671,2,0,L|269:198,1,80,2|0,0:0|0:0,0:0:0:0:
63,339,9115,6,0,P|138:358|196:308,1,160,6|2,0:0|0:0,0:0:0:0:
196,308,9782,1,0,0:0:0:0:
121,203,10004,2,0,L|120:283,1,80,2|0,0:0|0:0,0:0:0:0:
270,345,10449,2,0,P|278:307|269:268,1,80,2|0,0:0|0:0,0:0:0:0:
49,154,10893,6,0,P|126:169|197:136,1,160,6|2,0:0|0:0,0:0:0:0:
235,66,11560,1,0,0:0:0:0:
235,66,11782,2,0,L|321:59,1,80,2|0,0:0|0:0,0:0:0:0:
449,109,12226,2,0,P|411:121|372:115,1,80,2|0,0:0|0:0,0:0:0:0:
244,201,12671,6,0,P|235:239|244:278,1,80,2|0,0:0|0:0,0:0:0:0:
445,297,13115,1,2,0:0:0:0:
422,318,13226,1,0,0:0:0:0:
392,329,13338,1,0,0:0:0:0:
360,327,13449,1,0,0:0:0:0:
331,314,13560,2,0,L|173:337,1,160,2|2,0:0|0:0,0:0:0:0:
141,336,14115,1,0,0:0:0:0:
111,325,14226,1,0,0:0:0:0:
88,303,14338,1,0,0:0:0:0:
73,275,14449,6,0,P|84:218|72:180,1,80,6|0,0:0|0:0,0:0:0:0:
4,56,14893,1,2,0:0:0:0:
33,68,15004,1,0,0:0:0:0:
65,71,15115,1,0,0:0:0:0:
96,66,15226,1,0,0:0:0:0:
124,51,15338,2,0,P|163:42|202:49,1,80,2|0,0:0|0:0,0:0:0:0:
254,200,15782,2,0,P|215:208|175:202,1,80,2|0,0:0|0:0,0:0:0:0:
312,145,16226,6,0,L|448:152,1,120,8|2,0:0|0:0,0:0:0:0:
463,176,16671,2,0,P|486:230|475:288,1,120,0|2,1:0|0:0,0:0:0:0:
456,313,17115,1,0,1:0:0:0:
437,338,17226,1,0,1:0:0:0:
330,223,17449,1,0,1:0:0:0:
349,198,17560,1,0,1:0:0:0:
418,364,17782,1,0,1:0:0:0:
368,171,18004,6,0,P|373:132|364:94,1,80,6|0,0:0|0:0,0:0:0:0:
215,16,18449,2,0,P|246:40|285:51,1,80,2|0,0:0|0:0,0:0:0:0:
155,80,18893,2,0,P|98:61|42:78,1,120,2|0,0:0|0:0,0:0:0:0:
12,112,19338,2,0,L|1:198,1,80,2|0,0:0|0:0,0:0:0:0:
107,310,19782,6,0,P|73:331|34:336,1,80,2|0,0:0|0:0,0:0:0:0:
85,224,20226,2,0,P|83:184|98:147,1,80,2|0,0:0|0:0,0:0:0:0:
300,146,20671,2,0,P|266:194|210:209,1,120,2|0,0:0|0:0,0:0:0:0:
168,200,21115,2,0,L|186:293,1,80,2|0,0:0|0:0,0:0:0:0:
386,165,21560,6,0,L|370:86,1,80,2|0,0:0|0:0,0:0:0:0:
472,176,22004,2,0,P|460:213|431:241,1,80,2|0,0:0|0:0,0:0:0:0:
259,326,22449,2,0,L|379:312,1,120,2|0,0:0|0:0,0:0:0:0:
420,326,22893,2,0,P|455:343|478:375,1,80,2|0,0:0|0:0,0:0:0:0:
174,349,23338,6,0,P|170:309|187:273,1,80,2|0,0:0|0:0,0:0:0:0:
332,201,23782,2,0,P|300:224|261:228,1,80,2|0,0:0|0:0,0:0:0:0:
123,139,24226,2,0,P|159:155|182:188,1,80,2|0,0:0|0:0,0:0:0:0:
186,273,24671,1,2,0:0:0:0:
266,140,24893,1,0,0:0:0:0:
266,140,25004,1,0,0:0:0:0:
266,140,25115,6,0,L|271:52,1,80,2|0,0:0|0:0,0:0:0:0:
332,201,25560,2,0,L|337:280,1,80,2|0,0:0|0:0,0:0:0:0:
497,143,26004,2,0,P|440:156|387:132,1,120,2|0,0:0|0:0,0:0:0:0:
352,104,26449,2,0,L|265:115,1,80,2|0,0:0|0:0,0:0:0:0:
105,10,26893,6,0,P|144:18|176:42,1,80,2|0,0:0|0:0,0:0:0:0:
113,177,27338,2,0,P|102:139|109:100,1,80,2|0,0:0|0:0,0:0:0:0:
30,203,27782,2,0,P|41:241|34:280,1,80,2|0,0:0|0:0,0:0:0:0:
10,316,28115,1,0,0:0:0:0:
10,316,28226,2,0,L|91:323,1,80,2|0,0:0|0:0,0:0:0:0:
269,121,28671,6,0,L|190:133,1,80,2|0,0:0|0:0,0:0:0:0:
322,52,29115,2,0,P|347:82|355:121,1,80,2|0,0:0|0:0,0:0:0:0:
275,340,29560,2,0,P|259:284|283:230,1,120,2|0,0:0|0:0,0:0:0:0:
315,199,30004,2,0,L|401:203,1,80,2|0,0:0|0:0,0:0:0:0:
322,52,30449,6,0,L|202:46,1,120,2|0,0:0|0:0,0:0:0:0:
202,46,30893,1,0,1:0:0:0:
79,157,31115,1,0,0:0:0:0:
120,79,31338,1,0,1:0:0:0:
144,98,31449,1,0,0:0:0:0:
161,126,31560,1,0,1:0:0:0:
166,157,31671,1,0,0:0:0:0:
160,188,31782,1,0,1:0:0:0:
143,216,31893,1,0,0:0:0:0:
118,235,32004,1,0,1:0:0:0:
88,245,32115,1,0,0:0:0:0:
56,243,32226,6,0,P|39:278|39:318,1,80,6|0,0:0|0:0,0:0:0:0:
181,378,32671,2,0,P|160:346|125:326,1,80,0|0,1:0|0:0,0:0:0:0:
266,354,33115,2,0,P|321:363|376:327,1,120,2|0,0:0|0:0,0:0:0:0:
402,296,33560,2,0,L|481:302,1,80,0|0,1:0|0:0,0:0:0:0:
427,99,34004,6,0,L|348:93,1,80,2|0,0:0|0:0,0:0:0:0:
506,57,34449,2,0,P|514:95|507:134,1,80,0|0,1:0|0:0,0:0:0:0:
304,270,34893,2,0,P|280:217|291:159,1,120,2|0,0:0|0:0,0:0:0:0:
256,130,35338,2,0,L|176:136,1,80,0|0,1:0|0:0,0:0:0:0:
137,155,35671,1,0,0:0:0:0:
108,140,35782,6,0,P|96:102|103:63,1,80,6|0,0:0|0:0,0:0:0:0:
199,254,36226,1,0,1:0:0:0:
167,256,36338,1,0,0:0:0:0:
135,259,36449,1,0,0:0:0:0:
103,262,36560,1,0,0:0:0:0:
71,264,36671,2,0,P|59:301|66:340,1,80,6|0,0:0|0:0,0:0:0:0:
275,297,37115,2,0,P|286:259|279:220,1,80,0|0,1:0|0:0,0:0:0:0:
163,94,37560,5,6,0:0:0:0:
199,254,37782,1,0,0:0:0:0:
359,183,38004,1,0,1:0:0:0:
211,166,38226,1,0,0:0:0:0:
179,174,38338,1,0,0:0:0:0:
147,181,38449,2,0,P|120:211|109:248,1,80,2|0,0:0|0:0,0:0:0:0:
43,79,38893,1,0,1:0:0:0:
70,96,39004,1,0,0:0:0:0:
101,105,39115,1,0,0:0:0:0:
132,104,39226,1,0,0:0:0:0:
163,94,39338,6,0,L|178:14,1,80,6|0,0:0|0:0,0:0:0:0:
295,142,39782,2,0,P|295:186|279:218,1,80,0|0,1:0|0:0,0:0:0:0:
246,246,40115,1,0,0:0:0:0:
246,246,40226,2,0,P|231:282|232:322,1,80,2|0,0:0|0:0,0:0:0:0:
180,187,40671,2,0,L|91:195,1,80,0|0,1:0|0:0,0:0:0:0:
317,301,41115,6,0,L|476:315,2,160,2|0|2,0:0|1:0|0:0,0:0:0:0:
317,301,42449,1,0,1:0:0:0:
341,280,42560,1,0,0:0:0:0:
357,252,42671,1,0,0:0:0:0:
362,221,42782,1,0,0:0:0:0:
358,189,42893,6,0,P|333:158|326:119,1,80,6|0,0:0|0:0,0:0:0:0:
486,99,43338,1,0,1:0:0:0:
486,99,43449,1,0,0:0:0:0:
486,99,43560,1,0,0:0:0:0:
486,99,43671,1,0,0:0:0:0:
486,99,43782,2,0,P|453:121|414:124,1,80,2|0,0:0|0:0,0:0:0:0:
262,58,44226,2,0,P|294:36|334:33,1,80,0|0,1:0|0:0,0:0:0:0:
268,220,44671,6,0,L|147:210,1,120,6|0,0:0|0:0,0:0:0:0:
116,205,45115,1,0,1:0:0:0:
79,344,45338,1,2,0:0:0:0:
79,344,45449,1,0,1:0:0:0:
27,210,45671,1,0,1:0:0:0:
27,210,45782,1,2,0:0:0:0:
148,287,46004,1,0,1:0:0:0:
3,295,46226,1,2,0:0:0:0:
116,204,46449,6,0,P|124:166|116:127,1,80,6|0,0:0|0:0,0:0:0:0:
0,12,46893,2,0,L|10:51,3,40,0|0|0|0,1:0|0:0|0:0|0:0,0:0:0:0:
52,65,47338,2,0,P|91:68|127:52,1,80,2|0,0:0|0:0,0:0:0:0:
271,119,47782,2,0,P|232:122|196:107,1,80,0|0,1:0|0:0,0:0:0:0:
349,78,48226,6,0,L|370:251,1,160,8|0,0:0|1:0,0:0:0:0:
367,268,48782,1,0,0:0:0:0:
357,298,48893,1,0,0:0:0:0:
339,324,49004,1,0,0:0:0:0:
313,343,49115,2,0,P|275:330|236:333,1,80,2|0,0:0|0:0,0:0:0:0:
74,326,49560,2,0,L|114:318,3,40,0|0|0|0,1:0|0:0|0:0|0:0,0:0:0:0:
154,298,50004,6,0,P|175:265|179:226,1,80,8|0,0:0|0:0,0:0:0:0:
51,131,50449,1,0,1:0:0:0:
51,131,50560,1,0,0:0:0:0:
51,131,50671,1,0,0:0:0:0:
51,131,50782,1,0,0:0:0:0:
51,131,50893,2,0,P|84:153|124:157,1,80,2|0,0:0|0:0,0:0:0:0:
274,101,51338,2,0,L|353:95,1,80,0|0,1:0|0:0,0:0:0:0:
483,188,51782,6,0,L|324:178,1,160,2|0,0:0|1:0,0:0:0:0:
292,179,52338,1,0,0:0:0:0:
262,190,52449,1,0,0:0:0:0:
238,212,52560,1,0,0:0:0:0:
224,240,52671,2,0,L|215:319,1,80,2|0,0:0|0:0,0:0:0:0:
160,179,53115,2,0,L|164:139,1,40,0|0,1:0|0:0,0:0:0:0:
210,63,53338,1,0,1:0:0:0:
210,63,53449,1,0,1:0:0:0:
210,63,53560,6,0,P|169:77|128:72,1,80,6|0,0:0|0:0,0:0:0:0:
285,18,54004,2,0,P|324:21|360:39,1,80,0|0,1:0|0:0,0:0:0:0:
427,96,54449,2,0,L|447:254,1,160,2|0,0:0|1:0,0:0:0:0:
85,288,55338,6,0,L|64:129,2,160,2|0|2,0:0|1:0|0:0,0:0:0:0:
154,342,56671,1,0,1:0:0:0:
183,329,56782,1,0,0:0:0:0:
215,325,56893,1,0,0:0:0:0:
246,328,57004,1,0,0:0:0:0:
276,340,57115,6,0,P|313:355|353:356,1,80,6|0,0:0|0:0,0:0:0:0:
500,294,57560,1,0,1:0:0:0:
435,158,57782,1,0,0:0:0:0:
435,158,57893,1,0,0:0:0:0:
435,158,58004,6,0,L|432:238,1,80,6|0,0:0|0:0,0:0:0:0:
235,218,58449,1,0,1:0:0:0:
335,188,58671,1,0,0:0:0:0:
335,188,58782,1,0,0:0:0:0:
335,188,58893,6,0,L|332:268,1,80,6|0,0:0|0:0,0:0:0:0:
135,248,59338,1,0,1:0:0:0:
235,218,59560,1,0,0:0:0:0:
235,218,59671,1,0,0:0:0:0:
235,218,59782,6,0,L|232:298,1,80,6|0,0:0|0:0,0:0:0:0:
204,333,60115,1,0,0:0:0:0:
204,333,60226,2,0,P|169:349|129:349,1,80,0|0,1:0|0:0,0:0:0:0:
178,149,60671,6,0,P|234:131|291:151,1,120,6|2,0:0|3:2,0:0:0:0:
317,183,61115,2,0,L|331:90,1,80,0|2,1:0|0:0,0:0:0:0:
160,30,61560,2,0,L|178:149,1,120,2|2,0:0|3:2,0:0:0:0:
157,187,62004,2,0,P|119:205|78:203,1,80,0|0,1:0|0:0,0:0:0:0:
306,269,62449,6,0,P|383:260|448:303,1,160,6|0,0:0|1:0,0:0:0:0:
205,114,63338,2,0,P|128:123|63:80,1,160,2|0,0:0|1:0,0:0:0:0:
448,80,64226,6,0,L|457:178,1,80,6|0,0:0|0:0,0:0:0:0:
431,197,64560,1,0,0:0:0:0:
431,197,64671,1,4,1:2:0:0:
287,126,64893,1,0,0:0:0:0:
302,98,65004,1,0,0:0:0:0:
318,70,65115,2,0,L|313:14,1,40,4|0,0:0|0:0,0:0:0:0:
205,114,65338,2,0,L|208:153,1,40,0|0,0:0|0:0,0:0:0:0:
251,272,65560,1,4,1:2:0:0:
292,286,65671,1,0,0:0:0:0:
336,284,65782,1,0,0:0:0:0:
376,265,65893,1,0,0:0:0:0:
406,234,66004,6,0,L|504:238,1,88.000002685547,6|0,0:0|0:0,0:0:0:0:
398,373,66449,2,0,L|310:369,1,88.000002685547,0|0,1:0|0:0,0:0:0:0:
137,208,66893,2,0,P|194:239|257:225,1,132.00000402832,2|0,0:0|0:0,0:0:0:0:
286,193,67338,2,0,L|302:100,1,88.000002685547,0|0,1:0|0:0,0:0:0:0:
130,129,67782,5,2,0:0:0:0:
257,226,68004,1,0,0:0:0:0:
277,68,68226,1,0,1:0:0:0:
221,141,68449,1,0,0:0:0:0:
221,141,68560,1,0,0:0:0:0:
221,141,68671,1,2,0:0:0:0:
76,208,68893,1,0,0:0:0:0:
207,300,69115,1,0,1:0:0:0:
130,129,69338,1,0,0:0:0:0:
115,291,69560,6,0,L|24:304,1,88.000002685547,2|0,0:0|0:0,0:0:0:0:
257,226,70004,2,0,L|348:239,1,88.000002685547,0|0,1:0|0:0,0:0:0:0:
416,186,70338,1,0,0:0:0:0:
416,186,70449,2,0,P|420:119|369:61,1,132.00000402832,2|0,0:0|0:0,0:0:0:0:
405,31,70893,2,0,L|491:16,1,88.000002685547,0|0,1:0|0:0,0:0:0:0:
327,148,71338,5,2,0:0:0:0:
255,6,71560,1,0,0:0:0:0:
169,139,71782,1,0,1:0:0:0:
327,148,72004,1,0,0:0:0:0:
310,116,72115,1,0,0:0:0:0:
293,84,72226,1,2,0:0:0:0:
282,242,72449,1,0,0:0:0:0:
424,173,72671,1,0,1:0:0:0:
293,84,72893,1,0,0:0:0:0:
293,84,73004,1,0,0:0:0:0:
293,84,73115,6,0,P|252:96|209:89,1,88.000002685547,6|0,0:0|0:0,0:0:0:0:
31,126,73560,2,0,P|72:114|115:121,1,88.000002685547,0|0,1:0|0:0,0:0:0:0:
164,194,73893,1,0,0:0:0:0:
164,194,74004,2,0,L|168:281,1,88.000002685547,2|0,0:0|0:0,0:0:0:0:
347,349,74449,1,0,1:0:0:0:
349,314,74560,1,0,0:0:0:0:
351,279,74671,1,0,0:0:0:0:
353,244,74782,1,0,0:0:0:0:
354,208,74893,6,0,P|313:192|269:196,1,88.000002685547,2|0,0:0|0:0,0:0:0:0:
98,325,75338,2,0,P|138:340|182:336,1,88.000002685547,0|0,1:0|0:0,0:0:0:0:
354,208,75782,2,0,L|360:76,1,132.00000402832,2|0,0:0|0:0,0:0:0:0:
392,39,76226,2,0,P|434:28|477:32,1,88.000002685547,0|0,1:0|0:0,0:0:0:0:
275,122,76671,6,0,P|211:134|153:103,1,132.00000402832,6|0,0:0|0:0,0:0:0:0:
129,61,77115,2,0,L|32:69,1,88.000002685547,0|0,1:0|0:0,0:0:0:0:
0,72,77449,1,0,0:0:0:0:
0,72,77560,1,2,0:0:0:0:
68,214,77782,1,0,0:0:0:0:
68,214,77893,1,0,0:0:0:0:
68,214,78004,1,0,1:0:0:0:
22,365,78226,1,0,0:0:0:0:
22,365,78338,1,0,0:0:0:0:
22,365,78449,6,0,P|88:344|148:368,1,132.00000402832,6|0,0:0|0:0,0:0:0:0:
189,347,78893,2,0,L|201:254,1,88.000002685547,0|0,1:0|0:0,0:0:0:0:
266,115,79338,1,0,1:0:0:0:
306,131,79449,1,0,1:0:0:0:
350,132,79560,1,0,1:0:0:0:
391,117,79671,1,0,1:0:0:0:
424,89,79782,1,0,1:0:0:0:
233,186,80004,1,0,1:0:0:0:
233,186,80115,1,0,1:0:0:0:
233,186,80226,6,0,P|190:182|149:198,1,88.000002685547,6|0,0:0|0:0,0:0:0:0:
265,306,80671,2,0,P|308:310|349:294,1,88.000002685547,0|0,1:0|0:0,0:0:0:0:
413,173,81115,2,0,P|408:129|424:89,1,88.000002685547,2|0,0:0|0:0,0:0:0:0:
458,54,81449,1,0,0:0:0:0:
458,54,81560,1,0,1:0:0:0:
504,205,81782,1,0,0:0:0:0:
329,112,82004,6,0,B|278:125|278:125|188:110,1,132.00000402832,2|0,0:0|0:0,0:0:0:0:
151,103,82449,1,0,1:0:0:0:
173,9,82671,1,0,0:0:0:0:
129,197,82893,2,0,B|118:253|118:253|136:325,1,132.00000402832,2|0,0:0|0:0,0:0:0:0:
149,372,83338,1,0,1:0:0:0:
13,290,83560,1,0,0:0:0:0:
13,290,83671,1,0,0:0:0:0:
13,290,83782,6,0,L|29:203,1,88.000002685547,2|0,0:0|0:0,0:0:0:0:
151,103,84226,2,0,P|193:113|235:102,1,88.000002685547,0|0,1:0|0:0,0:0:0:0:
313,58,84560,1,0,0:0:0:0:
313,58,84671,2,0,P|355:47|397:57,1,88.000002685547,2|0,0:0|0:0,0:0:0:0:
500,174,85115,2,0,P|458:185|416:175,1,88.000002685547,0|0,1:0|0:0,0:0:0:0:
380,151,85449,1,0,0:0:0:0:
380,151,85560,6,0,L|393:303,1,132.00000402832,6|0,0:0|0:0,0:0:0:0:
373,323,86004,2,0,P|337:346|293:348,1,88.000002685547,0|0,1:0|0:0,0:0:0:0:
259,339,86338,1,0,0:0:0:0:
224,330,86449,1,0,1:0:0:0:
104,252,86671,1,0,0:0:0:0:
139,243,86782,1,0,1:0:0:0:
264,161,87004,1,0,0:0:0:0:
229,152,87115,1,0,1:0:0:0:
34,192,87338,6,0,P|11:260|74:340,1,176.000005371094,6|0,0:0|1:0,0:0:0:0:
332,221,88226,2,0,P|355:153|292:73,1,176.000005371094,2|0,0:0|1:0,0:0:0:0:
384,65,89115,6,0,L|297:75,1,88.000002685547,2|0,0:0|0:0,0:0:0:0:
207,36,89560,2,0,L|107:25,1,88.000002685547,0|0,1:0|0:0,0:0:0:0:
37,78,90004,2,0,P|35:121|56:158,1,88.000002685547,2|0,0:0|0:0,0:0:0:0:
128,273,90449,2,0,P|149:235|147:192,1,88.000002685547,0|0,1:0|0:0,0:0:0:0:
77,355,90893,6,0,L|233:365,1,132.00000402832,6|0,0:0|0:0,0:0:0:0:
250,338,91338,2,0,P|298:329|343:344,1,88.000002685547,0|0,1:0|0:0,0:0:0:0:
499,283,91782,2,0,P|457:294|415:285,1,88.000002685547,6|0,0:0|0:0,0:0:0:0:
368,114,92226,1,0,1:0:0:0:
368,114,92338,1,0,0:0:0:0:
368,114,92449,1,0,0:0:0:0:
368,114,92560,1,0,0:0:0:0:
368,114,92671,6,0,P|379:156|370:199,1,88.000002685547,6|0,0:0|0:0,0:0:0:0:
288,60,93115,1,0,1:0:0:0:
455,69,93338,1,0,0:0:0:0:
281,156,93560,2,0,P|240:143|196:146,1,88.000002685547,2|0,0:0|0:0,0:0:0:0:
105,181,93893,1,0,0:0:0:0:
73,165,94004,1,0,1:0:0:0:
50,139,94115,1,0,0:0:0:0:
38,106,94226,1,0,0:0:0:0:
39,72,94337,1,0,0:0:0:0:
54,40,94449,6,0,L|142:25,1,88.000002685547,4|0,0:0|0:0,0:0:0:0:
105,181,94893,2,0,L|18:195,1,88.000002685547,0|0,1:0|0:0,0:0:0:0:
195,146,95338,2,0,P|202:189|188:230,1,88.000002685547,2|0,0:0|0:0,0:0:0:0:
259,372,95782,2,0,P|252:329|266:288,1,88.000002685547,0|0,1:0|0:0,0:0:0:0:
504,227,96226,6,0,P|423:257|342:229,1,176.000005371094,6|0,0:0|1:0,0:0:0:0:
446,65,97115,1,2,0:0:0:0:
446,65,97226,1,0,0:0:0:0:
291,27,97560,1,0,1:0:0:0:
291,27,97671,2,0,P|248:32|205:59,1,88.000002685547
182,89,98004,5,0,3:0:0:0:
202,228,98226,1,0,0:0:0:0:
69,175,98449,1,0,3:0:0:0:
90,314,98671,1,0,0:0:0:0:
202,228,98893,6,0,L|251:234,3,44.0000013427735,8|0|0|0,3:2|0:0|0:0|0:0,0:0:0:0:
312,276,99338,2,0,L|347:259,7,22.0000006713867,2|0|0|0|2|0|0|0,3:2|0:0|0:0|0:0|0:0|0:0|0:0|0:0,0:0:0:0:
374,199,99782,5,4,0:0:0:0:
374,199,100634,2,0,L|389:159,1,29.3333342285157,2|8,0:0|0:0,0:0:0:0:
