osu file format v9

[General]
AudioFilename: Kyuuai Real.mp3
AudioLeadIn: 1000
PreviewTime: 47873
Countdown: 0
SampleSet: Normal
StackLeniency: 0.7
Mode: 0
LetterboxInBreaks: 1

[Editor]
Bookmarks: 941,36646,48793
DistanceSpacing: 1
BeatDivisor: 2
GridSize: 8

[Metadata]
Title:Kyuuai Real (TV Size)
Artist:Harada Hitomi
Creator:SiU_LeAf
Version:Hard
Source:Itsuka Tenma no Kuro Usagi
Tags:KingsAL2

[Difficulty]
HPDrainRate:5
CircleSize:4
OverallDifficulty:5
ApproachRate:6
SliderMultiplier:1.2
SliderTickRate:1

[Events]
//Background and Video events
0,0,"Newbg.jpg"
//Break Periods
//Storyboard Layer 0 (Background)
//Storyboard Layer 1 (Fail)
//Storyboard Layer 2 (Pass)
//Storyboard Layer 3 (Foreground)
//Storyboard Sound Samples
//Background Colour Transformations
3,100,163,162,255

[TimingPoints]
205,368.098159509202,4,1,1,60,1,0
12904,-100,4,2,1,60,0,0
25051,-100,4,1,1,60,0,0
48793,-100,4,1,1,60,0,1
59100,-100,4,1,1,60,0,0
60573,-100,4,1,1,60,0,1
70879,-100,4,1,1,60,0,0
88732,-100,4,2,1,5,0,0

[Colours]
Combo1 : 128,64,0
Combo2 : 128,0,0

[HitObjects]
40,128,941,1,8
128,48,1309,2,0,B|154:28|187:24,2,60
232,112,2045,1,8
296,216,2413,2,0,B|361:206|407:171,1,120,2|8
432,312,3149,5,0
376,336,3333,1,0
320,344,3517,1,0
260,344,3701,1,0
200,344,3885,1,4
40,256,4254,6,0,B|56:312,2,60
160,256,4990,2,0,B|144:200,1,60,0|8
48,48,5726,1,0
144,120,6094,1,0
48,192,6462,1,0
168,192,6830,5,0
256,112,7198,1,8
312,88,7382,1,0
368,112,7566,1,0
296,208,7935,1,0
352,232,8119,1,0
408,208,8303,1,0
488,120,8671,1,8
408,32,9039,5,0
348,32,9223,1,0
288,32,9407,1,0
228,32,9591,1,0
168,32,9775,1,4
32,152,10143,6,0,B|80:200,2,60
144,112,10879,2,0,B|192:160,1,60,0|8
184,336,11616,1,0
256,240,11984,1,8
328,336,12352,1,0
136,152,13272,5,0
136,152,13456,2,0,B|201:145|248:110,1,120,2|0
304,136,14008,2,0,B|310:201|345:248,1,120,2|0
320,304,14560,2,0,B|254:310|207:345,1,120,2|2
192,224,15297,2,0,B|272:224,1,60,0|2
136,256,15849,2,0,B|56:256,1,60,0|2
128,144,16401,6,0,B|180:105|203:51,1,120,2|0
264,56,16953,2,0,B|290:115|283:173,1,120,2|0
344,176,17505,2,0,B|396:137|419:83,1,120,2|2
472,192,18241,2,0,B|424:240,1,60,0|2
432,352,18793,2,0,B|480:304,1,60,0|2
352,304,19346,1,0
112,336,19898,5,0
52,323,20082,1,0
41,264,20266,1,0
91,229,20450,1,0
79,171,20634,2,0,B|65:100,1,60,0|2
184,136,21186,2,0,B|197:206,1,60,0|2
288,120,21738,2,0,B|274:49,2,60
300,180,22290,1,2
392,104,22658,5,0
400,120,22843,1,0
408,136,23027,1,0
416,152,23211,1,0
424,168,23395,1,0
432,184,23579,1,0
440,200,23763,1,2
376,304,24131,6,0,B|336:360,1,60,2|0
224,344,24683,2,0,B|264:288,1,60,2|0
72,168,25235,5,4
184,120,25603,2,0,B|232:168,1,60
304,72,26155,2,0,B|352:120,1,60
424,24,26708,1,0
424,80,26892,1,0
424,136,27076,2,0,B|464:184,1,60
456,304,27628,2,0,B|416:256,1,60
304,304,28180,6,0,B|240:296|184:296,1,120,2|8
96,216,28916,2,0,B|160:224|216:224,1,120,2|8
320,160,29652,2,0,B|256:152|200:152,1,120,2|8
112,72,30389,1,2
224,80,30757,2,0,B|264:80|296:88,2,60,8|0|0
168,288,31493,6,0,B|40:288,2,120,8|0|8
288,288,32597,2,0,B|320:272|336:248,1,60,0|2
232,184,33149,1,2
184,72,33517,2,0,B|152:88|136:112,1,60,2|8
232,184,34070,1,0
344,120,34438,5,8
272,24,34806,1,0
200,120,35174,1,8
272,216,35542,2,0,B|272:336|96:336,1,240,4|0
56,224,36646,1,0
328,136,37014,6,0,B|376:184,1,60,0|8
352,296,37566,2,0,B|304:344,1,60,0|8
192,344,38119,5,0
149,301,38303,1,0
88,296,38487,1,0
32,272,38671,1,8
72,160,39039,2,0,B|56:216,1,60,0|8
55,217,39591,1,0
168,176,39959,6,0,B|232:176,1,60
272,136,40327,2,0,B|336:152,1,60
384,176,40695,1,0
312,272,41063,5,0
312,272,41247,2,0,B|392:288|384:352|408:320,2,120,0|2|0
312,272,42168,1,8
184,144,42720,5,0
184,144,42904,2,0,B|240:104,1,60,8|0
320,192,43456,2,0,B|384:208,1,60,0|8
352,320,44008,5,0
296,296,44192,1,0
256,340,44376,1,0
196,352,44560,1,8
104,280,44928,2,0,B|152:320,1,60,0|8
150,318,45481,1,0
143,197,45849,5,2
201,184,46033,1,2
247,221,46217,1,8
305,232,46401,1,8
319,173,46585,1,2
374,151,46769,1,2
488,112,47137,1,4
368,336,47873,5,2
368,280,48057,1,2
368,224,48241,1,2
424,224,48425,1,2
368,224,48609,1,2
312,224,48793,2,0,B|256:224|200:176,1,120,8|0
152,144,49346,5,0
104,176,49530,1,8
104,232,49714,1,0
152,264,49898,1,0
208,264,50082,1,0
264,264,50266,2,0,B|328:264|352:304|360:336,2,120,0|10|0
348,178,51370,5,10
302,138,51554,1,0
255,175,51738,1,8
206,210,51922,1,0
146,200,52106,1,0
86,194,52290,1,0
41,153,52474,2,0,B|101:139|133:83,1,120,8|0
176,40,53027,5,2
288,80,53395,1,0
248,192,53763,1,0
136,152,54131,2,0,B|80:160|32:224|40:304,1,180,2|4
192,328,55051,6,0,B|320:352,1,120,8|0
368,248,55787,2,0,B|480:200,1,120,8|0
384,128,56524,2,0,B|336:80,1,60,8|0
264,176,57076,2,0,B|208:200,1,60
64,336,57628,5,0
44,279,57812,1,0
77,229,57996,1,8
113,181,58180,1,0
67,142,58364,1,8
16,109,58548,1,0
129,68,58916,1,4
440,72,59652,6,0,B|256:72,1,180
224,184,60573,1,4
144,112,60941,5,8
144,112,61125,2,0,B|96:64,2,60
108,160,61677,1,0
108,220,61861,1,0
144,268,62045,2,0,B|48:364,2,120,8|0|8
208,168,63149,6,0,B|224:224,2,60,0|0|8
232,112,63701,2,0,B|216:56,2,60,0|0|0
288,136,64254,2,0,B|322:258,1,120,8|0
296,304,64806,5,2
386,107,65174,1,0
190,15,65542,1,0
98,211,65910,2,0,B|268:148,1,180,0|4
344,240,66830,6,0,B|320:296|256:336,1,120,8|2
160,272,67566,2,0,B|104:248|64:184,1,120,8|2
160,112,68303,2,0,B|192:168,1,60
288,96,68855,5,2
309,152,69039,1,10
368,156,69223,1,0
416,192,69407,1,8
436,248,69591,1,2
416,304,69775,1,2
368,340,69959,1,2
308,344,70143,1,8
248,336,70327,2,0,B|152:266,1,120,2|4
152,88,71247,5,8
344,272,71616,1,2
344,272,71800,1,2
256,192,72352,12,0,74560
288,144,75297,6,0,B|336:72|336:72|384:104|424:80,2,180,0|2|0
320,192,76585,2,0,B|440:336,1,180,2|0
320,360,77505,1,0
216,304,77873,6,0,B|96:304,1,120,0|8
96,304,78425,1,0
96,304,78609,1,0
96,248,78793,2,0,B|84:188,2,60,8|0|0
160,248,79346,2,0,B|248:168,1,120,0|0
368,176,80082,2,0,B|344:56,2,120
464,248,81186,5,8
416,284,81370,1,0
356,280,81554,1,0
308,244,81738,1,8
288,188,81922,1,0
252,140,82106,1,0
204,104,82290,1,0
144,108,82474,1,8
96,144,82658,1,8
72,200,82843,1,0
80,260,83027,1,4
200,240,83395,6,0,B|241:352,2,120
158,127,84499,2,0,B|185:202,1,60,2|8
296,160,85051,2,0,B|317:220,1,60,2|8
272,104,85603,2,0,B|349:53|349:53|496:120,1,240
320,288,87076,6,0,B|242:339|242:339|96:272,1,240
56,256,87996,1,0
56,200,88180,1,0
56,80,88548,1,4
256,192,88732,12,0,94438
