osu file format v9

[General]
AudioFilename: Kyuuai Real.mp3
AudioLeadIn: 1000
PreviewTime: 47873
Countdown: 0
SampleSet: Normal
StackLeniency: 0.7
Mode: 0
LetterboxInBreaks: 1

[Editor]
Bookmarks: 58364
DistanceSpacing: 0.4
BeatDivisor: 4
GridSize: 8

[Metadata]
Title:Kyuuai Real (TV Size)
Artist:Harada Hitomi
Creator:SiU_LeAf
Version:Alarmable
Source:Itsuka Tenma no Kuro Usagi
Tags:KingsAL2

[Difficulty]
HPDrainRate:8
CircleSize:4
OverallDifficulty:7
ApproachRate:8
SliderMultiplier:1.8
SliderTickRate:1

[Events]
//Background and Video events
0,0,"Newbg.jpg"
//Break Periods
//Storyboard Layer 0 (Background)
//Storyboard Layer 1 (Fail)
//Storyboard Layer 2 (Pass)
//Storyboard Layer 3 (Foreground)
//Storyboard Sound Samples
//Background Colour Transformations
3,100,163,162,255

[TimingPoints]
205,368.098159509202,4,1,1,70,1,0
1033,-100,4,2,1,70,0,0
1585,-100,4,1,1,70,0,0
1769,-100,4,2,1,70,0,0
2321,-100,4,1,1,70,0,0
2505,-100,4,2,1,70,0,0
2689,-100,4,1,1,70,0,0
2873,-100,4,2,1,70,0,0
3057,-100,4,1,1,70,0,0
3241,-100,4,2,1,70,0,0
3425,-100,4,1,1,70,0,0
3609,-100,4,2,1,70,0,0
3793,-100,4,1,1,70,0,0
4162,-100,4,2,1,70,0,0
4530,-100,4,1,1,70,0,0
4714,-100,4,2,1,70,0,0
5450,-100,4,1,1,70,0,0
5634,-100,4,2,1,70,0,0
5818,-100,4,1,1,70,0,0
6002,-100,4,1,1,70,0,0
6922,-100,4,2,1,70,0,0
7474,-100,4,1,1,70,0,0
7658,-100,4,2,1,70,0,0
8395,-100,4,1,1,70,0,0
8579,-100,4,2,1,70,0,0
8947,-100,4,1,1,70,0,0
11800,-100,4,1,1,50,0,0
12168,-100,4,1,1,60,0,0
12352,-100,4,1,1,70,0,0
12536,-100,4,1,1,80,0,0
13088,-200,4,2,1,50,0,0
14192,-200,4,2,1,25,0,0
14652,-200,4,2,1,50,0,0
15757,-200,4,2,1,25,0,0
15941,-200,4,2,1,50,0,0
16125,-200,4,2,1,25,0,0
16309,-200,4,2,1,50,0,0
16861,-200,4,2,1,25,0,0
17045,-200,4,2,1,50,0,0
18885,-200,4,2,1,25,0,0
19254,-200,4,2,1,50,0,0
19438,-200,4,2,1,25,0,0
19622,-200,4,2,1,50,0,0
21830,-200,4,2,1,40,0,0
22014,-200,4,2,1,60,0,0
22198,-200,4,2,1,70,0,0
22566,-200,4,2,1,50,0,0
22935,-200,4,2,1,40,0,0
23303,-200,4,2,1,30,0,0
23671,-200,4,2,1,20,0,0
24039,-200,4,2,1,40,0,0
24407,-200,4,2,1,50,0,0
24683,-200,4,2,1,60,0,0
25143,-100,4,1,1,80,0,0
25327,-100,4,1,1,70,0,0
27720,-100,4,1,1,50,0,0
28088,-100,4,1,1,70,0,0
29192,-100,4,1,1,50,0,0
29376,-100,4,1,1,70,0,0
30849,-100,4,1,1,50,0,0
31309,-100,4,1,1,70,0,0
34346,-100,4,1,1,55,0,0
34530,-100,4,1,1,60,0,0
34714,-100,4,1,1,65,0,0
34898,-100,4,1,1,70,0,0
35082,-100,4,1,1,80,0,0
35266,-100,4,1,1,70,0,0
36922,-100,4,1,1,50,0,0
37290,-100,4,1,0,70,0,0
37658,-100,4,1,0,80,0,0
37843,-100,4,1,0,70,0,0
38395,-100,4,1,1,70,0,0
38579,-100,4,1,1,80,0,0
38763,-100,4,1,1,70,0,0
39131,-100,4,1,1,80,0,0
39315,-100,4,1,1,70,0,0
39867,-100,4,1,1,50,0,0
40051,-100,4,1,1,55,0,0
40235,-100,4,1,1,60,0,0
40419,-100,4,1,1,65,0,0
40603,-100,4,1,1,70,0,0
40787,-100,4,1,1,75,0,0
40971,-100,4,1,1,80,0,0
41155,-100,4,1,1,80,0,0
41431,-100,4,1,1,70,0,0
41892,-100,4,1,1,50,0,0
42076,-100,4,1,1,80,0,0
42260,-100,4,1,1,70,0,0
43548,-100,4,1,1,80,0,0
43732,-100,4,1,1,70,0,0
45112,-100,4,1,1,80,0,0
45204,-100,4,1,1,70,0,0
47781,-100,4,1,1,40,0,0
47965,-100,4,1,1,40,0,0
48149,-100,4,1,1,50,0,0
48333,-100,4,1,1,60,0,0
48517,-100,4,1,1,70,0,0
48701,-100,4,1,1,80,0,0
48793,-100,4,1,1,60,0,1
54223,-100,4,1,1,70,0,1
58824,-100,4,1,1,70,0,1
59008,-100,4,1,1,70,0,1
59100,-100,4,1,1,60,0,0
59744,-100,4,1,1,75,0,0
59928,-100,4,1,1,70,0,0
60112,-100,4,1,1,75,0,0
60297,-100,4,1,1,75,0,0
60481,-100,4,1,1,80,0,0
60573,-100,4,1,1,80,0,1
69315,-100,4,1,1,60,0,1
69683,-100,4,1,1,65,0,1
70051,-100,4,1,1,70,0,1
70419,-100,4,1,1,75,0,1
70879,-100,4,1,1,80,0,0
71247,-100,4,1,1,95,0,0
72536,-100,4,1,0,70,0,0
76309,-100,4,1,1,70,0,0
77965,-100,4,1,0,70,0,0

[Colours]
Combo1 : 128,64,0
Combo2 : 128,0,0

[HitObjects]
416,64,941,1,0
368,128,1125,1,0
360,208,1309,1,0
336,280,1493,1,2
336,280,1677,5,0
264,256,1861,1,0
192,256,2045,1,0
120,232,2229,1,2
48,208,2413,5,0
48,208,2597,1,0
40,128,2781,1,0
32,48,2965,1,0
104,80,3149,2,0,B|144:48|192:64,1,90
200,136,3517,2,0,B|160:168|112:152,1,90
256,80,3885,2,0,B|288:168|280:280,1,180,6|0
352,304,4438,1,0
280,336,4622,6,0,B|88:320,1,180
48,256,5174,1,0
136,232,5358,2,0,B|128:184|168:128,1,90
376,152,5726,2,0,B|384:200|344:256,1,90
272,64,6094,5,0
264,80,6186,1,0
256,96,6278,1,0
256,112,6370,1,0
256,128,6462,1,0
264,144,6554,1,0
264,160,6646,1,0
264,176,6738,1,0
256,192,6830,1,0
168,184,7014,5,0
88,160,7198,2,0,B|48:240|56:336,1,180
136,312,7751,1,0
216,352,7935,2,0,B|400:352,1,180
416,280,8487,6,0,B|472:192,1,90
352,192,8855,2,0,B|408:112,1,90,2|0
208,240,9223,2,0,B|264:160,1,90
136,160,9591,2,0,B|208:56,1,90,0|4
256,192,9867,12,0,11616
256,336,11984,5,0
256,320,12076,1,2
256,304,12168,1,0
256,288,12260,1,2
256,272,12352,1,0
256,256,12444,1,2
256,240,12536,1,0
256,224,12628,1,0
416,64,13272,5,0
432,144,13456,2,0,B|440:216|440:248,1,90,4|0
448,304,14008,2,0,B|368:304|304:336,1,135
248,352,14744,1,0
232,272,14928,1,2
200,200,15112,1,0
144,144,15297,1,0
72,120,15481,1,2
40,256,15849,5,0
88,312,16033,1,0
160,344,16217,1,0
232,360,16401,2,0,B|272:336|320:336,1,90,0|2
392,344,16953,1,2
440,280,17137,6,0,B|448:224|440:184,1,90,0|2
72,280,17873,2,0,B|64:224|72:184,1,90,0|2
256,48,18609,2,0,B|264:80|248:152|256:184,1,135,0|2
184,184,19346,5,2
216,256,19530,1,0
288,256,19714,1,0
328,184,19898,1,0
288,112,20082,1,2
216,112,20266,1,0
184,184,20450,5,0
216,256,20634,1,0
152,312,20818,1,2
88,264,21002,1,0
104,184,21186,1,0
136,112,21370,6,0,B|104:80|56:64,1,90
24,128,21922,1,0
16,200,22106,1,0
16,272,22290,6,0,B|48:320|128:352,1,135,0|2
256,344,23027,2,0,B|224:296|144:264,1,135,0|2
280,248,23763,2,0,B|312:296|392:328,1,135,0|2
504,320,24499,2,0,B|472:272|392:240,1,135,0|2
440,120,25235,5,4
360,56,25419,1,0
344,152,25603,1,2
344,152,25695,2,0,B|264:160|208:184,1,135,0|8
128,216,26155,1,0
128,216,26247,1,0
128,216,26339,2,0,B|120:272|136:320,1,90,2|2
384,216,26708,2,0,B|392:272|376:320,1,90,8|2
160,216,27076,2,0,B|152:272|168:320,1,90
352,216,27444,2,0,B|360:272|344:320,1,90,8|2
256,264,27812,5,2
256,248,27904,1,2
256,232,27996,1,2
256,144,28180,2,0,B|208:64|144:160|96:40,1,180,0|8
176,32,28732,2,0,B|176:136|112:208,1,180,2|0
40,208,29284,1,8
88,272,29468,1,2
160,304,29652,6,0,B|256:280|352:312,1,180,0|8
408,336,30204,1,2
480,304,30389,2,0,B|488:208,1,90
408,224,30757,2,0,B|416:128,1,90,8|0
416,120,31033,1,2
416,104,31125,1,2
256,48,31493,5,8
256,48,31585,1,0
256,48,31677,1,0
256,128,31861,1,2
256,208,32045,1,2
256,208,32229,2,0,B|152:208|112:304,1,180,8|0
184,352,32781,5,2
256,288,32965,1,8
328,352,33149,1,2
328,32,33517,1,0
256,96,33701,1,8
184,32,33885,1,0
112,96,34070,6,0,B|80:192|112:272,1,180,2|0
192,240,34622,1,0
256,176,34806,1,0
320,240,34990,1,2
399,272,35174,2,0,B|432:192|400:96,2,180,8|0|8
352,336,36094,5,2
336,336,36186,1,0
320,336,36278,1,0
224,256,36462,1,0
208,256,36554,1,0
192,256,36646,1,0
176,256,36738,1,0
160,256,36830,1,0
64,192,37014,6,8,B|48:96,1,90,2|2
120,48,37382,2,0,B|144:144|248:208,1,180,0|4
288,112,37935,1,0
384,144,38119,1,0
384,248,38303,1,0
384,248,38487,1,2
288,272,38671,1,2
288,272,39039,1,0
200,296,39223,2,0,B|144:224|32:208,1,180,4|0
24,288,39775,1,0
104,320,39959,6,0,B|128:208,1,90,8|0
208,216,40327,2,0,B|240:128,1,90,8|0
320,144,40695,2,0,B|368:56,2,90,8|0|8
424,88,41247,5,4
88,88,41616,1,4
256,352,41984,1,0
256,352,42168,1,4
256,272,42352,5,0
256,256,42444,1,0
256,240,42536,1,0
256,224,42628,1,0
256,208,42720,1,0
256,192,42812,1,0
256,176,42904,2,0,B|256:72,2,90,2|2|2
336,136,43456,1,0
336,224,43640,2,0,B|432:232|464:336,1,180,4|0
360,336,44192,5,0
256,336,44376,1,2
152,336,44560,1,2
256,64,44928,1,2
256,64,45020,1,2
256,64,45112,2,0,B|272:120|240:208|264:272,1,180,4|0
368,264,45665,5,0
368,264,45849,1,0
328,80,46033,1,0
144,120,46217,1,0
184,304,46401,1,0
368,264,46585,1,0
352,256,46677,1,0
336,248,46769,1,0
320,240,46861,1,0
304,232,46953,1,0
288,224,47045,1,0
272,216,47137,1,4
64,64,47873,5,0
160,160,48057,1,0
256,64,48241,1,0
352,160,48425,1,0
448,64,48609,1,0
448,152,48793,6,4,B|448:200|448:272,2,90,4|0|8
368,296,49346,1,2
296,240,49530,2,0,B|312:192|296:144,1,90
216,240,49898,2,0,B|200:192|216:144,1,90,8|0
320,152,50266,2,0,B|336:200|320:248,1,90,0|0
192,152,50634,2,0,B|176:200|192:248,1,90,8|2
346,240,51002,2,0,B|360:200|344:152,1,90,0|0
165,240,51370,2,0,B|152:200|168:152,1,90,8|0
88,136,51738,5,4
104,48,51922,1,0
192,64,52106,1,8
176,152,52290,1,0
256,192,52474,1,0
256,192,52566,2,0,B|264:256|256:336,1,135,0|8
336,336,53027,2,0,B|336:280|328:232,1,90,0|8
181,246,53395,2,0,B|176:280|176:336,1,90,8|0
104,344,53763,1,4
408,344,54131,1,4
448,272,54315,5,0
456,256,54407,1,8
464,240,54499,1,8
432,128,54683,2,0,B|384:232|320:288,1,180,2|0
304,168,55235,2,0,B|252:212|204:316,1,180,2|0
264,48,55787,2,0,B|216:152|152:208,1,180,2|0
136,88,56339,2,0,B|84:132|36:236,1,180,2|0
96,336,57076,6,0,B|192:336,1,90
416,336,57444,2,0,B|320:336,1,90,0|8
96,256,57812,2,0,B|192:256,1,90
416,256,58180,2,0,B|320:256,1,90,0|8
256,208,58548,1,2
256,208,58640,1,2
256,208,58732,1,2
136,192,58916,6,0,B|136:104|256:16|376:104|376:192,1,360,4|8
440,248,59836,2,8,B|360:304,1,90
72,248,60204,2,0,B|152:304,1,90,0|8
256,352,60573,2,0,B|272:296|248:200|264:136,1,180,4|8
184,136,61125,5,2
136,56,61309,1,0
136,56,61401,1,0
136,56,61493,1,0
64,104,61677,1,8
112,184,61861,2,0,B|144:272|152:360,1,180,0|0
216,296,62413,2,0,B|213:251|192:200,1,90,8|0
280,208,62781,2,0,B|292:228|288:256,2,45,2|2|2
384,224,63149,5,8
432,128,63333,1,0
352,64,63517,1,0
256,112,63701,1,0
280,208,63885,2,0,B|240:224|176:216,1,90,8|0
168,120,64254,2,0,B|112:112|56:144,1,90
56,224,64622,1,8
56,224,64806,2,0,B|144:272|192:360,1,180,4|0
456,160,65542,2,0,B|368:112|320:24,1,180,4|0
256,88,66094,5,0
272,104,66186,1,0
288,120,66278,1,0
304,136,66370,1,0
320,152,66462,1,2
384,200,66646,2,8,B|408:304,1,90
352,352,67014,2,0,B|312:296|232:360|208:264,1,180,2|0
280,240,67566,2,0,B|240:160|152:192|136:240,1,180,8|4
96,304,68119,1,0
56,232,68303,1,0
96,160,68487,2,0,B|96:72|176:136|192:8,1,180,2|0
296,64,69039,5,0
384,232,69223,1,0
216,320,69407,1,8
128,152,69591,1,0
328,64,69775,1,8
384,264,69959,1,0
184,320,70143,1,8
128,120,70327,1,0
360,64,70511,1,8
368,80,70603,1,0
376,96,70695,1,0
384,112,70787,1,0
392,128,70879,1,8
400,144,70971,1,0
408,160,71063,1,0
256,192,71247,12,4,72352
352,64,72720,6,0,B|256:96|168:64,1,180,8|0
80,40,73272,1,0
104,136,73456,2,0,B|128:192|80:288|112:328,2,180,8|0|8
208,160,74376,1,0
224,176,74468,1,0
240,192,74560,1,0
280,288,74744,1,0
384,288,74928,1,8
400,304,75020,1,0
416,320,75112,1,0
432,336,75204,1,0
448,352,75297,1,0
472,240,75481,6,0,B|480:136|456:48,1,180
376,72,76033,1,0
288,80,76217,1,0
200,88,76401,1,8
112,96,76585,2,0,B|88:192|112:280,1,180,4|0
216,192,77137,2,0,B|312:192,1,90
401,274,77505,2,0,B|424:192|400:96,1,180
320,120,78057,5,0
304,112,78149,1,0
288,104,78241,2,0,B|208:64,1,90,2|0
272,184,78609,2,0,B|352:144,1,90,8|0
208,272,78978,2,0,B|128:232,1,90
336,352,79346,2,0,B|416:312,1,90,8|0
48,240,79714,6,0,B|16:136|128:96,1,180,0|8
200,64,80266,2,0,B|256:24|280:160|384:104,1,180
336,40,80818,2,0,B|264:216,1,180,8|4
232,280,81370,1,4
328,272,81554,2,0,B|424:224|488:312,1,180,8|0
392,344,82106,1,0
392,344,82290,1,8
288,360,82474,1,0
184,344,82658,5,0
176,328,82751,1,0
168,312,82843,1,0
160,296,82935,1,0
152,280,83027,1,8
144,264,83119,1,0
136,248,83211,1,0
128,232,83303,1,0
120,216,83395,1,0
112,200,83487,1,0
104,184,83579,1,0
176,128,83763,5,8
192,128,83855,1,0
208,128,83947,1,0
224,128,84039,1,0
240,128,84131,2,0,B|336:136|384:240,1,180,0|8
280,224,84683,2,0,B|392:192|384:80,1,180,8|0
344,24,85235,2,0,B|160:24,1,180,8|4
256,192,85695,12,4,88548
