osu file format v13

[General]
AudioFilename: BladeDance.mp3
AudioLeadIn: 1500
PreviewTime: 46758
Countdown: 0
SampleSet: Soft
StackLeniency: 0.5
Mode: 0
LetterboxInBreaks: 0
WidescreenStoryboard: 0

[Editor]
Bookmarks: 24610,25889,47639,55318,68108,88577
DistanceSpacing: 0.8
BeatDivisor: 4
GridSize: 4
TimelineZoom: 1

[Metadata]
Title:Kyoumei No True Force
TitleUnicode:共鳴のTrue Force
Artist:Harada Hitomi
ArtistUnicode:原田ひとみ
Creator:NoHitter
Version:Blade Dance
Source:精霊使いの剣舞
Tags:Seirei Tsukai no Bureidodansu Blade Dance Spirit Elementalist Claire Fianna Rinslet Restia Est Resonance Kamito opening Elementalers Spirit Elementalist kenbu TV size ver version edit
BeatmapID:458221
BeatmapSetID:192725

[Difficulty]
HPDrainRate:7.5
CircleSize:4
OverallDifficulty:8.5
ApproachRate:9
SliderMultiplier:2.12
SliderTickRate:2

[Events]
//Background and Video events
0,0,"bladedance3.jpg",0,0
Video,-500,"bdfinal.AVI"
//Break Periods
//Storyboard Layer 0 (Background)
//Storyboard Layer 1 (Fail)
//Storyboard Layer 2 (Pass)
//Storyboard Layer 3 (Foreground)
//Storyboard Sound Samples
//Background Colour Transformations
3,100,163,162,255

[TimingPoints]
278,320,4,2,0,40,1,0
4918,-100,4,2,0,60,0,0
14358,-100,4,2,0,30,0,0
14678,-100,4,2,0,40,0,0
14998,-100,4,2,0,50,0,0
15318,-100,4,2,0,60,0,0
15638,-100,4,2,0,50,0,0
24758,-100,4,2,0,25,0,0
24918,-100,4,2,0,35,0,0
25238,-100,4,2,0,45,0,0
25558,-100,4,2,0,55,0,0
25878,-100,4,2,0,60,0,0
36118,-200,4,2,0,50,0,0
41238,-100,4,2,0,60,0,0
45078,-100,4,2,0,50,0,0
45558,-100,4,2,0,60,0,0
47638,-100,4,2,0,70,0,1
65558,-80,4,2,0,70,0,1
66518,-66.6666666666667,4,2,0,70,0,1
67478,-100,4,2,0,60,0,1
67958,-100,4,2,0,70,0,0
68118,-100,4,2,0,70,0,1
75798,-100,4,2,0,70,0,1
76758,-80,4,2,0,70,0,1
77718,-100,4,2,0,60,0,1
78358,-100,4,2,0,70,0,1
88278,-100,4,2,0,70,0,0

[Colours]
Combo1 : 255,192,0
Combo2 : 98,28,128
Combo3 : 18,124,255
Combo4 : 242,24,57

[HitObjects]
44,84,278,6,0,P|88:60|156:72,1,106,4|0,1:2|0:0,0:0:0:0:
216,108,598,2,0,P|248:176|184:292,1,212,0|0,0:0|0:0,0:0:0:0:
104,296,1078,1,2,0:0:0:0:
316,100,1398,2,0,P|368:108|424:92,1,106,0|2,0:0|0:0,0:0:0:0:
140,192,1878,2,0,P|88:200|32:184,1,106,0|2,0:0|0:0,0:0:0:0:
320,296,2358,2,0,P|372:304|428:288,1,106,0|2,0:0|0:0,0:0:0:0:
440,140,2838,6,0,P|424:88|444:36,1,106,4|0,1:2|0:0,0:0:0:0:
508,92,3158,1,0,0:0:0:0:
512,100,3318,1,2,0:0:0:0:
320,192,3638,1,0,0:0:0:0:
324,200,3798,1,2,0:0:0:0:
124,124,4118,1,0,0:0:0:0:
128,132,4278,1,2,0:0:0:0:
44,328,4598,1,0,0:0:0:0:
48,336,4758,1,2,0:0:0:0:
120,292,4918,5,4,0:3:0:0:
192,368,5078,1,4,0:3:0:0:
200,228,5238,1,4,0:3:0:0:
276,304,5398,6,0,P|328:324|380:312,1,106,4|0,1:2|0:0,0:0:0:0:
436,252,5718,2,0,P|384:232|332:244,1,106,4|0,1:2|0:0,0:0:0:0:
268,192,6038,1,0,0:0:0:0:
340,148,6198,2,0,P|352:96|324:48,1,106,4|0,1:2|0:0,0:0:0:0:
248,20,6518,1,0,0:0:0:0:
164,124,6678,2,0,L|280:108,1,106,4|0,1:2|0:0,0:0:0:0:
512,8,6998,2,0,L|396:24,1,106,4|0,1:2|0:0,0:0:0:0:
156,24,7318,1,0,0:0:0:0:
84,84,7478,1,0,1:0:0:0:
84,168,7638,2,0,P|92:220|69:266,1,106,4|0,1:2|0:0,0:0:0:0:
16,208,7958,5,0,1:0:0:0:
167,227,8118,1,2,0:0:0:0:
224,286,8278,2,0,P|273:278|324:312,1,106,4|0,1:2|0:0,0:0:0:0:
380,360,8598,1,0,0:0:0:0:
456,328,8758,1,0,1:0:0:0:
444,244,8918,2,0,P|432:194|452:144,1,106,4|0,1:2|0:0,0:0:0:0:
504,76,9238,1,0,1:0:0:0:
504,76,9398,1,0,0:0:0:0:
436,28,9558,2,0,P|375:26|328:18,1,106,4|0,1:2|0:0,0:0:0:0:
158,94,9878,1,0,0:0:0:0:
158,94,10038,1,0,1:0:0:0:
222,148,10198,2,0,P|282:149|330:157,1,106,4|0,1:2|0:0,0:0:0:0:
384,220,10518,6,0,P|396:272|372:328,1,106,0|0,1:0|0:0,0:0:0:0:
448,160,10838,1,4,1:2:0:0:
316,268,10998,2,0,P|264:280|208:256,1,106,0|0,0:0|0:0,0:0:0:0:
448,160,11318,1,0,1:0:0:0:
268,200,11478,2,0,P|256:148|280:92,1,106,4|0,1:2|0:2,0:0:0:0:
344,56,11798,5,4,1:2:0:0:
428,72,11958,1,0,0:0:0:0:
192,104,12118,2,0,L|88:124,1,106,4|0,1:2|0:0,0:0:0:0:
87,124,12438,1,0,0:0:0:0:
56,204,12598,1,0,1:0:0:0:
92,284,12758,2,0,L|196:304,1,106,4|0,1:2|0:0,0:0:0:0:
472,348,13078,5,4,1:2:0:0:
472,348,14358,1,0,1:0:0:0:
476,328,14518,1,2,1:2:0:0:
372,316,14678,1,0,1:0:0:0:
368,276,14838,1,2,1:2:0:0:
260,300,14998,1,0,1:0:0:0:
216,228,15158,1,2,1:2:0:0:
124,304,15318,1,0,1:0:0:0:
36,248,15478,1,2,1:2:0:0:
36,248,15638,6,0,P|48:188|36:144,1,106,2|0,1:2|0:0,0:0:0:0:
128,64,15958,2,0,P|116:124|128:168,1,106,0|0,1:0|0:0,0:0:0:0:
200,116,16278,2,0,L|312:120,1,106,2|0,1:2|0:0,0:0:0:0:
360,44,16598,2,0,L|248:40,1,106,0|0,1:0|0:0,0:0:0:0:
448,76,16918,2,0,P|436:132|448:184,1,106,2|0,1:2|0:0,0:0:0:0:
372,312,17238,2,0,P|384:256|372:204,1,106,0|0,1:0|0:0,0:0:0:0:
308,152,17558,1,0,1:2:0:0:
232,192,17718,1,2,0:0:0:0:
220,276,17878,1,2,1:2:0:0:
280,336,18038,1,0,0:0:0:0:
220,276,18198,5,2,1:2:0:0:
232,192,18358,1,0,0:0:0:0:
308,152,18518,1,0,1:0:0:0:
376,204,18678,1,0,0:0:0:0:
368,288,18838,2,0,P|418:309|470:306,1,106,2|0,1:2|0:0,0:0:0:0:
472,124,19158,2,0,L|456:244,1,106,0|0,1:0|0:0,0:0:0:0:
320,36,19478,2,0,P|372:34|416:65,1,106,2|0,1:2|0:0,0:0:0:0:
344,114,19798,2,0,P|292:116|248:85,1,106,0|0,1:2|0:0,0:0:0:0:
181,32,20118,1,0,1:2:0:0:
96,51,20278,1,2,0:0:0:0:
60,132,20438,1,2,1:2:0:0:
116,196,20598,1,0,0:0:0:0:
200,184,20758,6,0,P|220:232|204:288,1,106,4|0,1:2|0:0,0:0:0:0:
340,132,21078,2,0,P|333:183|291:224,1,106,0|0,1:2|0:0,0:0:0:0:
492,148,21398,2,0,P|460:189|403:203,1,106,2|0,1:2|0:0,0:0:0:0:
472,288,21718,2,0,P|424:307|368:292,1,106,0|0,1:2|0:0,0:0:0:0:
208,352,22038,2,0,P|256:333|312:348,1,106,2|0,1:2|0:0,0:0:0:0:
160,212,22358,2,0,P|211:219|252:260,1,106,0|0,1:2|0:0,2:0:0:0:
184,60,22678,2,0,P|224:92|239:148,1,106,0|2,1:2|0:0,2:0:0:0:
332,64,22998,2,0,P|350:112|335:168,1,106,2|0,1:2|0:0,2:0:0:0:
440,124,23318,5,2,1:2:0:0:
440,124,23478,1,0,0:0:0:0:
332,64,23638,1,0,1:0:0:0:
332,64,23798,1,0,0:0:0:0:
247,141,23958,1,2,1:2:0:0:
247,141,24118,1,0,0:0:0:0:
408,240,24278,1,2,1:2:0:0:
408,240,24438,1,0,0:0:0:0:
288,252,24598,1,0,1:0:0:0:
288,252,24758,5,2,1:2:0:0:
440,124,24918,1,0,1:0:0:0:
247,141,25078,1,2,1:2:0:0:
408,240,25238,1,0,1:0:0:0:
332,64,25398,1,2,1:2:0:0:
288,252,25558,1,0,1:0:0:0:
440,124,25718,1,2,1:2:0:0:
247,141,25878,6,0,L|139:121,1,106,4|0,1:0|0:0,0:0:0:0:
56,152,26198,1,2,1:2:0:0:
98,232,26358,2,0,P|117:288|95:346,1,106,0|2,0:0|0:0,0:0:0:0:
31,287,26678,1,0,1:0:0:0:
192,284,26838,1,0,1:0:0:0:
248,348,26998,2,0,P|303:360|363:354,1,106,0|0,0:0|1:0,0:0:0:0:
424,308,27318,1,0,0:0:0:0:
348,272,27478,1,2,1:2:0:0:
416,220,27638,2,0,P|408:164|420:104,1,106,0|0,0:0|0:0,0:0:0:0:
488,68,27958,1,2,1:2:0:0:
496,152,28118,1,2,1:2:0:0:
412,32,28278,1,2,0:0:0:0:
340,72,28438,6,0,P|288:88|232:76,1,106,4|0,1:0|0:0,0:0:0:0:
168,28,28758,1,0,1:0:0:0:
160,112,28918,1,0,0:0:0:0:
296,168,29078,2,0,P|249:196|192:199,1,106,2|0,0:2|1:0,0:0:0:0:
116,180,29398,1,0,1:0:0:0:
140,260,29558,1,2,0:0:0:0:
276,276,29718,2,0,P|250:324|202:355,1,106,2|0,1:2|0:0,0:0:0:0:
128,380,30038,1,0,1:0:0:0:
48,352,30198,1,2,0:0:0:0:
32,268,30358,2,0,L|16:156,1,106,0|0,0:0|1:0,0:0:0:0:
216,280,30678,2,0,L|232:392,1,106,2|2,1:2|0:0,0:0:0:0:
312,328,30998,6,0,P|368:332|424:316,1,106,4|0,1:0|0:0,0:0:0:0:
472,256,31318,1,0,1:0:0:0:
404,204,31478,1,0,0:0:0:0:
472,156,31638,2,0,P|464:104|472:52,1,106,2|0,0:0|1:0,0:0:0:0:
392,20,31958,1,0,1:0:0:0:
320,64,32118,1,0,0:0:0:0:
244,24,32278,1,2,1:2:0:0:
160,36,32438,1,0,0:0:0:0:
116,108,32598,1,0,1:0:0:0:
144,188,32758,1,2,0:0:0:0:
116,108,32918,1,0,0:0:0:0:
160,36,33078,1,2,1:2:0:0:
244,24,33238,1,2,1:2:0:0:
320,64,33398,1,0,0:0:0:0:
332,148,33558,22,0,P|318:214|284:247,1,106,4|0,1:0|0:0,0:0:0:0:
332,148,34838,2,0,P|345:81|379:48,1,106,4|0,1:0|1:0,0:0:0:0:
456,48,35158,1,0,3:3:0:0:
496,124,35318,1,2,3:2:0:0:
460,200,35478,1,0,3:0:0:0:
376,220,35638,1,0,1:0:0:0:
456,48,35798,1,4,1:2:0:0:
50,194,36118,6,0,P|66:144|64:92,1,106,2|0,1:2|0:0,0:0:0:0:
129,32,36598,1,0,1:0:0:0:
201,78,36758,2,0,P|280:93|313:88,1,106,2|0,1:2|0:0,0:0:0:0:
380,50,37238,1,0,1:2:0:0:
444,108,37398,2,0,P|451:164|429:223,1,106,0|2,1:0|0:0,0:0:0:0:
366,257,37878,2,0,P|359:201|380:142,1,106,0|2,1:0|0:0,0:0:0:0:
304,95,38358,1,0,0:0:0:0:
220,88,38518,1,0,0:0:0:0:
148,132,38678,6,0,L|40:140,1,106,0|0,1:0|0:0,0:0:0:0:
204,192,39158,2,0,L|312:184,1,106,2|0,1:2|0:0,0:0:0:0:
396,176,39638,1,2,0:0:0:0:
464,224,39798,2,0,P|464:280|476:336,1,106,0|0,1:0|0:0,0:0:0:0:
396,368,40278,1,2,0:0:0:0:
316,336,40438,2,0,P|256:324|204:344,1,106,0|0,1:0|1:0,0:0:0:0:
136,368,40918,1,2,0:0:0:0:
60,328,41078,1,0,0:0:0:0:
60,244,41238,6,0,L|72:132,1,106,4|0,1:0|0:0,0:0:0:0:
160,84,41558,2,0,L|148:196,1,106,0|0,1:0|0:0,0:0:0:0:
228,260,41878,1,0,1:0:0:0:
252,180,42038,1,0,0:0:0:0:
328,140,42198,1,2,1:2:0:0:
408,172,42358,1,0,0:0:0:0:
448,248,42518,2,0,B|456:344|456:344|404:376|332:352,1,212,2|0,1:2|1:0,0:0:0:0:
56,244,42998,2,0,B|48:148|48:148|100:116|172:140,1,212,2|0,1:2|1:0,0:0:0:0:
256,252,43478,1,0,1:0:0:0:
400,260,43638,6,0,P|460:240|488:192,1,106,4|0,1:2|0:0,0:0:0:0:
488,120,43958,1,0,1:0:0:0:
420,72,44118,1,0,1:0:0:0:
336,80,44278,1,0,1:0:0:0:
284,144,44438,1,0,1:0:0:0:
204,172,44598,1,0,1:0:0:0:
128,136,44758,1,0,1:0:0:0:
104,56,44918,1,0,1:0:0:0:
180,16,45078,5,6,1:2:0:0:
340,252,45238,1,6,1:2:0:0:
140,216,45398,1,6,1:2:0:0:
364,52,45558,1,6,1:2:0:0:
368,56,45878,5,0,1:0:0:0:
460,136,46038,1,0,1:0:0:0:
428,256,46198,1,6,1:2:0:0:
120,340,46838,6,0,L|12:356,2,106,0|0|0,0:0|0:0|0:0,0:0:0:0:
184,284,47318,1,0,0:0:0:0:
116,232,47478,1,0,0:0:0:0:
176,172,47638,6,0,P|228:156|264:112,1,106,4|0,1:2|0:0,0:0:0:0:
388,208,47958,2,0,P|338:224|288:212,1,106,2|2,1:2|0:0,0:0:0:0:
336,304,48278,2,0,P|375:341|431:350,1,106,0|0,1:2|0:0,0:0:0:0:
504,316,48598,1,0,1:0:0:0:
472,236,48758,2,0,P|464:176|476:120,1,106,2|0,0:2|1:0,0:0:0:0:
508,56,49078,1,0,0:0:0:0:
424,36,49238,2,0,P|368:40|312:36,1,106,0|2,1:0|0:0,0:0:0:0:
236,12,49558,1,0,1:0:0:0:
176,72,49718,1,2,0:0:0:0:
228,140,49878,1,0,1:0:0:0:
312,120,50038,1,2,0:0:0:0:
176,72,50198,6,0,P|112:76|72:104,1,106,6|0,1:2|0:0,1:0:0:0:
40,172,50518,1,0,1:0:0:0:
96,236,50678,2,0,P|108:292|88:348,1,106,2|0,0:0|1:0,0:0:0:0:
26,286,50998,1,0,0:0:0:0:
180,238,51158,2,0,P|234:224|288:246,1,106,2|0,1:2|0:0,0:0:0:0:
442,288,51478,2,0,P|388:302|334:280,1,106,0|0,1:2|0:0,0:0:0:0:
391,111,51798,2,0,P|383:163|393:215,1,106,0|0,1:0|0:0,0:0:0:0:
295,145,52118,2,0,P|303:89|291:33,1,106,2|0,1:2|0:0,0:0:0:0:
213,18,52438,1,2,1:2:0:0:
136,59,52598,1,2,0:0:0:0:
124,144,52758,6,0,P|136:184|112:252,1,106,4|0,1:2|0:0,0:0:0:0:
393,244,53078,2,0,P|375:194|388:144,1,106,0|0,1:0|0:0,0:0:0:0:
208,256,53398,2,0,P|192:306|148:344,1,106,2|0,1:2|0:0,2:0:0:0:
358,339,53718,2,0,P|319:306|304:252,1,106,2|2,1:2|0:0,2:0:0:0:
256,184,54038,1,2,1:2:0:0:
304,112,54198,1,0,0:0:0:0:
256,44,54358,1,0,1:0:0:0:
208,112,54518,1,0,0:0:0:0:
304,112,54678,2,0,L|420:92,1,106,2|0,1:2|0:0,0:0:0:0:
208,112,54998,2,0,L|88:92,1,106,2|2,1:2|0:0,0:0:0:0:
44,156,55318,5,4,1:2:0:0:
20,236,55478,1,0,0:0:0:0:
72,300,55638,1,2,1:2:0:0:
156,316,55798,2,0,P|208:308|264:320,1,106,2|0,0:2|1:0,0:0:0:0:
336,352,56118,1,0,0:0:0:0:
416,320,56278,2,0,P|440:272|436:220,1,106,2|0,1:2|0:0,0:0:0:0:
492,160,56598,2,0,P|444:136|393:149,1,106,0|2,1:0|0:0,0:0:0:0:
336,88,56918,2,0,P|312:136|324:188,1,106,0|0,1:0|0:0,1:0:0:0:
256,232,57238,1,2,1:2:0:0:
184,188,57398,2,0,L|72:200,2,106,0|0|0,0:0|1:0|0:0,0:0:0:0:
256,232,57878,5,4,1:0:0:0:
320,288,58038,2,0,P|368:308|432:300,1,106,0|0,0:0|1:0,0:0:0:0:
496,260,58358,1,2,0:0:0:0:
436,200,58518,1,2,1:2:0:0:
504,148,58678,1,2,0:0:0:0:
440,92,58838,1,0,1:0:0:0:
364,128,58998,2,0,L|252:132,1,106,2|0,0:0|1:0,0:0:0:0:
184,92,59318,1,2,0:0:0:0:
112,136,59478,1,2,1:2:0:0:
92,220,59638,1,2,0:0:0:0:
144,288,59798,1,0,1:0:0:0:
92,220,59958,1,2,0:0:0:0:
112,136,60118,1,2,1:2:0:0:
184,92,60278,1,2,0:0:0:0:
256,136,60438,5,4,1:0:0:0:
300,208,60598,2,0,P|312:264|296:312,2,106,2|2|2,0:0|1:2|0:0,0:0:0:0:
256,136,61078,1,0,1:0:0:0:
300,64,61238,1,0,0:0:0:0:
380,40,61398,1,0,1:0:0:0:
452,84,61558,2,0,P|437:134|449:185,1,106,2|0,0:2|1:2,0:0:0:0:
480,264,61878,1,2,0:0:0:0:
432,336,62038,1,0,1:0:0:0:
348,352,62198,1,2,0:0:0:0:
280,300,62358,1,2,1:2:0:0:
348,352,62518,1,2,0:0:0:0:
432,336,62678,1,0,1:0:0:0:
480,264,62838,1,2,0:0:0:0:
453,173,62998,6,0,P|441:121|465:61,1,106,4|0,1:0|0:0,0:0:0:0:
253,209,63318,2,0,P|265:261|241:321,2,106,0|2|2,1:0|0:0|1:2,0:0:0:0:
197,149,63798,1,0,0:0:0:0:
49,233,63958,2,0,L|173:221,1,106,2|0,1:2|0:0,0:0:0:0:
341,197,64278,1,0,1:0:0:0:
409,149,64438,1,0,0:0:0:0:
477,201,64598,1,0,1:0:0:0:
449,281,64758,1,0,0:0:0:0:
365,281,64918,2,0,P|341:329|353:381,2,106,2|0|2,1:2|0:0|1:2,0:0:0:0:
341,197,65398,1,0,0:0:0:0:
409,149,65558,6,0,P|441:89|425:21,1,132.5,4|0,1:2|0:0,0:0:0:0:
334,75,65878,1,0,1:0:0:0:
253,0,66038,2,0,P|221:56|232:120,1,132.5,4|0,1:2|0:0,0:0:0:0:
334,75,66358,1,0,1:0:0:0:
288,256,66518,6,0,P|232:312|156:320,1,159.000006065369,4|0,1:2|0:0,0:0:0:0:
168,184,66838,1,0,1:0:0:0:
52,112,66998,2,0,P|108:56|184:48,1,159.000006065369,4|0,1:2|0:0,0:0:0:0:
168,184,67318,1,0,1:0:0:0:
324,128,67478,5,4,1:2:0:0:
380,284,67638,1,4,1:2:0:0:
224,340,67798,1,4,1:2:0:0:
168,184,67958,1,4,1:2:0:0:
424,188,68118,6,0,P|468:156|480:100,1,106,4|0,1:2|0:0,0:0:0:0:
468,24,68438,1,0,1:0:0:0:
384,40,68598,2,0,L|264:32,1,106,2|0,0:0|1:0,0:0:0:0:
208,84,68918,1,0,0:0:0:0:
136,132,69078,2,0,L|16:120,2,106,0|2|0,1:0|0:0|1:0,0:0:0:0:
172,208,69558,1,0,0:0:0:0:
120,276,69718,2,0,P|104:333|121:375,1,106,0|2,1:0|0:0,0:0:0:0:
188,324,70038,1,0,1:0:0:0:
260,280,70198,1,2,0:0:0:0:
336,316,70358,1,0,1:0:0:0:
404,264,70518,1,2,0:0:0:0:
479,310,70678,6,0,P|494:255|476:212,1,106,2|0,1:2|0:0,0:0:0:0:
396,176,70998,1,0,1:0:0:0:
216,224,71158,2,0,L|336:212,1,106,2|0,0:0|1:0,0:0:0:0:
396,176,71478,1,0,0:0:0:0:
464,24,71638,2,0,P|480:80|464:124,1,106,2|0,1:2|0:0,0:0:0:0:
396,176,71958,1,0,1:0:0:0:
328,124,72118,1,0,0:0:0:0:
396,76,72278,1,0,1:0:0:0:
324,32,72438,1,2,0:0:0:0:
252,84,72598,2,0,L|128:88,2,106,0|2|2,1:0|0:0|1:2,0:0:0:0:
328,124,73078,1,2,0:0:0:0:
272,188,73238,6,0,P|259:244|281:295,1,106,4|0,1:2|0:0,0:0:0:0:
344,236,73558,1,0,1:0:0:0:
412,184,73718,1,2,0:0:0:0:
408,100,73878,2,0,P|420:44|398:-8,1,106,0|2,1:0|0:0,0:0:0:0:
336,52,74198,1,2,1:2:0:0:
264,96,74358,2,0,L|148:108,1,106,2|0,0:2|1:0,0:0:0:0:
84,152,74678,1,2,0:0:0:0:
80,236,74838,1,0,1:0:0:0:
152,280,74998,1,2,0:0:0:0:
208,216,75158,1,2,1:2:0:0:
268,276,75318,1,2,0:0:0:0:
328,216,75478,2,0,P|380:208|436:236,1,106,0|2,1:0|0:0,0:0:0:0:
496,296,75798,6,0,L|512:184,1,106,4|0,1:2|0:0,0:0:0:0:
492,108,76118,1,0,1:0:0:0:
428,228,76278,2,0,L|414:115,1,106,4|0,0:0|1:0,0:0:0:0:
376,48,76598,1,0,0:0:0:0:
344,180,76758,6,0,L|289:50,1,132.5,4|0,1:2|0:0,0:0:0:0:
233,0,77078,1,0,1:0:0:0:
244,152,77238,2,0,L|161:43,1,132.5,4|0,0:2|1:0,0:0:0:0:
88,24,77558,1,0,0:0:0:0:
68,97,77718,5,4,0:2:0:0:
12,276,77958,1,4,0:2:0:0:
200,232,78198,1,4,0:2:0:0:
116,304,78358,6,0,P|160:336|216:340,1,106,4|0,1:2|0:0,0:0:0:0:
288,304,78678,1,2,1:2:0:0:
368,332,78838,1,0,0:0:0:0:
440,288,78998,2,0,P|464:232|444:176,1,106,2|2,1:2|0:0,0:0:0:0:
392,132,79318,2,0,P|368:188|388:244,1,106,0|0,1:2|0:0,0:0:0:0:
356,48,79638,2,0,L|216:40,1,106,2|0,1:2|0:0,0:0:0:0:
192,116,79958,2,0,L|332:124,1,106,0|2,1:0|0:0,0:0:0:0:
329,203,80278,1,0,1:0:0:0:
243,200,80438,1,2,0:0:0:0:
283,274,80598,2,0,P|294:327|274:373,1,106,2|0,1:2|0:0,0:0:0:0:
184,376,80918,5,4,1:0:0:0:
184,376,81078,1,0,0:0:0:0:
120,320,81238,2,0,L|8:308,1,106,2|0,1:2|0:0,0:0:0:0:
72,236,81558,2,0,L|184:248,1,106,2|2,1:2|0:0,0:0:0:0:
136,168,81878,1,0,1:0:0:0:
76,108,82038,1,0,0:0:0:0:
116,32,82198,1,2,1:2:0:0:
200,44,82358,1,0,0:0:0:0:
216,128,82518,1,0,1:0:0:0:
200,44,82678,1,2,0:0:0:0:
116,32,82838,1,0,1:0:0:0:
76,108,82998,1,0,0:0:0:0:
136,168,83158,1,2,1:2:0:0:
216,128,83318,1,0,0:0:0:0:
296,156,83478,6,0,L|420:144,1,106,4|0,1:0|0:0,0:0:0:0:
468,92,83798,1,0,0:0:0:0:
252,240,83958,2,0,L|376:228,1,106,4|0,1:0|0:0,0:0:0:0:
468,92,84278,1,0,0:0:0:0:
208,324,84438,2,0,L|332:312,1,106,4|0,1:0|0:0,0:0:0:0:
468,92,84758,1,0,1:0:0:0:
484,176,84918,1,0,0:0:0:0:
496,260,85078,1,0,1:0:0:0:
504,268,85398,1,0,1:0:0:0:
436,336,85718,2,0,L|320:348,1,106,0|0,1:0|1:0,0:0:0:0:
248,320,86038,5,4,0:0:0:0:
168,296,86198,1,0,1:0:0:0:
92,332,86358,1,0,1:0:0:0:
64,200,86518,5,4,0:0:0:0:
48,116,86678,1,0,1:0:0:0:
128,140,86838,1,0,1:0:0:0:
232,64,86998,5,4,0:0:0:0:
312,40,87158,1,0,1:0:0:0:
388,80,87318,1,0,1:0:0:0:
448,180,87478,5,4,0:0:0:0:
436,264,87638,1,0,1:0:0:0:
368,212,87798,1,0,1:0:0:0:
512,232,87958,5,4,1:2:0:0:
48,172,88278,1,4,1:0:0:0:
