osu file format v9

[General]
AudioFilename: lovekamii.mp3
AudioLeadIn: 0
PreviewTime: 89320
Countdown: 0
SampleSet: Soft
StackLeniency: 0.7
Mode: 0
LetterboxInBreaks: 1

[Editor]
DistanceSpacing: 1
BeatDivisor: 4
GridSize: 8

[Metadata]
Title:Haruiro (Short Ver.)
Artist:Harada Hitomi
Creator:Hinacle
Version:Normal
Source:Love Kami
Tags:

[Difficulty]
HPDrainRate:2
CircleSize:4
OverallDifficulty:2
ApproachRate:4
SliderMultiplier:1.2
SliderTickRate:1

[Events]
//Background and Video events
Video,0,"lovekamii.flv"
0,0,"lovekamii.jpg"
//Break Periods
//Storyboard Layer 0 (Background)
//Storyboard Layer 1 (Fail)
//Storyboard Layer 2 (Pass)
//Storyboard Layer 3 (Foreground)
//Storyboard Sound Samples
//Background Colour Transformations
3,100,163,162,255

[TimingPoints]
28507,322.58064516129,4,2,1,40,1,0
29716,-100,4,1,1,50,0,0
31006,-100,4,1,1,60,0,0
46490,-100,4,1,1,5,0,0
48587,-100,4,1,1,50,0,0
64555,-100,4,1,1,55,0,0
67136,-100,4,1,1,60,0,0
69716,-100,4,1,1,55,0,0
87619,-100,4,1,1,5,0,0
89877,-100,4,1,1,60,0,0
90442,-100,4,1,1,70,0,1
105845,-100,4,1,1,60,0,1
107136,-100,4,1,1,65,0,1
108426,-100,4,1,1,70,0,1
111006,-100,4,1,1,5,0,1
113103,-100,4,1,1,70,0,1
113668,-100,4,1,1,60,0,0
130361,-100,4,1,1,5,0,0

[Colours]
Combo1 : 208,206,255
Combo2 : 188,254,218
Combo3 : 255,253,166
Combo4 : 252,210,255

[HitObjects]
256,112,28506,1,0
344,192,28829,1,0
256,272,29152,1,0
168,192,29474,1,0
168,72,29797,6,0,B|88:72,2,60,4|0|8
288,72,30442,1,0
288,72,30765,1,8
408,72,31087,6,0,B|432:128|408:192,1,120,4|8
288,192,31732,2,0,B|232:176|168:192,1,120,0|8
48,192,32377,2,0,B|32:248|48:312,2,120,0|8|0
48,72,33345,1,8
168,72,33668,6,0,B|232:64|288:72,1,120,0|8
408,72,34313,1,0
408,192,34636,1,8
408,312,34958,6,0,B|344:320|288:312,1,120,0|8
168,312,35603,1,0
48,312,35926,1,8
48,192,36248,6,0,B|56:136|40:120|48:72,2,120,4|8|0
168,192,37216,1,8
288,192,37539,2,0,B|280:248|296:264|288:312,2,120,0|8|0
408,192,38507,1,8
408,72,38829,5,0
288,96,39152,1,8
168,72,39474,1,0
48,96,39797,1,8
48,152,39958,2,0,B|16:248|80:320,1,180,4|8
200,328,40765,2,0,B|264:320|320:328,1,120,0|8
440,328,41410,5,4
440,208,41732,1,8
320,208,42055,2,0,B|200:208,1,120,0|8
80,208,42700,5,0
80,88,43023,1,8
200,88,43345,2,0,B|320:88,1,120,0|8
440,88,43990,6,0,B|456:144|440:208,1,120,0|8
432,328,44636,2,0,B|376:344|312:328,1,120,0|8
192,328,45281,2,0,B|176:272|192:208,1,120,0|8
200,88,45926,2,0,B|256:72|320:88,1,120,0|8
256,192,46571,12,0,48507
216,152,49152,6,0,B|152:136|96:152,1,120,4|8
96,272,49797,2,0,B|160:288|216:272,1,120,0|8
336,272,50442,1,0
432,200,50765,1,8
336,128,51087,1,0
240,200,51410,1,8
144,272,51732,6,0,B|88:296|24:296,2,120,0|8|0
144,152,52700,1,8
216,56,53023,2,0,B|272:40|336:56,1,120,0|8
456,56,53668,2,0,B|472:112|456:184,1,120,0|8
384,272,54313,5,4
264,272,54636,2,0,B|144:272,1,120,8|0
24,272,55281,1,8
24,152,55603,1,0
144,152,55926,2,0,B|264:152,1,120,8|0
384,152,56571,1,8
384,272,56894,5,0
288,344,57216,1,8
192,272,57539,1,0
288,200,57861,1,8
384,128,58184,2,0,B|448:112|480:48,2,120,0|8|0
288,56,59152,1,8
192,128,59474,6,0,B|128:144|96:208,2,120,4|8|0
288,200,60442,1,8
408,200,60765,2,0,B|424:256|408:320,1,120,0|8
288,320,61410,2,0,B|232:336|168:320,1,120,0|8
48,320,62055,5,0
48,200,62377,1,8
48,80,62700,2,0,B|112:64|176:80,1,120,0|8
288,80,63345,1,0
408,104,63668,1,8
384,224,63990,1,0
264,200,64313,1,8
144,176,64636,6,0,B|80:160|24:176,1,120,4|8
24,296,65281,2,0,B|88:312|144:296,1,120,0|8
264,296,65926,2,0,B|328:312|384:296,1,120,4|8
384,176,66571,2,0,B|320:160|264:176,1,120,0|8
144,176,67216,5,4
24,152,67539,1,8
48,32,67861,1,0
168,56,68184,1,8
288,80,68507,2,0,B|360:80|432:144|360:208|288:208,1,240
168,216,69474,1,8
48,232,69797,6,0,B|32:288|48:352,2,120,0|8|0
48,112,70765,1,8
168,112,71087,2,0,B|232:96|296:112,1,120,0|8
408,112,71732,2,0,B|424:176|408:240,1,120,0|8
288,232,72377,6,0,B|272:296|288:360,2,120,0|8|0
288,112,73345,1,8
168,112,73668,2,0,B|104:96|40:112,2,120,0|8|0
168,232,74636,1,8
168,352,74958,6,0,B|288:352,1,120,0|8
408,352,75603,2,0,B|408:224,1,120,0|8
408,112,76248,2,0,B|344:96|288:112,1,120,0|8
168,112,76894,2,0,B|152:176|168:232,1,120,0|8
288,232,77539,5,0
408,232,77861,1,8
408,352,78184,1,0
288,352,78507,1,8
288,232,78829,2,0,B|288:96,1,120,0|8
168,112,79474,2,0,B|48:112,1,120,0|8
48,232,80119,5,4
48,352,80442,1,8
168,352,80765,1,0
168,232,81087,1,8
168,176,81248,2,0,B|184:80|288:56,1,180,4|8
408,56,82055,1,0
408,176,82377,1,8
408,296,82700,6,0,B|344:304|272:296,1,120,4|8
168,296,83345,1,0
48,296,83668,1,8
48,240,83829,2,0,B|64:160|32:136|48:56,1,180,4|8
168,56,84636,2,0,B|232:48|296:56,1,120,0|8
408,56,85281,5,0
464,160,85603,1,8
408,264,85926,2,0,B|360:288|288:288,1,120,0|8
168,288,86571,1,0
112,184,86894,1,8
168,80,87216,2,0,B|216:56|288:56,1,120,0|8
256,192,87861,12,0,89797
216,96,90442,5,4
192,216,90765,1,8
312,240,91087,1,0
336,120,91410,1,8
216,96,91732,2,0,B|160:88|96:96,1,120,0|8
96,216,92377,2,0,B|88:272|96:336,1,120,0|8
216,336,93023,6,0,B|280:344|344:336,2,120,0|8|0
216,216,93990,1,8
216,96,94313,2,0,B|160:88|96:96,2,120,0|8|0
336,96,95281,1,8
456,96,95603,6,0,B|464:152|456:216,1,120,4|8
456,336,96248,2,0,B|400:344|336:336,1,120,0|8
216,336,96894,2,0,B|208:280|216:216,1,120,0|8
216,96,97539,2,0,B|272:88|336:96,1,120,0|8
336,216,98184,6,0,B|344:272|328:288|336:336,2,120,0|8|0
216,216,99152,1,8
96,216,99474,2,0,B|88:272|104:288|96:336,2,120,0|8|0
216,216,100442,1,8
216,96,100765,6,0,B|272:80|336:96,1,120,4|8
456,96,101410,1,0
456,216,101732,1,8
456,336,102055,2,0,B|400:344|336:336,1,120,0|8
216,336,102700,1,0
96,336,103023,1,8
96,216,103345,6,0,B|80:152|96:88,1,120,0|8
216,96,103990,2,0,B|232:160|216:224,1,120,0|8
216,336,104636,2,0,B|280:352|336:336,1,120,0|8
456,336,105281,2,0,B|472:280|456:216,1,120,0|8
448,96,105926,6,0,B|328:64|208:96,1,240,4|0
88,96,106894,1,8
88,216,107216,6,0,B|208:248|328:216,1,240,4|0
448,216,108184,1,8
448,336,108506,6,0,B|328:368|208:336,1,240,4|0
88,336,109474,1,8
88,216,109797,5,0
88,96,110119,1,8
208,96,110442,1,0
208,216,110765,1,8
256,192,111087,12,0,113023
208,192,113668,6,0,B|144:184|88:192,1,120,0|8
88,312,114313,2,0,B|152:320|208:312,1,120,0|8
328,312,114958,2,0,B|344:248|328:184,1,120,0|8
328,72,115603,1,0
208,72,115926,1,8
88,72,116248,6,0,B|72:128|88:192,1,120,4|8
88,312,116894,2,0,B|152:328|216:312,1,120,0|8
328,312,117539,2,0,B|392:328|448:312,1,120,0|8
448,192,118184,1,0
448,72,118506,1,8
328,72,118829,6,0,B|272:64|264:80|208:72,2,120,4|8|0
328,192,119797,1,8
208,192,120119,2,0,B|216:248|200:264|208:312,2,120,0|8|0
88,192,121087,1,8
88,72,121410,6,0,B|144:56|216:72,1,120,4|8
328,72,122055,2,0,B|344:128|328:200,1,120,0|8
328,312,122700,1,0
208,336,123023,1,8
144,232,123345,1,0
264,208,123668,1,8
328,312,123990,6,0,B|392:328|456:312,1,120,4|8
448,192,124636,1,0
448,72,124958,1,8
328,72,125281,2,0,B|264:56|200:72,1,120,0|8
88,72,125926,1,0
88,192,126248,1,8
88,312,126571,6,0,B|152:328|216:312,1,120,4|8
328,312,127216,2,0,B|344:248|328:184,1,120,0|8
328,72,127861,2,0,B|264:56|200:72,1,120,0|8
88,72,128506,2,0,B|72:136|88:200,1,120,0|8
208,192,129152,6,0,B|280:192,1,60,0|0
392,192,129636,1,0
392,312,129958,2,0,B|328:312,1,60,4|4
256,192,130442,12,0,133023
256,192,133345,12,0,138345
