osu file format v9

[General]
AudioFilename: lovekamii.mp3
AudioLeadIn: 0
PreviewTime: 89320
Countdown: 0
SampleSet: Soft
StackLeniency: 0.7
Mode: 0
LetterboxInBreaks: 1

[Editor]
DistanceSpacing: 1
BeatDivisor: 4
GridSize: 4

[Metadata]
Title:Haruiro (Short Ver.)
Artist:Harada Hitomi
Creator:Hinacle
Version:Insane
Source:Love Kami
Tags:

[Difficulty]
HPDrainRate:7
CircleSize:4
OverallDifficulty:7
ApproachRate:8
SliderMultiplier:1.8
SliderTickRate:0.5

[Events]
//Background and Video events
Video,0,"lovekamii.flv"
0,0,"lovekamii.jpg"
//Break Periods
//Storyboard Layer 0 (Background)
//Storyboard Layer 1 (Fail)
//Storyboard Layer 2 (Pass)
//Storyboard Layer 3 (Foreground)
//Storyboard Sound Samples
//Background Colour Transformations
3,100,163,162,255

[TimingPoints]
28507,322.58064516129,4,2,1,40,1,0
29716,-100,4,1,1,50,0,0
31006,-100,4,1,1,60,0,0
45200,-100,4,1,1,30,0,0
45361,-100,4,1,1,40,0,0
45523,-100,4,1,1,50,0,0
45684,-100,4,1,1,60,0,0
47619,-100,4,1,1,5,0,0
49071,-100,4,1,1,50,0,0
54071,-100,4,1,1,55,0,0
54232,-100,4,1,1,50,0,0
59232,-100,4,1,1,55,0,0
59394,-100,4,1,1,50,0,0
64555,-100,4,1,1,55,0,0
67136,-100,4,1,1,60,0,0
69716,-100,4,1,1,55,0,0
80039,-100,4,1,1,60,0,0
84232,-100,4,1,1,56,0,0
84394,-100,4,1,1,52,0,0
84555,-100,4,1,1,48,0,0
84716,-100,4,1,1,44,0,0
84877,-100,4,1,1,40,0,0
85039,-100,4,1,1,36,0,0
85200,-100,4,1,1,60,0,0
89394,-100,4,1,1,55,0,0
89716,-100,4,1,1,50,0,0
90039,-100,4,1,1,45,0,0
90442,-100,4,1,1,70,0,1
94555,-100,4,1,1,60,0,1
94877,-100,4,1,1,50,0,1
95200,-100,4,1,1,40,0,1
95523,-100,4,1,1,70,0,1
99716,-100,4,1,1,60,0,1
100039,-100,4,1,1,50,0,1
100361,-100,4,1,1,40,0,1
100684,-100,4,1,1,70,0,1
105845,-100,4,1,1,55,0,1
107136,-100,4,1,1,60,0,1
108426,-100,4,1,1,65,0,1
109716,-100,4,1,1,70,0,1
113668,-100,4,1,1,60,0,0
130361,-100,4,1,1,5,0,0

[Colours]
Combo1 : 208,206,255
Combo2 : 188,254,218
Combo3 : 255,253,166
Combo4 : 252,210,255

[HitObjects]
256,64,28506,1,0
104,192,28829,1,0
256,320,29152,1,0
408,192,29474,1,0
256,64,29797,6,0,B|216:48|168:48,1,90,4|0
76,48,30119,2,0,B|60:88|60:136,1,90,8|0
56,228,30442,2,0,B|96:248|144:252,1,90,0|0
232,252,30765,1,8
320,240,30926,1,0
408,252,31087,6,0,B|476:180|440:72,2,180,4|8|0
344,316,31894,1,0
256,336,32055,2,0,B|212:352|156:344,1,90,8|0
76,336,32377,2,0,B|12:272|32:168,1,180,4|8
192,88,32861,2,0,B|256:152|236:256,1,180,4|0
160,304,33345,1,8
160,304,33506,1,0
76,336,33668,6,0,B|12:272|32:168,1,180,4|8
44,80,34152,2,0,B|80:56|128:48,1,90
216,52,34474,2,0,B|264:64|316:52,1,90,0|8
396,44,34797,2,0,B|464:112|432:220,1,180
404,296,35281,2,0,B|364:312|316:312,1,90,8|0
208,232,35603,2,0,B|248:216|296:216,1,90
220,328,35926,2,0,B|180:344|132:344,1,90,8|0
44,336,36248,6,0,B|8:248|36:160,1,180,4|8
72,76,36732,2,0,B|112:56|160:64,1,90
248,80,37055,2,0,B|252:116|244:136|248:172,2,90,0|8|0
332,52,37539,2,0,B|376:40|424:40,1,90
492,144,37861,2,0,B|448:156|400:156,1,90,8|0
312,160,38184,2,0,B|216:124|136:176,1,180,0|8
56,208,38668,5,0
56,208,38748,1,0
56,208,38829,2,0,B|36:164|36:112,1,90
32,32,39152,2,0,B|76:20|124:28,1,90,8|0
236,48,39474,5,0
236,48,39636,1,0
348,84,39797,5,8
348,84,39958,2,0,B|400:160|348:260,1,180,0|0
308,336,40442,5,2
324,184,40603,1,0
404,316,40765,1,2
264,256,40926,1,0
412,220,41087,1,2
308,336,41248,1,0
324,184,41410,6,0,B|248:125|153:147,1,180,4|8
64,160,41894,2,0,B|48:204|48:252,1,90,0|0
44,340,42216,2,0,B|88:352|132:348,1,90,0|8
224,340,42539,1,0
312,348,42700,6,0,B|376:284|356:180,1,180,4|8
184,140,43184,2,0,B|120:204|140:308,1,180,4|0
224,340,43668,1,8
224,340,43829,1,0
312,348,43990,6,0,B|376:284|356:180,1,180,4|8
344,92,44474,2,0,B|388:76|436:76,2,90,0|0|0
256,112,44958,2,0,B|212:128|160:116,1,90,8|0
76,108,45281,1,0
48,192,45442,1,0
76,276,45603,1,8
160,308,45765,1,0
248,296,45926,2,0,B|292:284|336:292,1,90
428,304,46248,2,0,B|444:264|444:216,1,90,8|0
448,108,46571,5,2
448,108,46732,1,2
256,324,47055,1,0
64,108,47377,1,0
64,108,47539,1,4
256,192,47700,12,0,48829
124,112,49152,6,0,B|168:100|216:100,1,90,4|0
304,100,49474,2,0,B|320:144|320:192,1,90,8|0
324,280,49797,2,0,B|368:292|416:288,2,90,0|0|8
236,260,50281,2,0,B|152:216|60:252,1,180
20,140,50765,1,8
76,36,50926,2,0,B|160:80|252:44,1,180
340,36,51410,2,0,B|360:80|360:128,1,90,8|0
360,212,51732,6,0,B|320:232|272:232,1,90
184,232,52055,2,0,B|168:192|168:144,1,90,8|0
160,56,52377,2,0,B|116:44|68:44,2,90,0|0|8
248,44,52861,2,0,B|344:16|424:72,1,180
468,148,53345,5,2
412,240,53507,1,0
320,300,53668,1,2
212,312,53829,1,0
108,280,53990,1,2
40,196,54152,2,0,B|-8:92|96:48,1,180,4|0
184,44,54636,6,0,B|200:88|196:136,1,90,8|0
200,224,54958,2,0,B|248:232|288:248,1,90
372,276,55281,1,8
460,296,55442,2,0,B|512:220|472:116,1,180
432,44,55926,1,8
356,92,56087,2,0,B|280:144|176:104,1,180
104,64,56571,1,8
56,140,56732,6,0,B|4:216|44:320,1,180
132,312,57216,2,0,B|176:300|220:316,1,90,8|0
312,324,57539,2,0,B|360:316|392:284,1,90
436,204,57861,1,8
456,116,58023,2,0,B|388:48|284:92,1,180
200,112,58507,5,2
92,127,58668,1,0
48,225,58829,1,2
116,309,58990,1,0
223,293,59152,1,2
267,195,59313,2,0,B|348:144|440:196,1,180,4|0
468,280,59797,5,8
379,303,59958,2,0,B|332:312|292:332,1,90
204,340,60281,2,0,B|156:332|111:303,1,90,0|8
56,244,60603,2,0,B|0:156|72:72,1,180,4|0
156,92,61087,1,8
244,104,61248,2,0,B|300:192|228:276,1,180,4|0
284,344,61732,2,0,B|332:352|376:344,1,90,8|0
460,324,62055,6,0,B|472:280|472:236,1,90
472,144,62377,2,0,B|428:132|384:136,1,90,8|0
292,140,62700,2,0,B|284:188|273:193|266:236,2,90,0|0|8
312,52,63184,2,0,B|224:4|136:60,1,180,4|0
80,124,63668,5,2
34,223,63829,1,0
140,216,63990,1,2
80,124,64152,5,0
28,240,64313,1,2
152,232,64474,1,0
208,120,64636,5,4
268,52,64797,2,0,B|308:36|356:36,1,90,0|8
444,40,65119,2,0,B|504:108|464:212,1,180
424,292,65603,2,0,B|376:292|336:308,1,90,8|0
248,332,65926,6,0,B|200:344|152:344,2,90,4|0|8
280,248,66410,2,0,B|240:152|304:80,1,180
392,64,66894,2,0,B|440:56|484:68,1,90,8|0
388,164,67216,2,0,B|340:172|296:160,1,90,4|0
212,140,67539,1,8
124,124,67700,2,0,B|68:168|60:216|96:288,1,180
148,356,68184,2,0,B|192:368|236:360,1,90,8|0
328,356,68507,6,0,B|372:336|396:292,1,90,0|2
392,160,68829,2,8,B|372:116|328:92,1,90,8|2
196,92,69152,2,0,B|152:112|128:156,1,90,0|2
132,288,69474,2,0,B|152:332|196:356,1,90,8|0
328,356,69797,6,0,B|416:312|392:204,1,180,4|8
376,116,70281,2,0,B|332:104|284:104,1,90
196,104,70603,1,0
196,104,70684,1,0
196,104,70765,2,0,B|176:148|184:196,1,90,8|0
184,280,71087,6,0,B|140:292|92:284,2,90,0|0|8
276,280,71571,2,0,B|320:292|368:284,1,90
456,276,71894,1,0
456,276,71974,1,0
456,276,72055,2,0,B|468:232|456:180,1,90,8|0
448,96,72377,6,0,B|364:52|272:88,1,180,0|8
200,140,72861,2,0,B|164:172|112:180,1,90
32,192,73184,1,0
32,192,73265,1,0
32,192,73345,2,0,B|20:240|32:288,1,90,8|0
104,332,73668,6,0,B|180:280|280:332,1,180,4|0
368,196,74152,2,0,B|292:248|192:196,1,180,4|0
120,148,74636,5,8
44,96,74797,1,0
120,48,74958,2,0,B|200:12|304:44,1,180,4|8
384,64,75442,2,0,B|400:108|396:156,1,90
392,244,75765,1,0
392,244,75845,1,0
392,244,75926,2,0,B|352:264|304:260,1,90,8|0
216,256,76248,6,0,B|204:304|216:356,2,90,0|0|8
224,164,76732,2,0,B|180:148|136:156,1,90
44,160,77055,1,0
44,160,77136,1,0
44,160,77216,2,0,B|32:116|32:68,1,90,8|0
116,40,77539,6,0,B|196:84|296:56,1,180,0|8
380,48,78023,2,0,B|400:88|400:140,1,90
312,160,78345,1,0
312,160,78426,1,0
312,160,78507,2,0,B|292:200|292:252,1,90,8|0
288,336,78829,6,0,B|204:376|112:344,1,180,4|0
36,200,79313,2,0,B|120:160|212:192,1,180,4|0
292,236,79797,5,8
376,272,79958,1,0
464,268,80119,2,0,B|484:228|480:180,1,90,4|0
480,92,80442,2,0,B|432:84|388:100,1,90,8|0
304,116,80765,1,0
216,96,80926,1,0
128,108,81087,1,8
44,136,81248,6,0,B|4:224|48:312,1,180
128,352,81732,1,8
208,308,81894,2,0,B|296:268|384:312,1,180
472,328,82377,2,0,B|488:288|484:240,1,90,8|0
484,148,82700,6,0,B|444:132|396:128,1,90
308,128,83023,1,8
220,136,83184,1,0
132,152,83345,2,0,B|116:192|116:244,2,90,0|0|8
148,64,83829,2,0,B|224:16|324:40,1,180
389,98,84313,5,2
452,186,84474,1,0
394,278,84636,1,2
286,278,84797,1,0
223,190,84958,1,2
281,97,85119,1,0
336,196,85281,6,0,B|336:292,1,90,4|0
272,348,85603,1,8
184,340,85765,2,0,B|80:328|48:228,1,180
84,152,86248,1,8
168,120,86410,2,0,B|272:132|304:232,1,180
304,316,86894,2,0,B|348:336|392:332,1,90,8|0
480,324,87216,2,0,B|492:280|484:232,1,90
476,144,87539,1,8
416,76,87700,6,0,B|344:20|240:44,1,180,4|0
212,220,88184,2,0,B|284:276|388:252,1,180,4|0
244,136,88668,2,4,B|172:80|68:104,1,180,0|4
76,304,89313,5,4
76,304,89474,1,4
344,344,89797,1,0
400,80,90119,1,0
132,40,90442,6,0,B|116:84|116:136,1,90,4|0
116,220,90765,2,0,B|76:236|24:236,2,90,8|0|0
204,232,91248,1,0
204,232,91329,1,0
204,232,91410,2,0,B|248:248|300:244,1,90,8|0
384,248,91732,6,0,B|400:208|400:156,1,90
288,80,92055,2,0,B|272:120|272:172,1,90,8|0
364,224,92377,6,0,B|380:184|380:132,1,90
252,56,92700,2,0,B|236:96|236:148,1,90,8|0
224,232,93023,6,0,B|144:292|48:244,1,180,4|8
40,96,93506,2,0,B|120:36|216:84,1,180,4|0
296,108,93990,2,0,B|344:120|388:108,1,90,8|0
476,104,94313,2,0,B|488:148|476:200,1,90,0|0
448,280,94636,5,8
448,280,94797,1,0
340,324,94958,5,8
340,324,95119,1,0
224,304,95281,5,8
224,304,95442,1,0
112,272,95603,6,0,B|96:232|96:184,1,90,4|0
88,92,95926,2,0,B|128:80|180:80,1,90,8|0
268,80,96248,1,0
356,104,96410,1,0
356,104,96490,1,0
356,104,96571,2,0,B|368:152|368:200,1,90,8|0
368,284,96894,6,0,B|416:296|464:296,2,90,0|0|8
280,268,97377,2,0,B|236:256|184:256,1,90
100,260,97700,1,0
100,260,97781,1,0
100,260,97861,2,0,B|80:220|80:172,1,90,8|0
72,84,98184,6,0,B|156:40|252:80,1,180,4|8
248,224,98668,2,0,B|332:268|428:228,1,180,4|0
468,152,99152,2,0,B|480:108|472:60,1,90,8|0
340,36,99474,2,0,B|328:80|336:128,1,90
340,216,99797,6,0,B|352:260|344:308,1,90,8|0
212,332,100119,2,0,B|200:288|208:240,1,90,8|0
216,108,100442,5,8
216,108,100603,1,0
304,88,100765,6,0,B|344:68|392:68,1,90,4|0
480,68,101087,2,0,B|492:116|480:160,1,90,8|0
456,244,101410,1,0
456,244,101490,1,0
456,244,101571,1,0
392,308,101732,2,0,B|352:320|304:320,1,90,8|0
212,312,102055,2,0,B|132:252|172:140,1,180,4|8
316,108,102539,2,0,B|396:168|356:280,1,180,4|0
264,212,103023,1,8
264,212,103184,1,0
240,124,103345,6,0,B|228:80|192:48,1,90
104,36,103668,1,8
48,108,103829,2,0,B|8:192|40:288,2,180,0|0|0
136,136,104636,1,2
224,112,104797,2,0,B|308:152|404:120,2,180,2|2|2
136,136,105603,2,0,B|124:180|124:232,1,90,8|0
124,316,105926,5,4
124,316,106006,1,0
124,316,106087,2,0,B|168:332|216:332,1,90,0|8
304,332,106410,2,0,B|376:268|352:164,1,180
336,80,106894,2,0,B|292:64|244:76,1,90,8|0
156,80,107216,5,4
156,80,107297,1,0
156,80,107377,2,0,B|140:124|144:172,1,90,0|8
148,260,107700,2,0,B|228:316|324:280,1,180
404,248,108184,2,0,B|424:208|424:156,1,90,8|0
424,72,108506,5,4
424,72,108587,1,0
424,72,108668,2,0,B|384:56|336:56,1,90,0|8
248,52,108990,2,0,B|152:12|64:68,1,180
72,152,109474,2,0,B|64:204|80:244,1,90,8|0
96,328,109797,6,0,B|138:330|184:316,1,90,4|0
260,204,110119,2,0,B|217:201|171:215,1,90,8|0
280,300,110442,2,0,B|322:302|368:288,1,90,0|0
456,268,110765,6,0,B|508:176|440:100,1,180,8|0
384,32,111248,2,0,B|336:28|292:44,1,90,0|8
248,120,111571,2,0,B|164:164|72:128,1,180,0|0
32,240,112055,1,8
88,344,112216,2,0,B|172:300|264:336,1,180,0|0
352,352,112700,2,0,B|372:316|372:264,1,90,8|0
376,176,113023,2,0,B|332:160|284:164,1,90,8|0
200,176,113345,1,8
112,152,113506,1,0
68,72,113668,6,0,B|108:52|160:52,1,90,4|0
244,52,113990,2,0,B|288:64|336:60,1,90,8|0
424,52,114313,2,0,B|488:124|444:224,1,180,0|8
404,300,114797,1,0
320,328,114958,6,0,B|276:340|228:340,1,90
140,340,115281,2,0,B|120:304|120:252,1,90,8|0
112,164,115603,2,0,B|68:148|24:148,2,90,0|0|8
200,180,116087,1,0
288,196,116248,6,0,B|304:156|296:104,1,90,4|0
416,40,116571,2,0,B|400:80|408:132,1,90,8|0
404,220,116894,2,0,B|372:308|268:328,1,180,0|8
180,340,117377,1,0
104,288,117539,2,0,B|45:215|81:115,1,180,0|8
124,36,118023,1,0
204,80,118184,2,0,B|276:138|376:102,1,180,0|8
460,72,118668,1,0
476,160,118829,6,0,B|488:208|476:256,1,90,4|0
460,340,119152,2,0,B|412:352|364:340,1,90,8|0
284,324,119474,2,0,B|200:280|104:312,1,180,0|8
56,236,119958,1,0
116,168,120119,2,0,B|200:212|296:180,1,180,0|8
380,168,120603,2,0,B|400:212|400:260,2,90
356,80,121087,2,0,B|316:64|264:64,1,90,8|0
176,68,121410,6,0,B|108:140|144:236,1,180,4|8
232,252,121894,1,0
320,260,122055,2,0,B|388:188|352:92,1,180,4|8
264,80,122539,1,0
176,68,122700,6,0,B|92:95,1,90,0|2
36,220,123023,2,0,B|119:192,1,90,8|2
236,264,123345,2,0,B|152:291,1,90,0|2
208,168,123668,2,0,B|291:140,1,90,8|2
380,116,123990,6,0,B|420:144|448:176,1,90
456,264,124313,2,0,B|444:312|416:348,1,90,8|0
328,352,124636,2,0,B|240:380|144:344,1,180,0|8
68,312,125119,1,0
32,228,125281,6,0,B|24:180|36:136,1,90
48,52,125603,2,0,B|92:40|140:48,1,90,8|0
228,56,125926,1,0
316,68,126087,1,0
404,56,126248,2,0,B|420:100|420:148,1,90,8|0
420,236,126571,6,0,B|424:292|448:332,2,90,4|0|8
336,200,127055,1,0
248,212,127216,2,0,B|208:228|152:220,1,90
68,220,127539,2,0,B|48:184|48:128,1,90,8|0
52,44,127861,6,0,B|136:12|240:44,1,180,4|8
256,172,128345,1,0
284,304,128506,2,0,B|368:336|472:304,1,180,4|8
464,216,128990,1,0
464,124,129152,6,0,B|464:32,1,90,2|2
256,192,129636,1,0
48,260,129958,2,0,B|48:352,1,90,0|4
256,192,130442,12,0,133023
256,192,133345,12,0,138345
