osu file format v9

[General]
AudioFilename: lovekamii.mp3
AudioLeadIn: 0
PreviewTime: 89320
Countdown: 0
SampleSet: Normal
StackLeniency: 0.7
Mode: 0
LetterboxInBreaks: 1

[Editor]
DistanceSpacing: 1.3
BeatDivisor: 4
GridSize: 4

[Metadata]
Title:Haruiro (Short Ver.)
Artist:Harada Hitomi
Creator:Hinacle
Version:Hard
Source:Love Kami
Tags:

[Difficulty]
HPDrainRate:6
CircleSize:4
OverallDifficulty:5
ApproachRate:7
SliderMultiplier:1.5
SliderTickRate:0.5

[Events]
//Background and Video events
Video,0,"lovekamii.flv"
0,0,"lovekamii.jpg"
//Break Periods
//Storyboard Layer 0 (Background)
//Storyboard Layer 1 (Fail)
//Storyboard Layer 2 (Pass)
//Storyboard Layer 3 (Foreground)
//Storyboard Sound Samples
//Background Colour Transformations
3,100,163,162,255

[TimingPoints]
28507,322.58064516129,4,2,1,40,1,0
29716,-100,4,1,1,50,0,0
31006,-100,4,1,1,60,0,0
47619,-100,4,1,1,5,0,0
48910,-100,4,1,1,50,0,0
54071,-100,4,1,1,55,0,0
54232,-100,4,1,1,50,0,0
59232,-100,4,1,1,55,0,0
59394,-100,4,1,1,50,0,0
64555,-100,4,1,1,55,0,0
67136,-100,4,1,1,60,0,0
69716,-100,4,1,1,55,0,0
80039,-100,4,1,1,60,0,0
84232,-100,4,1,1,56,0,0
84394,-100,4,1,1,52,0,0
84555,-100,4,1,1,48,0,0
84716,-100,4,1,1,44,0,0
84877,-100,4,1,1,40,0,0
85039,-100,4,1,1,36,0,0
85200,-100,4,1,1,60,0,0
89394,-100,4,1,1,55,0,0
89716,-100,4,1,1,60,0,0
90039,-100,4,1,1,65,0,0
90442,-100,4,1,1,70,0,1
94555,-100,4,1,1,65,0,1
94877,-100,4,1,1,60,0,1
95200,-100,4,1,1,55,0,1
95523,-100,4,1,1,70,0,1
99716,-100,4,1,1,65,0,1
100039,-100,4,1,1,60,0,1
100361,-100,4,1,1,55,0,1
100684,-100,4,1,1,70,0,1
105845,-100,4,1,1,55,0,1
107136,-100,4,1,1,60,0,1
108426,-100,4,1,1,65,0,1
109555,-100,4,1,1,70,0,1
113668,-100,4,1,1,60,0,0
130361,-100,4,1,1,5,0,0

[Colours]
Combo1 : 208,206,255
Combo2 : 188,254,218
Combo3 : 255,253,166
Combo4 : 252,210,255

[HitObjects]
256,76,28506,1,0
376,192,28829,1,0
256,308,29152,1,0
140,192,29474,1,0
256,76,29797,6,0,B|324:40|404:72,1,150,4|8
424,152,30281,1,0
448,232,30442,2,0,B|380:268|300:236,1,150,0|8
224,208,30926,1,0
144,184,31087,6,0,B|120:216|112:260,1,75,4|0
112,336,31410,2,0,B|176:376|256:360,2,150,8|0|8
44,292,32216,1,0
24,212,32377,2,0,B|16:180|24:132,1,75
28,56,32700,2,0,B|60:40|100:40,1,75,8|0
184,48,33023,2,0,B|256:80|336:64,1,150,0|8
412,48,33506,1,0
452,120,33668,6,0,B|468:164|468:200,1,75
468,276,33990,2,0,B|440:296|392:296,1,75,8|0
316,288,34313,1,0
240,256,34474,1,0
156,260,34636,1,8
156,260,34797,1,0
76,272,34958,6,0,B|32:212|48:124,1,150,4|8
176,88,35442,2,0,B|220:148|204:236,1,150,4|0
200,312,35926,2,0,B|236:328|280:328,1,75,8|0
356,332,36248,6,4,B|412:284|428:196,1,150,4|8
440,120,36732,2,0,B|408:104|368:108,1,75
284,120,37055,2,0,B|280:156|288:164|284:200,2,75,0|8|0
216,72,37539,2,0,B|140:44|68:84,1,150,0|8
32,156,38023,2,0,B|24:200|32:240,1,75
36,312,38345,2,0,B|72:324|116:324,1,75,0|8
192,324,38668,1,0
272,308,38829,5,2
448,268,39152,1,2
412,92,39474,1,2
240,144,39797,1,2
240,144,39958,2,0,B|168:172|88:148,2,150,2|0|0
324,132,40765,2,8,B|344:168|344:212,1,75,8|0
344,288,41087,2,0,B|308:308|264:308,1,75,8|0
188,308,41410,6,0,B|144:248|156:160,1,150,4|8
168,84,41894,2,0,B|204:68|248:68,1,75
328,140,42216,2,0,B|292:156|248:156,1,75,0|8
164,120,42539,1,0
88,60,42700,2,0,B|40:120|56:204,1,150,4|8
76,284,43184,2,0,B|140:328|228:308,1,150,4|0
300,300,43668,2,0,B|340:292|384:304,1,75,8|0
456,308,43990,6,0,B|464:272|464:232,1,75,4|0
464,152,44313,2,0,B|428:140|388:140,1,75,8|0
308,140,44636,1,0
204,152,44797,1,0
244,56,44958,1,8
308,140,45119,6,0,B|352:204|324:284,1,150
292,360,45603,2,0,B|256:368|208:356,1,75,8|0
136,344,45926,2,0,B|120:312|120:272,1,75
116,188,46248,1,8
160,116,46410,1,0
232,72,46571,6,0,B|308:52,1,75,2|2
440,148,47055,1,0
388,304,47377,2,0,B|312:324,1,75,0|4
256,192,47700,12,0,48829
104,88,49152,6,0,B|96:124|96:168,1,75,4|0
96,244,49474,2,0,B|136:256|180:256,1,75,8|0
252,256,49797,2,0,B|264:296|264:340,2,75,0|0|8
240,176,50281,2,0,B|300:128|388:152,1,150
448,212,50765,1,8
400,288,50926,2,0,B|340:336|252:312,1,150
176,304,51410,2,0,B|136:292|96:304,1,75,8|0
44,244,51732,5,0
32,164,51894,1,0
48,84,52055,2,0,B|80:72|124:72,1,75,8|0
204,68,52377,2,0,B|220:104|220:144,1,75
228,224,52700,1,8
236,308,52861,2,0,B|308:344|384:312,1,150
448,264,53345,5,2
464,168,53507,1,0
408,88,53668,1,2
316,56,53829,1,0
220,72,53990,1,2
140,128,54152,2,0,B|88:184|104:268,1,150,4|0
120,348,54636,6,0,B|160:356|204:348,1,75,8|0
276,344,54958,2,0,B|280:312|272:304|276:264,2,75,0|0|8
360,348,55442,2,0,B|436:320|456:236,1,150,0|0
468,160,55926,1,8
456,80,56087,2,0,B|384:40|308:64,1,150,0|0
280,140,56571,1,8
248,216,56732,6,0,B|176:256|100:232,1,150
32,192,57216,2,0,B|24:156|32:116,1,75,8|0
140,80,57539,2,0,B|148:116|140:156,1,75
140,236,57861,1,8
136,320,58023,2,0,B|200:360|284:340,1,150
360,320,58507,5,2
452,284,58668,1,0
416,192,58829,1,2
324,228,58990,1,0
360,320,59152,1,2
452,284,59313,2,0,B|496:216|464:132,1,150,4|0
448,60,59797,6,0,B|412:48|372:48,1,75,8|0
292,44,60119,1,0
208,56,60281,1,0
128,80,60442,1,8
56,124,60603,2,0,B|16:184|32:272,1,150,0|0
112,280,61087,1,8
192,292,61248,2,0,B|232:232|216:144,1,150,0|0
208,64,61732,2,0,B|244:52|288:56,1,75,8|0
364,56,62055,6,0,B|376:92|376:132,1,75
380,212,62377,2,0,B|420:224|464:224,2,75,8|0|0
296,200,62861,2,0,B|256:192|212:200,1,75,0|8
140,204,63184,2,0,B|96:136|128:56,1,150
208,56,63668,5,2
304,40,63829,1,0
384,96,63990,1,2
364,192,64152,1,0
268,208,64313,1,2
188,152,64474,1,0
280,120,64636,6,0,B|352:88|428:120,1,150,4|8
464,192,65119,2,0,B|472:236|464:280,1,75
468,348,65442,2,0,B|432:356|392:352,1,75,0|8
312,336,65765,1,0
268,268,65926,6,0,B|200:228|116:260,1,150,4|8
40,268,66410,2,0,B|28:304|28:344,2,75
52,184,66894,2,0,B|56:144|68:112,1,75,8|0
112,40,67216,6,0,B|184:16|260:40,1,150,4|8
340,60,67700,2,0,B|352:96|352:140,1,75
352,216,68023,2,0,B|388:232|432:232,2,75,0|8|0
272,200,68507,6,0,B|236:192|196:192,1,75,0|2
116,188,68829,2,0,B|108:224|108:264,1,75,8|2
104,344,69152,2,0,B|140:352|180:352,1,75,0|2
260,356,69474,2,0,B|268:320|268:280,1,75,8|0
272,200,69797,6,0,B|332:160|416:176,1,150,4|8
472,96,70281,1,0
392,40,70442,2,0,B|332:80|248:64,1,150,0|8
168,52,70926,1,0
88,36,71087,6,0,B|48:96|64:180,1,150,0|8
72,264,71571,2,0,B|108:276|152:276,1,75
228,280,71894,1,0
228,280,71974,1,0
228,280,72055,2,0,B|244:244|244:204,1,75,8|0
252,124,72377,6,0,B|288:112|336:112,1,75
408,112,72700,2,0,B|416:152|416:192,1,75,8|0
416,268,73023,2,0,B|452:280|492:280,2,75,0|0|8
332,272,73507,1,0
248,280,73668,6,0,B|176:312|100:288,1,150,4|0
96,176,74152,2,0,B|168:144|244:168,1,150,4|0
308,220,74636,1,8
308,220,74797,1,0
248,280,74958,6,0,B|176:312|100:288,1,150,4|8
32,220,75442,1,0
96,144,75603,2,0,B|168:112|244:136,1,150,0|8
324,156,76087,1,0
400,192,76248,6,0,B|444:160|456:112|436:56,1,150,0|8
356,36,76732,2,0,B|312:44|272:36,1,75
200,36,77055,1,0
200,36,77136,1,0
200,36,77216,2,0,B|184:72|184:116,1,75,8|0
176,192,77539,6,0,B|140:204|96:204,2,75,0|0|8
260,180,78023,1,0
344,172,78184,2,0,B|360:208|360:252,1,75
360,328,78507,2,0,B|324:340|284:340,1,75,8|0
204,336,78829,6,0,B|132:308|56:332,1,150,4|8
60,212,79313,2,0,B|132:240|208:216,1,150,4|0
288,208,79797,2,0,B|300:172|300:132,1,75,8|0
304,52,80119,6,0,B|340:40|380:40,1,75,4|0
456,120,80442,2,0,B|420:132|380:132,1,75,8|0
300,136,80765,1,0
220,120,80926,1,0
136,124,81087,1,8
56,140,81248,2,0,B|16:204|44:288,1,150,4|0
84,356,81732,1,8
160,324,81894,2,0,B|224:284|308:312,1,150,4|0
384,328,82377,6,0,B|424:340|464:340,1,75,8|0
408,236,82700,2,0,B|368:224|328:224,1,75,4|0
252,224,83023,1,8
168,228,83184,1,0
84,232,83345,2,0,B|76:272|76:312,2,75,0|0|8
96,152,83829,2,0,B|140:88|224:72,1,150
300,72,84313,5,2
407,123,84474,1,0
290,148,84636,1,2
370,58,84797,1,0
359,176,84958,1,2
300,72,85119,1,0
407,123,85281,6,0,B|436:148|452:184,1,75,4|0
472,264,85603,1,8
464,344,85765,2,0,B|396:372|316:348,1,150
292,268,86248,1,8
268,188,86410,2,0,B|200:160|120:184,1,150
40,192,86894,2,0,B|32:152|32:112,1,75,8|0
28,36,87216,2,0,B|68:24|112:32,1,75
184,36,87539,1,8
264,44,87700,6,0,B|336:24|416:56,1,150,4|0
396,204,88184,2,0,B|324:224|244:192,1,150,4|0
120,112,88668,2,0,B|192:92|272:124,1,150,0|4
256,348,89313,5,0
256,348,89474,1,4
92,192,89797,1,0
256,40,90119,1,0
424,192,90442,6,0,B|432:228|432:268,1,75,4|0
428,348,90765,2,0,B|392:360|352:360,1,75,8|0
272,356,91087,1,0
272,356,91248,1,0
188,352,91410,2,0,B|176:316|176:264,1,75,8|0
168,196,91732,6,0,B|228:152|312:168,1,150,4|8
276,44,92216,2,0,B|216:88|132:72,1,150,4|0
72,156,92700,1,8
72,156,92861,1,0
168,196,93023,6,0,B|228:152|312:168,1,150,4|8
336,292,93506,2,0,B|276:336|192:320,1,150,4|0
112,312,93990,2,0,B|100:276|100:236,1,75,8|0
88,156,94313,2,0,B|124:140|164:136,1,75
240,120,94636,5,2
448,92,94958,1,2
480,300,95281,1,2
272,328,95603,6,0,B|236:336|192:332,1,75,4|0
116,332,95926,2,0,B|100:300|100:256,1,75,8|0
100,176,96248,1,0
100,176,96410,1,0
168,128,96571,2,0,B|208:116|248:116,1,75,8|0
324,112,96894,6,0,B|372:176|344:272,1,150,4|8
328,336,97377,2,0,B|252:364|172:348,1,150,4|0
100,336,97861,1,8
100,336,98023,1,0
48,272,98184,6,0,B|16:200|40:120,1,150,4|8
64,48,98668,2,0,B|136:16|216:40,1,150,4|0
292,56,99152,2,0,B|332:68|372:68,1,75,8|0
448,68,99474,2,0,B|460:108|460:152,1,75
460,224,99797,5,2
304,340,100119,1,2
144,228,100442,1,2
304,204,100765,6,0,B|296:164|304:120,1,75,4|0
304,48,101087,2,0,B|344:36|384:36,2,75,8|0|0
220,56,101571,2,0,B|184:64|144:60,1,75,0|8
64,52,101894,1,0
44,132,102055,6,0,B|12:200|36:280,1,150,4|8
168,312,102539,2,0,B|200:244|176:164,1,150,4|0
156,84,103023,2,0,B|192:72|236:72,1,75,8|0
312,68,103345,2,0,B|324:108|324:152,1,75
328,224,103668,1,8
332,308,103829,2,0,B|404:348|488:328,2,150
252,284,104636,5,2
172,260,104797,2,0,B|100:220|16:240,2,150,2|2|2
252,284,105603,2,0,B|264:248|264:200,1,75,8|0
272,128,105926,6,0,B|200:92|124:120,1,150,4|8
44,128,106410,2,0,B|36:88|36:44,2,75
56,212,106894,1,8
88,288,107055,1,0
168,264,107216,6,0,B|240:224|316:260,1,150,4|8
392,272,107700,2,0,B|408:236|408:192,1,75
416,116,108023,2,0,B|380:104|340:104,1,75,0|8
260,100,108345,1,0
176,96,108506,6,0,B|128:160|152:244,1,150,4|8
164,320,108990,2,0,B|128:336|88:336,2,75
248,312,109474,1,8
332,316,109636,2,0,B|376:256|356:172,1,150,4|0
344,92,110119,6,0,B|308:80|268:80,1,75,8|0
188,76,110442,2,0,B|176:112|176:156,1,75,0|0
176,232,110765,2,0,B|244:280|332:248,1,150,8|0
400,228,111248,5,0
456,164,111410,1,8
464,80,111571,2,0,B|396:48|316:60,1,150
284,136,112055,1,8
252,212,112216,2,0,B|184:244|104:232,1,150
32,196,112700,2,0,B|24:156|32:116,1,75,8|0
36,40,113023,2,0,B|76:32|116:40,1,75,8|0
192,40,113345,2,0,B|200:80|192:120,1,75,8|0
192,196,113668,6,0,B|260:240|340:212,1,150,4|8
404,164,114152,1,0
356,96,114313,2,0,B|288:52|208:80,1,150,0|8
132,96,114797,1,0
52,116,114958,6,0,B|24:188|56:272,1,150,0|8
84,340,115442,2,0,B|120:352|160:352,1,75
240,356,115765,2,0,B|252:316|252:264,1,75,0|8
256,200,116087,1,0
256,116,116248,6,0,B|316:72|400:84,1,150,4|8
460,140,116732,1,0
436,220,116894,2,0,B|376:264|292:252,1,150,0|8
212,236,117377,1,0
132,220,117539,6,0,B|92:188|84:128|112:80,1,150,0|8
180,40,118023,2,0,B|216:32|260:40,1,75
328,124,118345,2,0,B|292:132|248:124,1,75,0|8
172,124,118668,1,0
88,128,118829,6,0,B|44:192|76:284,1,150,4|8
100,348,119313,1,0
180,332,119474,2,0,B|244:288|336:320,1,150,0|8
404,336,119958,1,0
464,280,120119,6,0,B|496:208|468:132,1,150,0|8
444,56,120603,2,0,B|408:40|368:40,1,75
288,40,120926,2,0,B|272:76|272:124,1,75,0|8
268,196,121248,1,0
260,280,121410,6,0,B|196:324|108:296,1,150,4|8
40,236,121894,1,0
84,148,122055,2,0,B|148:104|236:132,1,150,0|8
308,156,122539,1,0
380,196,122700,6,0,B|392:232|392:276,1,75,0|2
328,344,123023,2,0,B|292:356|248:356,1,75,8|2
172,304,123345,2,0,B|160:268|160:224,1,75,0|2
224,156,123668,2,0,B|260:144|304:144,1,75,8|0
380,196,123990,6,0,B|420:264|392:344,1,150,4|8
312,352,124474,1,0
228,360,124636,2,0,B|188:292|216:212,1,150,0|8
232,136,125119,1,0
240,52,125281,6,0,B|204:40|160:40,1,75
84,40,125603,2,8,B|72:76|72:120,1,75,8|0
68,196,125926,2,0,B|120:248|208:232,1,150,0|8
292,228,126410,1,0
376,232,126571,6,0,B|416:164|388:84,1,150,4|8
308,76,127055,1,0
224,68,127216,2,8,B|184:136|212:216,1,150,0|8
240,288,127700,1,0
304,340,127861,6,0,B|340:352|384:352,1,75,0|0
452,268,128184,2,8,B|416:256|372:256,1,75,8|0
296,260,128506,2,0,B|228:296|148:260,1,150,0|8
76,224,128990,1,0
76,140,129152,6,0,B|76:64,1,75,2|2
256,192,129636,1,0
436,244,129958,2,0,B|436:320,1,75,0|4
256,192,130442,12,0,133023
256,192,133345,12,0,138345
