osu file format v9

[General]
AudioFilename: lovekamii.mp3
AudioLeadIn: 0
PreviewTime: 89320
Countdown: 0
SampleSet: Normal
StackLeniency: 0.7
Mode: 0
LetterboxInBreaks: 1

[Editor]
DistanceSpacing: 1
BeatDivisor: 4
GridSize: 8

[Metadata]
Title:Haruiro (Short Ver.)
Artist:Harada Hitomi
Creator:Hinacle
Version:Easy
Source:Love Kami
Tags:

[Difficulty]
HPDrainRate:2
CircleSize:3
OverallDifficulty:1
ApproachRate:3
SliderMultiplier:0.8
SliderTickRate:1

[Events]
//Background and Video events
Video,0,"lovekamii.flv"
0,0,"lovekamii.jpg"
//Break Periods
//Storyboard Layer 0 (Background)
//Storyboard Layer 1 (Fail)
//Storyboard Layer 2 (Pass)
//Storyboard Layer 3 (Foreground)
//Storyboard Sound Samples
//Background Colour Transformations
3,100,163,162,255

[TimingPoints]
28507,322.58064516129,4,2,1,40,1,0
29716,-100,4,1,1,50,0,0
31006,-100,4,1,1,60,0,0
46490,-100,4,1,1,5,0,0
48587,-100,4,1,1,50,0,0
64555,-100,4,1,1,55,0,0
67136,-100,4,1,1,60,0,0
69716,-100,4,1,1,55,0,0
87619,-100,4,1,1,5,0,0
89877,-100,4,1,1,60,0,0
90442,-100,4,1,1,70,0,1
105845,-100,4,1,1,60,0,1
107136,-100,4,1,1,65,0,1
108426,-100,4,1,1,70,0,1
111006,-100,4,1,1,5,0,1
113103,-100,4,1,1,70,0,1
113668,-100,4,1,1,60,0,0
130361,-100,4,1,1,5,0,0

[Colours]
Combo1 : 208,206,255
Combo2 : 188,254,218
Combo3 : 255,253,166
Combo4 : 252,210,255

[HitObjects]
456,224,28506,1,0
296,228,29152,1,0
136,228,29797,6,0,B|96:152|136:72,1,160,4|8
296,72,31087,5,4
456,72,31732,1,8
456,232,32377,1,0
296,232,33023,1,8
136,232,33668,6,0,B|40:232,2,80,0|8|0
136,72,34958,2,0,B|216:72,2,80,0|8|0
136,232,36248,6,0,B|192:288|280:304,1,160,4|8
440,304,37539,2,0,B|472:224|432:144,1,160,0|8
272,144,38829,6,0,B|272:56,2,80,0|8|0
112,144,40119,2,0,B|24:144,2,80,0|8|0
112,304,41410,5,4
264,352,42055,1,8
416,304,42700,2,0,B|448:224|416:136,1,160,0|8
272,88,43990,5,0
192,88,44313,1,8
112,88,44636,1,0
112,248,45281,5,0
112,328,45603,1,8
192,328,45926,1,0
256,192,46571,12,0,48507
104,96,49152,6,0,B|80:176|104:264,1,160,4|8
264,256,50442,2,0,B|344:280|432:256,1,160,0|8
424,96,51732,5,0
264,96,52377,1,8
264,256,53023,1,0
104,256,53668,1,8
104,96,54313,6,0,B|184:72|264:96,1,160,4|8
424,104,55603,1,0
424,264,56248,1,8
264,264,56894,6,0,B|184:288|104:264,1,160,0|8
104,104,58184,1,0
256,64,58829,1,8
392,144,59474,6,0,B|424:224|392:312,1,160,4|8
240,304,60765,1,0
88,256,61410,1,8
136,104,62055,5,0
288,152,62700,1,8
288,312,63345,1,0
448,312,63990,1,8
448,152,64636,6,0,B|408:80|312:56,1,160,4|8
160,56,65926,1,4
32,152,66571,1,8
160,248,67216,6,0,B|248:272|328:248,1,160,4|8
432,136,68507,2,0,B|344:112|264:136,1,160,0|8
112,136,69797,5,4
112,296,70442,1,8
272,296,71087,2,0,B|352:312|432:296,1,160,0|8
432,136,72377,6,0,B|432:48,2,80,0|8|0
272,136,73668,2,0,B|272:224,2,80,0|8|0
112,144,74958,6,0,B|80:216|80:304,1,160,4|8
240,312,76248,2,0,B|272:240|272:152,1,160,0|8
384,40,77539,6,0,B|480:40,2,80,0|8|0
384,200,78829,2,0,B|288:200,2,80,0|8|0
384,360,80119,6,0,B|224:360,1,160,4|8
80,288,81410,2,0,B|48:208|80:120,1,160,0|8
240,128,82700,5,0
400,128,83345,1,8
400,288,83990,1,0
240,288,84636,1,8
80,288,85281,5,4
80,128,85926,1,8
240,128,86571,2,0,B|320:104|400:128,1,160,0|8
256,192,87700,12,0,89797
256,112,90442,6,0,B|176:96|96:112,1,160,4|8
96,272,91732,2,0,B|176:288|256:272,1,160,0|8
416,272,93023,6,0,B|416:184,1,80,0|8
416,112,93668,1,0
256,112,94313,2,0,B|176:112,1,80,0|8
96,112,94958,1,0
88,272,95603,6,0,B|168:304|248:272,1,160,4|8
408,272,96894,2,0,B|440:192|408:112,1,160,0|8
248,120,98184,5,0
168,120,98506,2,0,B|128:112|80:120,1,80,8|0
88,280,99474,1,0
168,280,99797,2,0,B|208:288|256:280,1,80,8|0
408,280,100765,5,4
456,128,101410,1,8
304,80,102055,1,0
256,232,102700,1,8
96,232,103345,6,0,B|72:152|96:72,1,160,0|8
256,72,104636,2,0,B|336:48|416:72,1,160,0|8
416,232,105926,5,4
288,328,106571,1,8
160,232,107216,1,4
288,136,107861,1,8
448,136,108506,6,0,B|472:216|448:296,1,160,4|8
288,296,109797,1,0
128,296,110442,1,8
256,192,111087,12,0,113023
104,280,113668,6,0,B|184:296|264:280,1,160,0|8
424,280,114958,2,0,B|440:200|424:120,1,160,0|8
264,120,116248,5,0
104,120,116894,1,8
104,280,117539,1,0
264,280,118184,1,8
264,120,118829,6,0,B|344:88|424:120,2,160,0|8|0
264,280,120765,2,0,B|184:312|104:280,2,160,8|0|8
424,280,122700,5,0
424,120,123345,1,8
264,120,123990,6,0,B|184:104|96:120,1,160,4|8
104,280,125281,2,0,B|184:296|272:280,1,160,0|8
424,280,126571,6,0,B|440:200|424:112,1,160,0|8
264,120,127861,1,0
264,280,128506,1,8
104,280,129152,6,0,B|104:160,1,120,0|0
104,80,129958,2,0,B|160:80,1,40,4|4
256,192,130442,12,0,133023
256,192,133345,12,0,138345
