osu file format v12

[General]
AudioFilename: Baka to test ED2.mp3
AudioLeadIn: 2000
PreviewTime: 44430
Countdown: 0
SampleSet: Soft
StackLeniency: 0.7
Mode: 0
LetterboxInBreaks: 0

[Editor]
DistanceSpacing: 1.2
BeatDivisor: 2
GridSize: 4

[Metadata]
Title:Hare Tokidoki Egao (TV Size)
TitleUnicode:晴れときどき笑顔 (TV Size)
Artist:Harada Hitomi
ArtistUnicode:原田ひとみ
Creator:-Umi-
Version:Normal
Source:Baka to Test to Shoukanjuu
Tags:kaori mizuhashi emiri katou isomura tomomi 水橋 かおり 加藤 英美里 磯村知美 yoshii sakamoto himeji shimada tsuchiya hideyoshi shôko yozuca 2nd ending silver link the idiot and summoned creatures バカとテストと召喚獣 baka and test : summon the beasts
BeatmapID:268953
BeatmapSetID:101539

[Difficulty]
HPDrainRate:4
CircleSize:3
OverallDifficulty:4
ApproachRate:5
SliderMultiplier:1.2
SliderTickRate:2

[Events]
//Background and Video events
Video,196,"ED 2.avi"
0,0,"BGbaka.jpg",0,0
//Break Periods
//Storyboard Layer 0 (Background)
//Storyboard Layer 1 (Fail)
//Storyboard Layer 2 (Pass)
//Storyboard Layer 3 (Foreground)
//Storyboard Sound Samples
//Background Colour Transformations
3,100,163,162,255

[TimingPoints]
-1005,454.545454545455,4,2,1,60,1,0
358,-100,4,2,1,30,0,0
813,-100,4,2,1,60,0,0
1267,-100,4,2,1,30,0,0
1495,-100,4,2,1,60,0,0
3540,-100,4,2,1,30,0,0
4449,-100,4,2,1,60,0,0
7176,-100,4,2,1,30,0,0
7631,-100,4,2,1,60,0,0
31267,-100,4,3,0,60,0,0
31495,-100,4,2,1,60,0,0
33085,-100,4,3,0,60,0,0
33313,-100,4,2,1,60,0,0
33995,-100,4,2,2,60,0,0
34222,-100,4,2,1,60,0,0
35813,-100,4,2,2,60,0,0
36040,-100,4,2,1,60,0,0
44449,-100,4,2,1,70,0,1
49449,-100,4,2,2,70,0,1
49676,-100,4,2,1,70,0,1
50358,-100,4,2,2,70,0,1
50585,-100,4,2,1,70,0,1
57176,-100,4,2,1,60,0,0
58995,-100,4,2,1,70,0,1
66722,-100,4,2,2,70,0,1
66949,-100,4,2,1,70,0,1
71722,-100,4,2,1,60,0,0
84904,-100,4,2,1,50,0,0
85813,-100,4,2,1,40,0,0
86267,-100,4,2,1,30,0,0
86722,-100,4,2,1,20,0,0
87176,-100,4,2,1,10,0,0
87631,-100,4,2,1,5,0,0

[Colours]
Combo1 : 165,74,255
Combo2 : 255,128,192
Combo3 : 255,156,0
Combo4 : 79,255,79
SliderBorder : 255,255,255

[HitObjects]
252,120,358,2,0,L|332:120,2,60,2|2|2,0:0|0:0|0:0,0:0:0:0:
132,196,1267,1,0,0:0:0:0:
132,196,1495,2,0,P|116:284|136:332,1,120,2|0,0:0|0:0,0:0:0:0:
196,324,2176,2,0,P|248:308|332:344,2,120,2|0|0,0:0|0:0|0:0,0:0:0:0:
112,208,3540,5,2,0:0:0:0:
88,140,3767,1,2,0:0:0:0:
120,76,3995,1,2,0:0:0:0:
188,52,4222,1,2,0:0:0:0:
260,68,4449,2,0,B|348:64|348:64|424:4,2,180,2|2|2,0:0|0:0|0:0,0:0:0:0:
164,176,6267,2,0,B|252:180|252:180|304:228,1,120
356,320,7176,2,0,L|400:404,2,60,2|2|8,0:0|0:0|0:0,0:0:0:0:
392,256,7858,1,0,0:0:0:0:
380,184,8085,6,0,P|356:136|280:120,1,120,4|8,0:0|0:0,0:0:0:0:
188,216,8995,2,0,P|208:272|260:295,2,120,0|8|0,0:0|0:0|0:0,0:0:0:0:
148,76,10358,1,8,0:0:0:0:
148,76,10813,2,0,P|52:124|40:172,2,120,0|8|4,0:0|0:0|0:0,0:0:0:0:
168,220,12176,6,0,L|228:220,1,60,8|4,0:0|0:0,0:0:0:0:
324,328,12858,2,0,L|424:328,1,60,0|12,0:0|0:0,0:0:0:0:
420,188,13540,2,0,P|432:112|392:48,2,120,0|8|0,0:0|0:0|0:0,0:0:0:0:
376,244,14676,5,0,0:0:0:0:
304,256,14904,1,8,0:0:0:0:
236,236,15131,2,0,P|204:212|188:176,1,60,0|4,0:0|0:0,0:0:0:0:
192,52,15813,6,0,B|252:64|252:64|320:44,1,120,8|0,0:0|0:0,0:0:0:0:
372,80,16495,1,0,0:0:0:0:
364,152,16722,2,0,B|300:180|300:180|276:244,2,120,0|0|8,0:0|0:0|0:0,0:0:0:0:
416,200,17858,2,0,P|436:324|404:368,1,180,0|8,0:0|0:0,0:0:0:0:
324,248,18995,6,0,P|252:316|180:312,1,120,0|8,0:0|0:0,0:0:0:0:
96,288,19904,2,0,P|60:224|72:140,2,120,0|8|0,0:0|0:0|0:0,0:0:0:0:
200,188,21267,2,0,L|220:124,2,60,8|0|0,0:0|0:0|0:0,0:0:0:0:
316,272,22176,1,8,0:0:0:0:
356,132,22631,6,0,P|452:168|492:212,1,120,0|8,0:0|0:0,0:0:0:0:
472,252,23313,1,0,0:0:0:0:
456,324,23540,2,0,P|443:334|347:370,1,120,0|8,0:0|0:0,0:0:0:0:
276,360,24222,1,0,0:0:0:0:
232,304,24449,2,0,B|180:280|180:280|132:216,2,120,0|8|0,0:0|0:0|0:0,0:0:0:0:
304,180,25813,1,8,0:0:0:0:
376,300,26267,5,0,0:0:0:0:
428,164,26722,2,0,P|356:120|324:80,2,120,8|0|8,0:0|0:0|0:0,0:0:0:0:
464,228,27858,2,0,P|400:300|268:336,1,180,0|8,0:0|0:0,0:0:0:0:
252,336,28767,2,0,B|192:336|192:336|140:296,1,120
84,260,29449,2,0,P|68:224|64:192,2,60,8|0|4,0:0|0:0|0:0,0:0:0:0:
196,168,30358,6,0,L|132:56,1,120,8|0,0:0|0:0,0:0:0:0:
200,28,31040,1,0,0:0:0:0:
200,28,31267,2,0,L|356:28,1,120,8|0,0:0|0:0,0:0:0:0:
384,64,31949,1,0,0:0:0:0:
384,64,32176,2,0,L|324:168,1,120,8|0,0:0|0:0,0:0:0:0:
288,228,32858,2,0,P|244:284|220:296,1,60,0|4,0:0|0:0,0:0:0:0:
184,264,33313,6,0,B|108:208|144:92|144:92|196:56|248:72,1,300
388,104,34904,1,8,0:0:0:0:
388,104,35131,2,0,B|464:160|428:276|428:276|376:312|324:296,1,300
232,184,36722,1,8,0:0:0:0:
108,256,37176,6,0,P|88:196|96:132,1,120,4|8,0:0|0:0,0:0:0:0:
232,184,38085,2,0,P|236:132|276:76,1,120,0|8,0:0|0:0,0:0:0:0:
376,180,38995,2,0,P|412:152|500:164,1,120,0|8,0:0|0:0,0:0:0:0:
500,224,39676,2,0,P|464:252|392:250,1,120,0|0,0:0|0:0,0:0:0:0:
324,232,40358,1,8,0:0:0:0:
256,192,40585,12,8,42176,0:0:0:0:
256,152,42631,5,8,0:0:0:0:
256,152,42858,2,8,L|256:88,2,60
360,252,43767,2,0,P|280:292|232:288,1,120
184,268,44449,5,4,0:0:0:0:
56,204,44904,1,8,0:0:0:0:
184,140,45358,2,0,B|228:120|268:148|268:148|304:128,1,120,0|8,0:0|0:0,0:0:0:0:
296,276,46267,2,0,B|268:260|268:260|228:288|184:268,1,120,2|8,0:0|0:0,0:0:0:0:
120,236,46949,1,0,0:0:0:0:
120,236,47176,2,0,P|88:172|112:104,1,120,0|8,0:0|0:0,0:0:0:0:
236,88,48085,6,0,B|292:44|364:84,1,120,0|8,0:0|0:0,0:0:0:0:
400,128,48767,2,0,P|432:216|408:256,2,120
336,164,49904,2,0,B|280:132|232:152|200:220|144:144,1,180,2|0,0:0|0:0,0:0:0:0:
160,96,50813,2,0,B|216:40|304:88,1,120,0|8,0:0|0:0,0:0:0:0:
368,176,51722,6,0,L|464:252,2,120,4|8|0,0:0|0:0|0:0,0:0:0:0:
224,176,53085,2,0,L|128:252,2,120,8|2|8,0:0|0:0|0:0,0:0:0:0:
296,172,54222,1,0,0:0:0:0:
296,172,54449,2,0,P|336:108|408:88,1,120,0|8,0:0|0:0,0:0:0:0:
428,224,55358,5,0,0:0:0:0:
320,316,55813,1,8,0:0:0:0:
320,316,56040,1,0,0:0:0:0:
184,272,56495,1,0,0:0:0:0:
140,216,56722,1,8,0:0:0:0:
144,144,56949,1,0,0:0:0:0:
256,192,57176,12,8,58540,0:0:0:0:
276,136,58995,6,0,B|352:128|352:128|412:160,1,120,4|8,0:0|0:0,0:0:0:0:
264,220,59904,2,0,B|184:204|184:204|112:248,1,120,0|8,0:0|0:0,0:0:0:0:
264,312,60813,2,0,B|340:288|340:288|424:316,1,120,2|8,0:0|0:0,0:0:0:0:
444,268,61495,1,0,0:0:0:0:
444,268,61722,2,0,L|440:136,1,120,0|8,0:0|0:0,0:0:0:0:
296,156,62631,6,0,L|240:112,1,60
184,92,63085,1,8,0:0:0:0:
184,92,63313,2,0,P|88:124|72:160,1,120
56,200,63995,1,8,0:0:0:0:
88,264,64222,1,0,0:0:0:0:
88,264,64449,2,0,P|94:274|190:306,2,120,2|8|0,0:0|0:0|0:0,0:0:0:0:
216,196,65813,1,8,0:0:0:0:
216,196,66267,6,0,B|284:156|348:196|348:196|400:88,1,240,4|0,0:0|0:0,0:0:0:0:
428,244,67631,2,0,P|388:280|292:264,1,120,8|2,0:0|0:0,0:0:0:0:
188,332,68540,2,0,L|128:296,2,60,8|0|0,0:0|0:0|0:0,0:0:0:0:
244,200,69449,1,8,0:0:0:0:
332,88,69904,6,0,P|380:168|380:192,1,120,0|8,0:0|0:0,0:0:0:0:
372,264,70585,1,0,0:0:0:0:
244,200,71040,2,0,P|216:180|184:168,1,60,0|8,0:0|0:0,0:0:0:0:
132,208,71495,2,0,P|139:274|176:308,1,120
248,324,72176,1,0,0:0:0:0:
320,328,72404,2,0,P|396:288|452:192,1,180
304,240,73540,6,0,P|364:116|340:76,1,180,2|0,0:0|0:0,0:0:0:0:
304,36,74449,2,0,P|204:24|140:100,1,180,2|0,0:0|0:0,0:0:0:0:
132,144,75358,2,0,P|168:236|264:260,1,180,2|0,0:0|0:0,0:0:0:0:
296,132,76495,1,0,0:0:0:0:
296,132,76722,1,0,0:0:0:0:
296,132,76949,6,0,L|296:44,1,60,8|14,0:0|0:0,0:0:0:0:
152,56,77631,2,0,L|152:128,1,60,0|6,0:0|0:0,0:0:0:0:
192,256,78313,1,0,0:0:0:0:
192,256,78540,2,0,L|384:256,1,180,6|0,0:0|0:0,0:0:0:0:
428,208,79449,1,8,0:0:0:0:
432,136,79676,1,0,0:0:0:0:
388,80,79904,6,0,P|300:68|236:100,2,120,8|8|14,0:0|0:0|0:0,0:0:0:0:
328,212,81267,2,0,L|252:280,1,60,8|6,0:0|0:0,0:0:0:0:
140,268,81949,1,0,0:0:0:0:
92,216,82176,2,0,L|140:100,1,120,6|0,0:0|0:0,0:0:0:0:
176,44,82858,1,0,0:0:0:0:
176,44,83085,1,0,0:0:0:0:
320,36,83540,6,0,L|384:100,1,60,8|0,0:0|0:0,0:0:0:0:
316,136,83995,2,0,L|260:192,1,60,8|0,0:0|0:0,0:0:0:0:
304,244,84449,1,6,0:0:0:0:
256,192,84676,12,0,88085,0:0:0:0:
