osu file format v12

[General]
AudioFilename: Baka to test ED2.mp3
AudioLeadIn: 2000
PreviewTime: 44430
Countdown: 0
SampleSet: Soft
StackLeniency: 0.7
Mode: 0
LetterboxInBreaks: 0

[Editor]
DistanceSpacing: 1.2
BeatDivisor: 4
GridSize: 4

[Metadata]
Title:Hare Tokidoki Egao (TV Size)
TitleUnicode:晴れときどき笑顔 (TV Size)
Artist:Harada Hitomi
ArtistUnicode:原田ひとみ
Creator:-Umi-
Version:Hard
Source:Baka to Test to Shoukanjuu
Tags:kaori mizuhashi emiri katou isomura tomomi 水橋 かおり 加藤 英美里 磯村知美 yoshii sakamoto himeji shimada tsuchiya hideyoshi shôko yozuca 2nd ending silver link the idiot and summoned creatures バカとテストと召喚獣 baka and test : summon the beasts
BeatmapID:269164
BeatmapSetID:101539

[Difficulty]
HPDrainRate:6
CircleSize:4
OverallDifficulty:6
ApproachRate:7
SliderMultiplier:1.4
SliderTickRate:2

[Events]
//Background and Video events
Video,196,"ED 2.avi"
0,0,"BGbaka.jpg",0,0
//Break Periods
//Storyboard Layer 0 (Background)
//Storyboard Layer 1 (Fail)
//Storyboard Layer 2 (Pass)
//Storyboard Layer 3 (Foreground)
//Storyboard Sound Samples
//Background Colour Transformations
3,100,163,162,255

[TimingPoints]
-1005,454.545454545455,4,2,1,60,1,0
358,-100,4,2,1,30,0,0
813,-100,4,2,1,60,0,0
3540,-100,4,2,1,30,0,0
4449,-100,4,2,1,60,0,0
7176,-100,4,2,1,30,0,0
7631,-100,4,2,1,60,0,0
31267,-100,4,3,0,60,0,0
31495,-100,4,2,1,60,0,0
33085,-100,4,3,0,60,0,0
33317,-100,4,2,1,60,0,0
44449,-100,4,2,1,70,0,1
50358,-100,4,2,2,70,0,1
50472,-100,4,2,1,70,0,1
57176,-100,4,2,1,60,0,0
58995,-100,4,2,1,70,0,1
71722,-100,4,2,1,60,0,0
74904,-100,4,3,0,60,0,0
75017,-100,4,2,1,60,0,0
84904,-100,4,2,1,50,0,0
85813,-100,4,2,1,40,0,0
86267,-100,4,2,1,30,0,0
86722,-100,4,2,1,20,0,0
87176,-100,4,2,1,10,0,0
87631,-100,4,2,1,5,0,0

[Colours]
Combo1 : 165,74,255
Combo2 : 255,128,192
Combo3 : 255,156,0
Combo4 : 79,255,79
SliderBorder : 255,255,255

[HitObjects]
180,192,358,2,2,L|232:192,3,35
256,192,813,6,0,P|300:104|276:60,1,140,2|0,0:0|0:0,0:0:0:0:
256,192,1495,2,0,P|292:268|352:292,1,140,2|0,0:0|0:0,0:0:0:0:
256,192,2176,2,0,P|140:204|112:232,1,140,2|0,0:0|0:0,0:0:0:0:
460,264,3540,5,2,0:0:0:0:
384,304,3767,1,2,0:0:0:0:
300,296,3995,1,2,0:0:0:0:
236,244,4222,1,2,0:0:0:0:
204,168,4449,6,0,P|184:96|216:24,1,140,2|0,0:0|0:0,0:0:0:0:
361,28,5131,2,0,P|304:54|268:120,1,140,2|0,0:0|0:0,0:0:0:0:
352,124,5813,2,0,P|424:104|496:136,1,140,2|0,0:0|0:0,0:0:0:0:
204,168,7176,5,2,0:0:0:0:
285,144,7404,1,2,0:0:0:0:
363,177,7631,1,0,0:0:0:0:
400,252,7858,1,0,0:0:0:0:
328,296,8085,6,0,P|328:208|368:176,1,140,4|8,0:0|0:0,0:0:0:0:
400,252,8767,1,0,0:0:0:0:
400,252,8995,2,0,P|324:238|288:190,1,140,0|8,0:0|0:0,0:0:0:0:
372,176,9676,1,0,0:0:0:0:
372,176,9904,2,0,P|340:252|288:272,1,140,0|8,0:0|0:0,0:0:0:0:
204,284,10585,1,0,0:0:0:0:
204,284,10813,2,0,P|240:204|300:192,1,140,0|8,0:0|0:0,0:0:0:0:
456,192,11722,5,4,0:0:0:0:
376,336,12176,1,8,0:0:0:0:
376,336,12404,1,4,0:0:0:0:
292,192,12858,1,0,0:0:0:0:
208,192,13085,2,0,P|264:112|372:216,1,280,4|0,0:0|0:0,0:0:0:0:
256,320,14449,5,0,0:0:0:0:
208,192,14676,1,0,0:0:0:0:
323,269,14904,1,8,0:0:0:0:
187,271,15131,1,0,0:0:0:0:
292,192,15358,6,0,P|353:174|369:158,2,70,4|0|8,0:0|0:0|0:0,0:0:0:0:
232,252,16040,2,0,P|169:241|149:229,2,70
308,292,16722,2,0,P|348:292|396:268,1,70,8|0,0:0|0:0,0:0:0:0:
436,224,17176,5,0,0:0:0:0:
380,160,17404,1,0,0:0:0:0:
300,184,17631,1,8,0:0:0:0:
344,256,17858,2,0,P|272:265|217:207,1,140
227,139,18540,1,8,0:0:0:0:
300,184,18767,1,0,0:0:0:0:
223,224,18995,1,0,0:0:0:0:
332,56,19449,6,0,P|240:40|168:56,2,140,8|0|8,0:0|0:0|0:0,0:0:0:0:
360,136,20585,1,0,0:0:0:0:
276,120,20813,2,0,P|192:128|140:156,1,140,0|8,0:0|0:0,0:0:0:0:
96,224,21495,1,0,0:0:0:0:
180,224,21722,2,0,P|252:204|328:240,1,140,0|8,0:0|0:0,0:0:0:0:
472,172,22631,6,0,L|384:148,1,70
344,212,23085,2,0,L|440:240,1,70,8|0,0:0|0:0,0:0:0:0:
456,84,23540,2,0,B|388:68|388:68|312:104,2,140,0|8|0,0:0|0:0|0:0,0:0:0:0:
408,216,24676,6,0,L|392:148,1,70,0|8,0:0|0:0,0:0:0:0:
312,176,25131,2,0,B|324:232|324:232|336:296|400:296,1,140
408,216,25813,2,0,P|452:260|456:280,2,70,8|0|0,0:0|0:0|0:0,0:0:0:0:
428,48,26722,6,0,B|380:28|340:64|340:64|304:104,2,140,8|0|8,0:0|0:0|0:0,0:0:0:0:
396,128,27858,1,0,0:0:0:0:
396,128,28085,2,0,L|336:196,2,70,0|0|8,0:0|0:0|0:0,0:0:0:0:
444,196,28767,2,0,L|384:267,1,70
349,180,29222,5,0,0:0:0:0:
284,232,29449,1,8,0:0:0:0:
284,232,29563,1,8,0:0:0:0:
284,232,29676,1,8,0:0:0:0:
272,152,29904,6,0,B|228:104|176:120|176:120|136:96,1,140,4|8,0:0|0:0,0:0:0:0:
64,120,30585,1,0,0:0:0:0:
64,204,30813,2,0,B|80:231|80:231|68:296|120:328,1,140,0|8,0:0|0:0,0:0:0:0:
160,260,31495,1,0,0:0:0:0:
160,260,31722,2,0,B|172:208|160:176|108:136,1,140,0|8,0:0|0:0,0:0:0:0:
168,76,32404,2,0,B|211:118|244:125|294:106,1,140,0|0,0:0|0:0,0:0:0:0:
376,128,33085,5,4,0:0:0:0:
336,200,33313,2,0,P|299:212|263:240,1,70
299,308,33767,2,0,P|243:304|211:176,1,210
373,141,34904,6,0,P|347:155|322:187,2,70,8|0|0,0:0|0:0|0:0,0:0:0:0:
347,60,35585,2,0,P|419:68|435:192,1,210
451,272,36495,1,0,0:0:0:0:
391,328,36722,2,8,L|415:384,2,35
327,272,37176,6,0,P|247:276|195:232,1,140,4|8,0:0|0:0,0:0:0:0:
279,196,37858,1,0,0:0:0:0:
363,196,38085,2,0,P|423:164|435:76,1,140,0|8,0:0|0:0,0:0:0:0:
359,112,38767,1,0,0:0:0:0:
279,127,38995,2,0,P|287:76|359:32,1,140,0|8,0:0|0:0,0:0:0:0:
359,112,39676,2,0,P|395:208|451:232,1,140
507,244,40358,1,8,0:0:0:0:
256,192,40585,12,8,42176,0:0:0:0:
256,304,42631,5,8,0:0:0:0:
140,192,42858,1,8,0:0:0:0:
256,84,43085,1,8,0:0:0:0:
368,192,43313,1,8,0:0:0:0:
224,176,43767,6,0,P|248:224|268:156,1,140,4|0,0:0|0:0,0:0:0:0:
256,84,44449,5,4,0:0:0:0:
172,84,44676,1,0,0:0:0:0:
172,84,44904,2,0,P|120:112|104:148,1,70,8|0,0:0|0:0,0:0:0:0:
172,244,45358,2,0,P|120:212|104:176,1,70
188,164,45813,2,0,B|220:200|252:172|308:140|340:184,1,140,8|2,0:0|0:0,0:0:0:0:
372,232,46495,1,0,0:0:0:0:
316,296,46722,2,0,B|303:323|247:291|215:263|183:299,2,140,8|0|8,0:0|0:0|0:0,0:0:0:0:
308,128,48085,6,0,P|224:100|176:136,1,140,0|8,0:0|0:0,0:0:0:0:
120,180,48767,2,0,P|192:212|256:168,1,140
308,128,49449,1,8,0:0:0:0:
360,192,49676,1,0,0:0:0:0:
300,252,49904,2,0,P|156:296|88:264,1,210,2|0,0:0|0:0,0:0:0:0:
124,196,50813,2,0,P|188:168|264:184,1,140,0|8,0:0|0:0,0:0:0:0:
255,179,51722,6,0,P|268:136|300:112,1,70
336,188,52176,1,8,0:0:0:0:
296,260,52404,2,0,P|272:276|248:324,1,70
336,188,52858,1,0,0:0:0:0:
296,260,53085,6,0,P|372:264|424:208,2,140,8|2|8,0:0|0:0|0:0,0:0:0:0:
336,188,54222,1,0,0:0:0:0:
288,336,54449,2,0,P|224:276|236:216,2,140,0|8|0,0:0|0:0|0:0,0:0:0:0:
392,204,55813,5,8,0:0:0:0:
328,148,56040,1,0,0:0:0:0:
48,200,56495,1,0,0:0:0:0:
144,176,56722,1,8,0:0:0:0:
72,112,56949,1,0,0:0:0:0:
256,192,57176,12,0,58540,0:0:0:0:
232,168,58995,6,0,L|180:116,1,70,4|0,0:0|0:0,0:0:0:0:
300,236,59449,2,0,L|360:296,1,70,8|0,0:0|0:0,0:0:0:0:
300,168,59904,2,0,L|352:116,1,70,0|0,0:0|0:0,0:0:0:0:
232,236,60358,2,0,L|172:296,1,70,8|0,0:0|0:0,0:0:0:0:
124,344,60813,2,0,B|92:304|100:268|116:240|116:240|80:212,1,140,2|8,0:0|0:0,0:0:0:0:
116,140,61495,1,0,0:0:0:0:
116,140,61722,2,0,P|184:112|200:24,1,140,0|8,0:0|0:0,0:0:0:0:
344,152,62631,6,0,B|412:200|412:200|396:268,1,140,0|8,0:0|0:0,0:0:0:0:
316,252,63313,2,0,B|276:280|276:280|324:372,1,140
384,308,63995,1,8,0:0:0:0:
316,252,64222,1,0,0:0:0:0:
308,168,64449,2,0,P|320:108|388:64,1,140,2|8,0:0|0:0,0:0:0:0:
388,148,65131,1,0,0:0:0:0:
308,168,65358,2,0,P|228:164|180:96,1,140,0|8,0:0|0:0,0:0:0:0:
104,268,66267,5,4,0:0:0:0:
188,123,66722,1,8,0:0:0:0:
280,268,67176,1,0,0:0:0:0:
104,268,67631,2,0,P|104:224|84:192,1,70,8|0,0:0|0:0,0:0:0:0:
96,116,68085,2,0,P|172:76|200:20,1,140,2|8,0:0|0:0,0:0:0:0:
272,68,68767,1,0,0:0:0:0:
232,140,68995,2,0,P|248:232|292:276,1,140,0|8,0:0|0:0,0:0:0:0:
388,140,69904,6,0,B|420:152|424:196|424:196|456:220|456:272,1,140,0|8,0:0|0:0,0:0:0:0:
372,260,70585,2,0,P|348:232|340:196,1,70
264,164,71040,2,0,P|208:180|184:176,2,70,0|8|0,0:0|0:0|0:0,0:0:0:0:
296,88,71722,5,0,0:0:0:0:
212,96,71949,1,0,0:0:0:0:
264,164,72176,1,8,0:0:0:0:
348,164,72404,1,4,0:0:0:0:
480,268,72858,5,0,0:0:0:0:
420,208,73085,1,8,0:0:0:0:
388,180,73199,1,8,0:0:0:0:
348,164,73313,1,8,0:0:0:0:
264,164,73540,2,0,P|188:208|164:256,1,140,2|0,0:0|0:0,0:0:0:0:
124,328,74222,5,0,0:0:0:0:
124,328,74449,2,0,B|180:356|228:316|228:316|268:328,1,140,2|4,0:0|0:0,0:0:0:0:
340,180,75358,2,0,B|304:136|212:136|212:224|128:224|84:168,1,280,2|0,0:0|0:0,0:0:0:0:
52,100,76495,1,0,0:0:0:0:
136,112,76722,1,8,0:0:0:0:
86,170,76949,5,8,0:0:0:0:
116,196,77063,1,8,0:0:0:0:
156,208,77176,2,0,P|228:204|280:156,1,140,6|8,0:0|0:0,0:0:0:0:
344,212,77858,2,0,P|313:255|336:344,1,140,6|8,0:0|0:0,0:0:0:0:
417,317,78540,2,0,P|408:264|344:212,1,140,6|0,0:0|0:0,0:0:0:0:
324,332,79222,5,0,0:0:0:0:
240,332,79449,1,0,0:0:0:0:
184,268,79676,1,0,0:0:0:0:
212,188,79904,2,8,L|193:157,2,35
296,188,80358,2,8,L|323:165,2,35
256,264,80813,6,0,B|180:264|180:264|136:310,1,140,6|8,0:0|0:0,0:0:0:0:
256,264,81495,2,0,B|328:264|328:264|380:306,1,140,6|8,0:0|0:0,0:0:0:0:
256,264,82176,2,0,L|256:124,1,140,6|0,0:0|0:0,0:0:0:0:
328,80,82858,1,0,0:0:0:0:
256,40,83085,1,0,0:0:0:0:
184,80,83313,1,0,0:0:0:0:
314,164,83540,6,0,L|344:236,1,70,8|0,0:0|0:0,0:0:0:0:
200,164,83995,2,0,L|170:236,1,70,8|0,0:0|0:0,0:0:0:0:
256,112,84449,1,6,0:0:0:0:
256,192,84676,12,0,88085,0:0:0:0:
