osu file format v12

[General]
AudioFilename: Baka to test ED2.mp3
AudioLeadIn: 2000
PreviewTime: 44430
Countdown: 0
SampleSet: Soft
StackLeniency: 0.7
Mode: 0
LetterboxInBreaks: 0

[Editor]
DistanceSpacing: 1
BeatDivisor: 2
GridSize: 4

[Metadata]
Title:Hare Tokidoki Egao (TV Size)
TitleUnicode:晴れときどき笑顔 (TV Size)
Artist:Harada Hitomi
ArtistUnicode:原田ひとみ
Creator:-Umi-
Version:Easy
Source:Baka to Test to Shoukanjuu
Tags:kaori mizuhashi emiri katou isomura tomomi 水橋 かおり 加藤 英美里 磯村知美 yoshii sakamoto himeji shimada tsuchiya hideyoshi shôko yozuca 2nd ending silver link the idiot and summoned creatures バカとテストと召喚獣 baka and test : summon the beasts
BeatmapID:268952
BeatmapSetID:101539

[Difficulty]
HPDrainRate:2
CircleSize:3
OverallDifficulty:2
ApproachRate:3
SliderMultiplier:1
SliderTickRate:2

[Events]
//Background and Video events
Video,196,"ED 2.avi"
0,0,"BGbaka.jpg",0,0
//Break Periods
//Storyboard Layer 0 (Background)
//Storyboard Layer 1 (Fail)
//Storyboard Layer 2 (Pass)
//Storyboard Layer 3 (Foreground)
//Storyboard Sound Samples
//Background Colour Transformations
3,100,163,162,255

[TimingPoints]
-1005,454.545454545455,4,2,1,60,1,0
3540,-100,4,2,1,30,0,0
4449,-100,4,2,1,60,0,0
7176,-100,4,2,1,30,0,0
7631,-100,4,2,1,60,0,0
8540,-100,4,2,2,60,0,0
8767,-100,4,2,1,60,0,0
10358,-100,4,2,2,60,0,0
10585,-100,4,2,1,60,0,0
12176,-100,4,2,2,60,0,0
12404,-100,4,2,1,60,0,0
18540,-100,4,2,2,60,0,0
18767,-100,4,2,1,60,0,0
31267,-100,4,3,0,60,0,0
31495,-100,4,2,1,60,0,0
33085,-100,4,3,0,60,0,0
33313,-100,4,2,1,60,0,0
33995,-100,4,2,2,60,0,0
34222,-100,4,2,1,60,0,0
35813,-100,4,2,2,60,0,0
36040,-100,4,2,1,60,0,0
39449,-100,4,2,2,60,0,0
39676,-100,4,2,1,60,0,0
44449,-100,4,2,1,70,0,1
46722,-100,4,2,2,70,0,1
46949,-100,4,2,1,70,0,1
50358,-100,4,2,2,70,0,1
50585,-100,4,2,1,70,0,1
51267,-100,4,2,2,70,0,1
51495,-100,4,2,1,70,0,1
57176,-100,4,2,1,60,0,0
58995,-100,4,2,1,70,0,1
61267,-100,4,2,2,70,0,1
61495,-100,4,2,1,70,0,1
62176,-100,4,2,2,70,0,1
62404,-100,4,2,1,70,0,1
68540,-100,4,2,2,70,0,1
68767,-100,4,2,1,70,0,1
71722,-100,4,2,1,60,0,0
74904,-100,4,3,0,60,0,0
75131,-100,4,2,1,60,0,0
84904,-100,4,2,1,50,0,0
85813,-100,4,2,1,40,0,0
86267,-100,4,2,1,30,0,0
86722,-100,4,2,1,20,0,0
87176,-100,4,2,1,10,0,0
87631,-100,4,2,1,5,0,0

[Colours]
Combo1 : 165,74,255
Combo2 : 255,128,192
Combo3 : 255,156,0
Combo4 : 79,255,79
SliderBorder : 255,255,255

[HitObjects]
248,88,813,2,0,B|181:54|181:54|105:54,2,150,2|2|2,0:0|0:0|0:0,0:0:0:0:
76,336,3540,6,0,P|88:284|128:256,1,100,2|2,0:0|0:0,0:0:0:0:
220,232,4449,2,0,B|296:232|296:232|365:205,2,150,2|2|2,0:0|0:0|0:0,0:0:0:0:
460,56,7176,6,0,P|416:144|416:168,1,100,2|8,0:0|0:0,0:0:0:0:
416,244,8085,2,0,B|359:234|323:268|323:268|274:257|227:298,1,200,4|0,0:0|0:0,0:0:0:0:
143,246,9449,1,8,0:0:0:0:
195,161,9904,6,0,B|251:170|287:136|287:136|336:147|383:106,1,200
308,40,11267,1,8,0:0:0:0:
216,80,11722,2,0,P|172:79|116:176,2,150,4|4|12,0:0|0:0|0:0,0:0:0:0:
256,192,13313,12,0,14449,0:0:0:0:
168,116,15358,5,4,0:0:0:0:
256,68,15813,1,8,0:0:0:0:
344,116,16267,1,0,0:0:0:0:
390,205,16722,2,0,P|408:196|444:128,2,100,8|0|8,0:0|0:0|0:0,0:0:0:0:
344,116,18085,2,0,P|292:192|352:296,1,200
390,205,19449,6,0,L|508:204,2,100,8|0|8,0:0|0:0|0:0,0:0:0:0:
376,104,20813,2,0,P|308:140|292:188,1,100,0|8,0:0|0:0,0:0:0:0:
224,88,21722,2,0,P|192:160|188:200,1,100,0|8,0:0|0:0,0:0:0:0:
212,276,22631,6,0,B|252:312|252:312|320:312,1,100,0|8,0:0|0:0,0:0:0:0:
296,212,23540,2,0,B|344:192|344:192|364:120,1,100,0|8,0:0|0:0,0:0:0:0:
260,120,24449,2,0,B|228:76|228:76|160:76,2,100,0|8|0,0:0|0:0|0:0,0:0:0:0:
296,212,25813,1,8,0:0:0:0:
216,272,26267,1,0,0:0:0:0:
296,328,26722,6,0,B|324:312|348:328|376:344|412:312,1,100,8|0,0:0|0:0,0:0:0:0:
472,264,27631,1,8,0:0:0:0:
396,200,28085,2,0,B|378:180|350:196|326:212|298:196,2,100,0|8|0,0:0|0:0|0:0,0:0:0:0:
356,108,29449,1,8,0:0:0:0:
256,116,29904,6,0,P|208:164|204:200,1,100,4|8,0:0|0:0,0:0:0:0:
304,200,30813,2,0,P|352:248|356:277,1,100,0|8,0:0|0:0,0:0:0:0:
256,284,31722,2,0,P|208:332|204:368,1,100,0|8,0:0|0:0,0:0:0:0:
304,372,32631,2,0,P|384:380|416:348,1,100,0|4,0:0|0:0,0:0:0:0:
420,328,33313,6,0,B|449:281|380:227|289:195|334:103,1,250
180,116,35131,2,0,B|221:196|130:228|61:282|89:328,1,250
184,348,36722,1,8,0:0:0:0:
272,296,37176,6,0,P|372:320|392:344,1,100,4|8,0:0|0:0,0:0:0:0:
436,244,38085,2,0,P|400:200|396:148,1,100,0|8,0:0|0:0,0:0:0:0:
439,68,38995,2,0,P|367:59|307:103,1,150
264,196,40131,1,0,0:0:0:0:
256,192,40585,12,8,42631,0:0:0:0:
204,192,43767,6,0,P|140:236|148:336,1,150,4|4,0:0|0:0,0:0:0:0:
228,284,44904,5,8,0:0:0:0:
292,208,45358,2,0,L|360:112,1,100,0|8,0:0|0:0,0:0:0:0:
396,216,46267,2,0,B|448:136|448:136|452:92|396:60,2,150,2|0|8,0:0|0:0|0:0,0:0:0:0:
308,168,48085,5,0,0:0:0:0:
271,264,48540,1,8,0:0:0:0:
172,264,48995,1,0,0:0:0:0:
152,168,49449,1,8,0:0:0:0:
228,110,49904,2,0,P|284:144|272:264,2,200,2|0|4,0:0|0:0|0:0,0:0:0:0:
196,204,52176,6,0,P|148:244|96:240,1,100,8|0,0:0|0:0,0:0:0:0:
32,188,53085,2,0,P|68:156|124:152,2,100,8|2|8,0:0|0:0|0:0,0:0:0:0:
112,244,54449,2,0,B|132:296|132:296|176:332,1,100,0|8,0:0|0:0,0:0:0:0:
268,332,55358,5,0,0:0:0:0:
364,304,55813,2,0,P|412:292|428:232,1,100,8|0,0:0|0:0,0:0:0:0:
432,148,56722,2,0,P|412:104|364:92,1,100,8|2,0:0|0:0,0:0:0:0:
212,164,58995,6,0,P|268:152|332:180,1,100,4|8,0:0|0:0,0:0:0:0:
260,252,59904,2,0,P|244:304|272:360,1,100,0|8,0:0|0:0,0:0:0:0:
348,300,60813,2,0,B|416:268|416:160|332:136,2,200,2|0|0,0:0|0:0|0:0,0:0:0:0:
284,224,63085,6,0,L|176:224,1,100,8|0,0:0|0:0,0:0:0:0:
84,224,63995,2,0,P|108:152|148:132,2,100,8|2|8,0:0|0:0|0:0,0:0:0:0:
184,224,65358,2,0,P|228:164|216:100,1,100,0|8,0:0|0:0,0:0:0:0:
280,56,66267,5,4,0:0:0:0:
380,56,66722,1,8,0:0:0:0:
332,144,67176,1,0,0:0:0:0:
432,144,67631,1,8,0:0:0:0:
380,228,68085,2,0,B|368:320|276:324|276:324|252:360,1,200,2|0,0:0|0:0,0:0:0:0:
168,308,69449,5,8,0:0:0:0:
92,244,69904,2,0,P|64:216|48:128,1,100,0|8,0:0|0:0,0:0:0:0:
136,160,70813,2,0,P|137:105|184:60,2,100,0|8|2,0:0|0:0|0:0,0:0:0:0:
304,76,73540,6,0,P|372:200|300:332,1,300,2|4,0:0|0:0,0:0:0:0:
204,328,75358,2,0,P|136:208|228:64,1,300,2|8,0:0|0:0,0:0:0:0:
285,9,77176,6,0,P|320:60|288:136,2,150,14|6|6,0:0|0:0|0:0,0:0:0:0:
188,292,79904,6,0,P|164:220|184:164,1,100,8|8,0:0|0:0,0:0:0:0:
68,196,80813,2,0,P|96:128|196:104,2,150,6|6|6,0:0|0:0|0:0,0:0:0:0:
360,260,83540,5,8,0:0:0:0:
404,168,83995,1,8,0:0:0:0:
352,84,84449,1,6,0:0:0:0:
256,192,84676,12,0,88085,0:0:0:0:
