osu file format v12

[General]
AudioFilename: Burnt Red.mp3
AudioLeadIn: 0
PreviewTime: 54655
Countdown: 0
SampleSet: Normal
StackLeniency: 0.7
Mode: 0
LetterboxInBreaks: 1
WidescreenStoryboard: 1

[Editor]
DistanceSpacing: 1.1
BeatDivisor: 4
GridSize: 4

[Metadata]
Title:Burnt Red
TitleUnicode:Burnt Red
Artist:Harada Hitomi
ArtistUnicode:原田ひとみ
Creator:Meramipop
Version:[E] Green
Source:Kikou Shoujo wa Kizutsukanai: Facing "Burnt Red"
Tags:anicca machine-doll machine doll yaya 原田瞳 raishin akabane 機巧少女は傷つかない
BeatmapID:334266
BeatmapSetID:133007

[Difficulty]
HPDrainRate:1
CircleSize:2
OverallDifficulty:1
ApproachRate:2
SliderMultiplier:0.7
SliderTickRate:1

[Events]
//Background and Video events
0,0,"YayaGreen.jpg",0,0
//Break Periods
2,68387,74010
2,122472,134433
//Storyboard Layer 0 (Background)
//Storyboard Layer 1 (Fail)
//Storyboard Layer 2 (Pass)
//Storyboard Layer 3 (Foreground)
//Storyboard Sound Samples
//Background Colour Transformations
3,100,163,162,255

[TimingPoints]
782,422.535211267606,4,1,1,25,1,0
7542,-100,4,1,1,45,0,0
14303,-100,4,1,2,50,0,0
33739,-100,4,2,1,60,0,0
34584,-100,4,1,2,60,0,0
48105,-100,4,1,1,60,0,0
54866,-100,4,1,1,70,0,1
67965,-100,4,1,1,50,0,0
75148,-100,4,2,1,60,0,0
87401,-100,4,2,1,60,0,0
88669,-100,4,1,2,60,0,0
101345,-100,4,1,1,60,0,0
108951,-100,4,1,1,70,0,1
122049,-100,4,1,2,50,0,0
135993,-100,4,1,2,60,0,1
141908,-100,4,1,1,50,0,0
142753,-100,4,1,2,60,0,1
148669,-100,4,1,1,60,0,0
149514,-100,4,1,1,50,0,0
150148,-100,4,2,1,60,0,0
162190,-100,4,1,2,40,0,0
163035,-100,4,1,1,70,0,1
176134,-100,4,1,1,50,0,0

[Colours]
Combo1 : 196,255,187
Combo2 : 75,255,74
Combo3 : 28,221,0
Combo4 : 143,255,128

[HitObjects]
84,72,7542,2,0,P|68:124|72:216,1,140,4|8,0:0|0:0,0:0:0:0:
188,308,9232,2,0,P|204:256|200:164,1,140,0|8,0:0|0:0,0:0:0:0:
336,92,10922,6,0,P|320:144|324:236,1,140,0|8,0:0|0:0,0:0:0:0:
440,328,12612,2,0,P|456:276|452:184,1,140,0|8,0:0|0:0,0:0:0:0:
348,80,14303,5,4,0:0:0:0:
228,176,15148,2,0,L|84:184,1,140,8|0,0:0|0:0,0:0:0:0:
40,244,16415,1,0,0:0:0:0:
68,316,16838,2,0,P|112:336|212:336,1,140,8|0,0:0|0:0,0:0:0:0:
352,304,18528,5,8,0:0:0:0:
428,168,19373,1,0,0:0:0:0:
372,24,20218,1,8,0:0:0:0:
236,96,21063,6,0,P|192:100|96:76,2,140,0|8|0,0:0|0:0|0:0,0:0:0:0:
356,192,23598,1,8,0:0:0:0:
236,288,24443,6,0,P|192:284|96:308,2,140,0|8|0,0:0|0:0|0:0,0:0:0:0:
304,328,26556,5,0,0:0:0:0:
376,300,26979,2,0,P|420:304|512:272,1,140,8|4,0:0|0:0,0:0:0:0:
416,152,28669,5,8,0:0:0:0:
292,60,29514,2,0,P|229:46|152:60,1,140,0|8,0:0|0:0,0:0:0:0:
32,152,31204,5,0,0:0:0:0:
176,212,32049,2,0,P|180:256|152:356,1,140,8|0,0:0|0:0,0:0:0:0:
36,252,33739,1,8,0:0:0:0:
36,100,34584,6,0,L|84:40,1,70,4|8,0:0|0:0,0:0:0:0:
128,104,35429,2,0,P|172:116|276:104,1,140,8|0,0:0|0:0,0:0:0:0:
384,12,37120,1,8,0:0:0:0:
508,104,37965,1,0,0:0:0:0:
416,228,38810,6,0,P|416:288|388:368,1,140,8|0,0:0|0:0,0:0:0:0:
316,340,40077,1,8,0:0:0:0:
240,360,40500,2,0,P|204:364|168:356,1,70,8|8,0:0|0:0,0:0:0:0:
52,260,41767,5,0,0:0:0:0:
24,188,42190,2,0,P|24:132|48:48,1,140,8|0,0:0|0:0,0:0:0:0:
188,112,43880,2,0,P|236:120|336:112,1,140,8|0,0:0|0:0,0:0:0:0:
456,32,45570,5,8,0:0:0:0:
508,176,46415,1,0,0:0:0:0:
372,252,47260,1,8,0:0:0:0:
408,320,47683,1,8,0:0:0:0:
340,360,48105,6,0,P|300:368|200:364,1,140,4|8,0:0|0:0,0:0:0:0:
56,88,51486,5,0,0:0:0:0:
20,156,51908,1,0,0:0:0:0:
52,224,52331,2,0,P|104:240|192:236,1,140,8|0,0:0|0:0,0:0:0:0:
436,52,54866,5,4,0:0:0:0:
504,188,55711,1,8,0:0:0:0:
436,328,56556,2,0,P|384:336|296:328,1,140,0|8,0:0|0:0,0:0:0:0:
152,276,58246,5,0,0:0:0:0:
216,136,59091,1,8,0:0:0:0:
96,40,59936,2,0,P|72:88|72:176,1,140,0|8,0:0|0:0,0:0:0:0:
188,276,61627,6,0,B|224:268|256:280|256:280|300:268|332:280,1,140,4|8,0:0|0:0,0:0:0:0:
460,352,63317,1,0,0:0:0:0:
400,212,64162,1,8,0:0:0:0:
444,148,64584,1,8,0:0:0:0:
424,72,65007,6,0,P|368:48|280:48,1,140,0|12,0:0|0:0,0:0:0:0:
152,112,66697,2,0,P|108:116|8:80,1,140,0|12,0:0|0:0,0:0:0:0:
80,112,75570,5,0,0:0:0:0:
144,156,75993,2,0,P|196:164|284:160,1,140,2|0,0:0|0:0,0:0:0:0:
400,60,77683,2,0,P|420:120|424:204,1,140,2|0,0:0|0:0,0:0:0:0:
340,324,79373,6,0,B|306:317|269:323|269:323|232:315|196:324,1,140,2|0,0:0|0:0,0:0:0:0:
100,208,81063,2,0,L|116:136,1,70,2|2,0:0|0:0,0:0:0:0:
264,108,82331,5,0,0:0:0:0:
340,120,82753,2,0,P|348:168|336:264,1,140,8|0,0:0|0:0,0:0:0:0:
188,224,84443,2,0,P|180:176|192:80,1,140,8|0,0:0|0:0,0:0:0:0:
328,20,86134,5,8,0:0:0:0:
444,124,86979,2,0,L|380:168,2,70
484,272,88669,5,4,0:0:0:0:
348,348,89514,2,0,P|300:356|208:348,1,140,8|0,0:0|0:0,0:0:0:0:
68,288,91204,1,8,0:0:0:0:
144,156,92049,5,0,0:0:0:0:
280,228,92894,1,8,0:0:0:0:
416,156,93739,2,0,P|428:100|416:16,2,140,0|8|0,0:0|0:0|0:0,0:0:0:0:
328,280,96274,6,0,P|280:288|184:284,1,140,8|0,0:0|0:0,0:0:0:0:
48,224,97965,1,8,0:0:0:0:
96,76,98810,5,0,0:0:0:0:
244,124,99655,1,8,0:0:0:0:
128,224,100500,2,0,P|120:264|124:304,1,70,0|0,0:0|0:0,0:0:0:0:
152,364,101345,1,8,0:0:0:0:
284,288,102190,6,0,P|332:296|428:284,1,140,4|8,0:0|0:0,0:0:0:0:
504,156,103880,2,0,L|512:80,2,70,0|0|8,0:0|0:0|0:0,0:0:0:0:
388,56,105570,6,0,P|340:48|244:60,1,140,0|8,0:0|0:0,0:0:0:0:
196,112,106838,2,0,P|188:156|188:196,1,70,0|0,0:0|0:0,0:0:0:0:
308,280,108105,1,8,0:0:0:0:
384,144,108951,5,4,0:0:0:0:
248,76,109796,1,8,0:0:0:0:
164,204,110641,2,0,P|224:224|304:220,1,140,0|8,0:0|0:0,0:0:0:0:
444,164,112331,5,0,0:0:0:0:
504,304,113176,1,8,0:0:0:0:
356,256,114021,2,0,P|336:196|340:116,1,140,0|8,0:0|0:0,0:0:0:0:
228,16,115711,5,4,0:0:0:0:
92,88,116556,1,8,0:0:0:0:
184,212,117401,2,0,P|188:264|168:356,1,140,0|8,0:0|0:0,0:0:0:0:
20,312,119091,2,0,P|12:268|16:232,2,70,0|12|12,0:0|0:0|0:0,0:0:0:0:
148,228,120782,5,0,0:0:0:0:
224,220,121204,1,0,0:0:0:0:
300,236,121627,1,4,0:0:0:0:
24,212,135993,6,0,L|140:236,1,105,4|0,0:0|0:0,0:0:0:0:
240,260,137260,2,0,L|356:284,1,105,0|0,0:0|0:0,0:0:0:0:
456,308,138528,1,8,0:0:0:0:
492,160,139373,6,0,L|384:168,1,105,0|0,0:0|0:0,0:0:0:0:
272,176,140641,2,0,L|164:184,1,105,0|0,0:0|0:0,0:0:0:0:
52,192,141908,1,8,0:0:0:0:
112,52,142753,6,0,L|208:96,1,105,0|0,0:0|0:0,0:0:0:0:
312,148,144021,2,0,L|408:192,1,105,0|0,0:0|0:0,0:0:0:0:
512,244,145289,1,8,0:0:0:0:
480,92,146134,6,0,L|376:112,1,105,0|0,0:0|0:0,0:0:0:0:
264,132,147401,2,0,L|156:152,1,105,0|0,0:0|0:0,0:0:0:0:
48,172,148669,1,8,0:0:0:0:
12,324,149514,5,4,0:0:0:0:
164,336,150359,1,0,0:0:0:0:
316,364,151204,6,0,P|336:320|344:216,1,140,0|2,0:0|0:2,0:0:0:0:
292,84,152894,5,0,0:0:0:0:
432,20,153739,1,2,0:2:0:0:
508,156,154584,2,0,P|464:172|372:168,1,140,0|2,0:0|0:2,0:0:0:0:
236,100,156274,6,0,P|166:92|100:112,1,140,0|2,0:0|0:2,0:0:0:0:
4,232,157965,1,0,0:0:0:0:
104,348,158810,1,2,0:2:0:0:
168,304,159232,1,0,0:0:0:0:
244,320,159655,6,0,P|280:328|320:328,2,70,0|2|0,0:0|0:2|0:0,0:0:0:0:
156,196,161345,1,0,0:0:0:0:
252,76,162190,1,8,0:0:0:0:
380,164,163035,6,0,P|420:168|512:136,1,140,4|8,0:0|0:0,0:0:0:0:
416,16,164725,1,0,0:0:0:0:
276,80,165570,1,8,0:0:0:0:
272,232,166415,6,0,P|276:284|320:364,1,140,0|8,0:0|0:0,0:0:0:0:
460,308,168105,2,0,L|464:228,1,70,0|8,0:0|0:0,0:0:0:0:
468,160,168951,1,8,0:0:0:0:
352,60,169796,6,0,P|296:56|216:80,1,140,4|8,0:0|0:0,0:0:0:0:
112,192,171486,1,0,0:0:0:0:
192,324,172331,2,0,P|248:336|332:324,1,140,8|0,0:0|0:0,0:0:0:0:
388,276,173598,5,12,0:0:0:0:
372,200,174021,1,12,0:0:0:0:
256,100,174866,2,0,L|336:80,1,70,0|0,0:0|0:0,0:0:0:0:
396,60,175711,1,12,0:0:0:0:
