osu file format v14

[General]
AudioFilename: Twilight ni Kienaide.mp3
AudioLeadIn: 2000
PreviewTime: 57243
Countdown: 0
SampleSet: Soft
StackLeniency: 0.7
Mode: 0
LetterboxInBreaks: 0
WidescreenStoryboard: 0

[Editor]
DistanceSpacing: 1.4
BeatDivisor: 4
GridSize: 4
TimelineZoom: 1.2

[Metadata]
Title:Twilight ni Kienaide
TitleUnicode:トワイライトに消えないで
Artist:Hara Yumi
ArtistUnicode:原由実
Creator:kunkakunkakunkakunka
Version:Hard
Source:俺がお嬢様学校に「庶民サンプル」としてゲッツ❤された件
Tags:ending tv size ore ga ojousama gakkou ni shomin sample toshite gets♥sareta ken silver link.
BeatmapID:820223
BeatmapSetID:373704

[Difficulty]
HPDrainRate:6
CircleSize:4
OverallDifficulty:6
ApproachRate:6.5
SliderMultiplier:1.4
SliderTickRate:1

[Events]
//Background and Video events
Video,0,"Twilight ni Kienaide.avi"
0,0,"BG.jpg",0,0
//Break Periods
//Storyboard Layer 0 (Background)
//Storyboard Layer 1 (Fail)
//Storyboard Layer 2 (Pass)
//Storyboard Layer 3 (Foreground)
//Storyboard Sound Samples

[TimingPoints]
577,476.190476190476,4,2,1,40,1,0
3910,-90.9090909090909,4,2,1,45,0,0
4386,-100,4,2,1,40,0,0
23434,-90.9090909090909,4,2,1,45,0,0
23672,-100,4,2,1,40,0,0
38672,-90.9090909090909,4,2,1,45,0,0
38910,-100,4,2,1,40,0,0
54862,-90.9090909090909,4,2,1,45,0,0
57719,-86.9565217391304,4,2,1,50,0,1
72838,-90.9090909090909,4,2,1,50,0,0
72957,-86.9565217391304,4,2,1,50,0,1
79862,-83.3333333333333,4,2,1,55,0,1
80100,-86.9565217391304,4,2,1,50,0,1
87957,-133.333333333333,4,2,1,20,0,0
88672,-133.333333333333,4,2,1,10,0,0

[Colours]
Combo1 : 255,128,255
Combo2 : 128,255,128
Combo3 : 128,255,255
Combo4 : 255,128,128
Combo5 : 255,255,128

[HitObjects]
83,286,577,6,0,P|116:277|151:283,1,70,4|2,0:0|0:0,0:0:0:0:
243,315,1053,2,0,P|276:324|311:318,1,70,8|2,0:0|0:0,0:0:0:0:
351,229,1529,2,0,P|318:220|283:226,1,70,2|2,0:3|0:0,0:0:0:0:
190,195,2005,2,0,P|181:162|187:127,1,70,8|2,0:0|0:0,0:0:0:0:
253,55,2481,6,0,P|286:46|321:52,1,70,2|2,0:3|0:0,0:0:0:0:
360,141,2957,2,0,P|327:150|292:144,1,70,8|2,0:0|0:0,0:0:0:0:
196,119,3434,2,0,L|158:124,3,35,2|8|0|2,0:3|0:0|0:0|0:3,0:0:0:0:
140,173,3910,2,0,L|60:184,1,77.0000023498536,8|0,0:0|0:0,0:0:0:0:
11,266,4386,5,12,0:0:0:0:
62,349,4624,1,2,0:3:0:0:
159,336,4862,1,8,0:0:0:0:
208,220,5100,2,0,P|255:173|326:169,1,140,2|12,0:3|0:0,0:0:0:0:
405,228,5814,1,2,0:3:0:0:
500,310,6053,6,0,P|412:358|317:320,1,210,12|0,0:0|0:0,0:0:0:0:
221,147,7243,2,0,P|175:128|120:140,1,105,8|2,0:0|0:3,0:0:0:0:
79,161,7719,1,12,1:2:0:0:
102,284,7957,1,8,0:0:0:0:
102,284,8076,1,8,0:0:0:0:
102,284,8196,6,0,L|206:306,1,105,4|0,0:0|0:0,0:0:0:0:
249,285,8672,2,0,P|282:270|319:274,1,70,8|0,0:0|0:0,0:0:0:0:
394,330,9148,1,2,0:3:0:0:
483,289,9386,1,2,0:3:0:0:
507,194,9624,2,0,P|506:155|493:127,1,70,8|0,0:0|0:0,0:0:0:0:
404,86,10100,6,0,L|299:77,1,105,2|0,0:3|0:0,0:0:0:0:
267,114,10576,2,0,L|196:107,1,70,8|0,0:0|0:0,0:0:0:0:
117,165,11053,1,2,0:0:0:0:
74,253,11291,1,2,0:3:0:0:
17,168,11529,1,10,0:0:0:0:
64,82,11767,1,2,0:0:0:0:
64,82,11886,1,0,0:0:0:0:
64,82,12005,6,0,P|116:64|164:77,1,105,2|0,0:3|0:0,0:0:0:0:
208,95,12481,2,0,P|242:107|274:98,1,70,8|0,0:0|0:0,0:0:0:0:
360,52,12957,1,2,0:3:0:0:
453,83,13196,1,2,0:3:0:0:
464,180,13434,2,0,L|455:251,1,70,8|0,0:0|0:0,0:0:0:0:
408,335,13910,6,0,P|356:353|308:340,1,105,2|0,0:3|0:0,0:0:0:0:
264,322,14386,2,0,P|229:309|197:318,1,70,8|0,0:0|0:0,0:0:0:0:
103,343,14862,1,2,0:3:0:0:
26,283,15100,1,2,0:3:0:0:
47,187,15338,1,8,0:0:0:0:
139,153,15576,1,0,0:0:0:0:
235,235,15815,6,0,P|285:256|338:251,1,105,4|0,0:0|0:0,0:0:0:0:
374,223,16291,2,0,L|448:231,1,70,8|0,0:0|0:0,0:0:0:0:
498,149,16767,1,2,0:3:0:0:
498,149,17005,1,2,0:3:0:0:
436,73,17243,2,0,P|402:60|367:61,1,70,8|0,0:0|0:0,0:0:0:0:
283,108,17719,6,0,P|234:121|182:109,1,105,2|0,0:3|0:0,0:0:0:0:
142,80,18196,2,0,P|106:73|71:80,1,70,8|0,0:0|0:0,0:0:0:0:
28,166,18672,1,2,0:3:0:0:
28,166,18910,1,2,0:3:0:0:
46,262,19148,2,0,L|70:328,1,70,8|0,0:0|0:0,0:0:0:0:
195,317,19624,6,0,L|158:215,1,105,4|0,0:0|0:0,0:0:0:0:
143,172,20100,2,0,P|142:138|155:104,1,70,8|0,0:0|0:0,0:0:0:0:
237,52,20576,1,2,0:3:0:0:
317,109,20815,1,2,0:3:0:0:
398,54,21053,1,8,0:0:0:0:
479,150,21291,6,0,P|496:202|493:254,1,105,4|0,0:0|0:0,0:0:0:0:
473,296,21767,1,2,0:3:0:0:
375,306,22005,2,0,P|339:293|304:295,1,70,8|0,0:0|0:0,0:0:0:0:
218,333,22481,2,0,L|171:370,2,35,8|8|8,0:0|0:0|0:0,0:0:0:0:
141,272,22957,2,0,L|104:267,2,35,2|2|2,0:3|0:3|0:3,0:0:0:0:
140,133,23434,6,0,L|257:146,1,115.50000352478,4|0,0:0|0:0,0:0:0:0:
285,184,23910,2,0,L|354:191,1,70,8|0,0:0|0:0,0:0:0:0:
408,272,24386,1,2,0:3:0:0:
489,217,24624,1,2,0:3:0:0:
430,138,24862,2,0,P|407:111|371:99,1,70,8|0,0:0|0:0,0:0:0:0:
283,64,25338,6,0,L|177:79,1,105,2|0,0:3|0:0,0:0:0:0:
130,87,25815,2,0,P|107:110|95:147,1,70,8|0,0:0|0:0,0:0:0:0:
80,241,26291,1,2,0:0:0:0:
151,308,26529,1,2,0:3:0:0:
239,265,26767,1,10,0:0:0:0:
225,168,27005,1,2,0:0:0:0:
225,168,27124,1,0,0:0:0:0:
225,168,27243,6,0,P|245:124|264:71,1,105,2|0,0:3|0:0,0:0:0:0:
299,36,27719,2,0,P|330:23|366:25,1,70,8|0,0:0|0:0,0:0:0:0:
464,32,28196,1,2,0:3:0:0:
476,129,28434,1,2,0:3:0:0:
387,170,28672,2,0,P|356:185|320:186,1,70,8|0,0:0|0:0,0:0:0:0:
225,168,29148,6,0,P|177:154|123:162,1,105,2|0,0:3|0:0,0:0:0:0:
81,187,29624,2,0,P|63:217|60:257,1,70,8|0,0:0|0:0,0:0:0:0:
114,332,30100,1,2,0:3:0:0:
211,340,30338,1,2,0:3:0:0:
292,286,30576,1,8,0:0:0:0:
289,187,30815,1,0,0:0:0:0:
289,187,30934,1,0,0:0:0:0:
289,187,31053,6,0,P|290:135|324:94,1,105,4|0,0:0|0:0,0:0:0:0:
371,95,31529,2,0,L|440:110,1,70,8|0,0:0|0:0,0:0:0:0:
486,196,32005,1,2,0:3:0:0:
486,196,32243,1,2,0:3:0:0:
484,293,32481,2,0,P|449:290|422:268,1,70,8|0,0:0|0:0,0:0:0:0:
338,317,32957,6,0,L|232:335,1,105,2|0,0:3|0:0,0:0:0:0:
197,366,33433,2,0,P|165:375|126:378,1,70,8|0,0:0|0:0,0:0:0:0:
58,309,33910,1,2,0:3:0:0:
58,309,34148,1,2,0:3:0:0:
39,212,34386,2,0,P|74:209|111:226,1,70,8|0,0:0|0:0,0:0:0:0:
203,300,34862,6,0,P|229:257|227:202,1,105,4|0,0:0|0:0,0:0:0:0:
217,156,35338,2,0,P|213:120|225:87,1,70,8|0,0:0|0:0,0:0:0:0:
298,23,35815,1,2,0:0:0:0:
395,28,36053,1,2,0:3:0:0:
444,112,36291,1,8,0:0:0:0:
438,237,36529,6,0,P|363:252|305:225,1,140,4|2,0:0|0:3,0:0:0:0:
265,201,37124,1,0,0:0:0:0:
265,201,37243,2,0,P|229:191|195:197,1,70,10|0,0:0|0:0,0:0:0:0:
112,245,37719,1,8,0:0:0:0:
112,245,37838,1,8,0:0:0:0:
112,245,37957,1,2,0:3:0:0:
52,166,38196,2,0,L|61:132,3,35,10|10|10|10,0:0|0:0|0:0|0:0,0:0:0:0:
82,82,38672,6,0,P|125:50|188:51,1,115.50000352478,4|0,0:0|0:0,0:0:0:0:
233,57,39148,2,0,L|301:43,1,70,8|0,0:0|0:0,0:0:0:0:
399,43,39624,1,2,0:3:0:0:
458,121,39862,2,0,L|458:193,1,70,2|8,0:3|0:0,0:0:0:0:
432,315,40338,6,0,P|401:330|367:323,1,70,6|0,0:0|0:0,0:0:0:0:
275,290,40815,1,2,0:0:0:0:
177,301,41053,2,0,L|112:325,1,70,8|2,0:0|0:0,0:0:0:0:
73,234,41529,1,2,0:3:0:0:
73,234,41648,1,2,0:3:0:0:
73,234,41767,1,2,0:3:0:0:
131,155,42005,2,0,L|196:131,1,70,10|0,0:0|0:0,0:0:0:0:
317,95,42481,6,0,P|297:45|254:19,1,105,6|0,0:0|0:0,0:0:0:0:
205,20,42957,2,0,L|140:44,1,70,10|0,0:0|0:0,0:0:0:0:
64,107,43434,1,2,0:3:0:0:
59,204,43672,2,0,L|84:271,1,70,2|8,0:3|0:0,0:0:0:0:
209,270,44148,6,0,P|242:264|281:277,1,70,6|0,0:0|0:0,0:0:0:0:
387,334,44624,1,2,0:0:0:0:
414,211,44862,2,0,P|420:178|407:139,1,70,12|0,0:0|0:0,0:0:0:0:
335,80,45338,1,2,0:0:0:0:
335,80,45457,1,8,0:0:0:0:
335,80,45576,1,0,0:0:0:0:
245,120,45815,1,10,0:0:0:0:
245,217,46053,1,2,0:0:0:0:
245,217,46172,1,8,0:0:0:0:
245,217,46291,6,0,P|194:232|146:217,1,105,6|0,0:0|0:0,0:0:0:0:
101,197,46767,2,0,P|69:189|32:197,1,70,8|2,0:0|0:0,0:0:0:0:
4,102,47243,1,2,0:3:0:0:
65,25,47481,1,2,0:3:0:0:
161,43,47719,1,10,0:0:0:0:
257,124,47957,6,0,P|289:134|324:124,1,70,6|0,0:0|0:0,0:0:0:0:
415,88,48434,1,2,0:0:0:0:
469,170,48672,2,0,L|486:244,1,70,8|2,0:0|0:0,0:0:0:0:
461,333,49148,1,2,0:3:0:0:
461,333,49267,1,2,0:3:0:0:
461,333,49386,1,2,0:3:0:0:
366,308,49624,2,0,P|333:297|298:308,1,70,8|0,0:0|0:0,0:0:0:0:
182,351,50100,6,0,P|129:362|80:346,1,105,4|2,0:0|0:3,0:0:0:0:
63,301,50576,2,0,P|60:264|39:234,1,70,8|2,0:0|0:0,0:0:0:0:
16,142,51053,1,2,0:3:0:0:
16,142,51172,2,0,P|19:105|40:75,1,70,8|0,0:0|0:0,0:0:0:0:
78,52,51529,2,0,L|149:58,1,70,8|0,0:0|0:0,0:0:0:0:
240,90,52005,6,0,P|289:105|339:90,1,105,2|2,0:0|0:3,0:0:0:0:
381,65,52481,2,0,P|413:55|449:63,1,70,8|0,0:0|0:0,0:0:0:0:
417,155,52957,1,2,0:0:0:0:
417,155,53076,2,0,P|415:192|422:225,1,70,8|2,0:0|0:3,0:0:0:0:
424,273,53434,2,0,P|400:300|368:317,1,70,8|0,0:0|0:0,0:0:0:0:
245,335,53910,5,12,0:0:0:0:
222,211,54148,1,8,0:0:0:0:
121,287,54386,1,8,0:0:0:0:
108,161,54624,1,8,0:0:0:0:
108,161,54743,1,2,0:3:0:0:
108,161,54862,6,0,P|145:144|184:148,1,77.0000023498536,12|2,0:0|0:3,0:0:0:0:
272,202,55338,1,2,0:3:0:0:
341,322,55576,2,0,P|269:352|205:322,1,154.000004699707,8|2,0:0|0:3,0:0:0:0:
163,286,56172,1,2,0:3:0:0:
163,286,56291,6,0,P|127:269|88:269,1,77.0000023498536,12|0,0:0|0:0,0:0:0:0:
25,146,56767,1,12,0:0:0:0:
85,56,57005,1,8,0:0:0:0:
179,108,57243,2,0,L|217:108,3,38.5000011749268,8|8|8|8,0:0|0:0|0:0|0:0,0:0:0:0:
285,83,57719,6,0,P|338:65|400:82,1,120.750002303124,4|0,0:0|0:0,0:0:0:0:
417,134,58196,2,0,L|431:213,1,80.5000015354157,8|0,0:0|0:0,0:0:0:0:
493,307,58672,1,2,0:3:0:0:
493,307,58791,2,0,P|455:327|413:323,1,80.5000015354157,0|0,3:0|0:0,0:0:0:0:
362,318,59148,1,8,0:0:0:0:
256,355,59386,1,0,0:0:0:0:
255,242,59624,6,0,P|254:184|218:132,1,120.750002303124,2|0,0:0|0:0,0:0:0:0:
171,106,60100,2,0,L|90:112,1,80.5000015354157,8|0,0:0|0:0,0:0:0:0:
7,188,60577,1,2,0:3:0:0:
7,188,60696,2,0,P|3:228|18:267,1,80.5000015354157,0|0,3:0|0:0,0:0:0:0:
41,315,61053,1,8,0:0:0:0:
128,243,61291,1,0,0:0:0:0:
210,362,61529,6,0,P|270:360|331:368,1,120.750002303124,6|0,0:0|0:0,0:0:0:0:
385,355,62005,2,0,L|464:345,1,80.5000015354157,8|0,0:0|0:0,0:0:0:0:
506,240,62481,1,2,0:3:0:0:
506,240,62600,2,0,P|516:200|505:157,1,80.5000015354157,0|0,3:0|0:0,0:0:0:0:
478,114,62957,1,8,0:0:0:0:
377,165,63196,1,0,0:0:0:0:
266,145,63434,6,0,P|216:104|156:107,1,120.750002303124,2|2,0:0|0:0,0:0:0:0:
111,129,63910,2,0,L|37:168,1,80.5000015354157,8|2,0:0|0:0,0:0:0:0:
50,278,64386,1,2,0:3:0:0:
50,278,64505,1,8,0:0:0:0:
50,278,64624,1,0,0:0:0:0:
162,289,64862,2,0,L|200:307,3,40.2500007677078,8|8|8|0,0:0|0:0|0:0|0:0,0:0:0:0:
254,306,65338,6,0,P|295:292|338:299,1,80.5000015354157,6|0,0:0|0:0,0:0:0:0:
431,243,65815,2,0,P|445:202|438:159,1,80.5000015354157,10|0,0:0|0:0,0:0:0:0:
383,68,66291,1,2,0:3:0:0:
383,68,66410,2,0,P|339:59|298:72,1,80.5000015354157,0|0,3:0|0:0,0:0:0:0:
255,93,66767,1,10,0:0:0:0:
305,194,67005,1,0,0:0:0:0:
305,194,67124,1,0,0:0:0:0:
305,194,67243,6,0,P|315:233|341:271,1,80.5000015354157,2|0,0:0|0:0,0:0:0:0:
263,353,67719,2,0,P|226:332|187:322,1,80.5000015354157,8|0,0:0|0:0,0:0:0:0:
81,289,68196,1,2,0:3:0:0:
81,289,68316,2,0,P|50:264|38:223,1,80.5000015354157,0|0,3:0|0:0,0:0:0:0:
35,170,68672,1,10,0:0:0:0:
88,71,68910,1,0,0:0:0:0:
207,153,69148,6,0,P|270:166|333:160,1,120.750002303124,6|0,0:0|0:0,0:0:0:0:
381,151,69624,2,0,P|422:144|464:159,1,80.5000015354157,10|0,0:0|0:0,0:0:0:0:
484,265,70100,1,10,0:0:0:0:
412,352,70338,1,8,0:0:0:0:
322,283,70576,1,10,0:0:0:0:
381,151,70815,6,0,P|388:109|380:69,1,80.5000015354157,12|0,0:0|0:0,0:0:0:0:
249,11,71291,1,2,0:3:0:0:
249,11,71529,2,0,L|169:21,1,80.5000015354157,12|8,0:0|0:0,0:0:0:0:
27,50,72005,2,0,P|4:102|27:160,1,120.750002303124,10|10,0:0|0:0,0:0:0:0:
64,200,72481,2,0,L|56:241,3,40.2500007677078,10|8|10|8,0:0|0:0|0:0|0:0,0:0:0:0:
41,310,72957,6,0,P|83:352|149:353,1,120.750002303124,4|0,0:0|0:0,0:0:0:0:
196,339,73434,2,0,P|236:327|278:334,1,80.5000015354157,10|0,0:0|0:0,0:0:0:0:
381,302,73910,1,2,0:3:0:0:
381,302,74029,2,0,P|398:262|398:219,1,80.5000015354157,0|0,3:0|0:0,0:0:0:0:
390,170,74386,1,8,0:0:0:0:
366,59,74624,1,0,0:0:0:0:
264,106,74862,6,0,P|204:126|143:111,1,120.750002303124,2|0,0:0|0:0,0:0:0:0:
99,88,75338,2,0,P|56:80|18:97,1,80.5000015354157,8|0,0:0|0:0,0:0:0:0:
7,205,75815,1,2,0:3:0:0:
7,205,75934,2,0,P|18:243|27:289,1,80.5000015354157,0|0,3:0|0:0,0:0:0:0:
63,325,76291,1,8,0:0:0:0:
173,344,76529,1,0,0:0:0:0:
264,278,76767,6,0,P|314:239|378:240,1,120.750002303124,6|0,0:0|0:0,0:0:0:0:
425,245,77243,2,0,P|471:249|504:226,1,80.5000015354157,8|0,0:0|0:0,0:0:0:0:
483,120,77719,1,2,0:3:0:0:
483,120,77838,2,0,P|437:116|404:139,1,80.5000015354157,0|0,3:0|0:0,0:0:0:0:
361,164,78196,1,8,0:0:0:0:
396,271,78434,1,0,0:0:0:0:
300,330,78672,6,0,L|219:351,1,80.5000015354157,2|0,0:0|0:0,0:0:0:0:
166,357,79029,1,2,0:0:0:0:
166,357,79148,2,0,P|101:333|80:285,1,120.750002303124,8|8,0:0|0:0,0:0:0:0:
87,233,79624,1,8,0:0:0:0:
193,125,79862,6,0,L|281:135,1,83.9999974365235,6|2,0:0|0:3,0:0:0:0:
323,236,80338,1,2,0:3:0:0:
323,236,80457,1,2,0:3:0:0:
323,236,80576,6,0,L|197:221,1,120.750002303124,6|0,0:0|0:0,0:0:0:0:
169,267,81053,2,0,P|126:264|81:257,1,80.5000015354157,10|0,0:0|0:0,0:0:0:0:
38,157,81529,1,2,0:3:0:0:
38,157,81648,2,0,P|33:116|56:77,1,80.5000015354157,0|0,3:0|0:0,0:0:0:0:
91,43,82005,1,10,0:0:0:0:
196,83,82243,1,0,0:0:0:0:
196,83,82362,1,0,0:0:0:0:
196,83,82481,6,0,P|255:95|323:83,1,120.750002303124,2|0,0:0|0:0,0:0:0:0:
366,64,82957,2,0,P|408:60|446:77,1,80.5000015354157,10|0,0:0|0:0,0:0:0:0:
477,182,83434,1,2,0:3:0:0:
477,182,83553,2,0,P|464:226|458:271,1,80.5000015354157,0|0,3:0|0:0,0:0:0:0:
414,294,83910,1,8,0:0:0:0:
302,280,84148,1,0,0:0:0:0:
302,280,84267,1,0,0:0:0:0:
302,280,84386,6,0,P|243:265|183:287,1,120.750002303124,6|0,0:0|0:0,0:0:0:0:
144,319,84862,2,0,P|108:341|60:335,1,80.5000015354157,10|0,0:0|0:0,0:0:0:0:
79,227,85338,1,2,0:3:0:0:
79,227,85457,2,0,L|53:147,1,80.5000015354157,0|0,3:0|0:0,0:0:0:0:
49,94,85815,2,0,P|55:48|80:18,1,80.5000015354157,10|0,0:0|0:0,0:0:0:0:
220,24,86291,6,0,P|261:24|304:34,1,80.5000015354157,2|0,0:3|0:0,0:0:0:0:
348,60,86648,1,2,1:3:0:0:
348,60,86767,1,2,0:3:0:0:
456,156,87005,2,0,L|496:156,2,40.2500007677078,8|8|4,0:0|0:0|0:0,0:0:0:0:
319,202,87481,1,10,0:0:0:0:
428,298,87719,1,10,0:0:0:0:
291,345,87957,6,0,B|252:359|213:345|213:345|170:330|136:345,1,157.500006008148,2|0,0:0|0:0,0:0:0:0:
