osu file format v14

[General]
AudioFilename: Twilight ni Kienaide.mp3
AudioLeadIn: 2000
PreviewTime: 57243
Countdown: 0
SampleSet: Soft
StackLeniency: 0.7
Mode: 0
LetterboxInBreaks: 0
WidescreenStoryboard: 0

[Editor]
DistanceSpacing: 1.6
BeatDivisor: 4
GridSize: 4
TimelineZoom: 2.3

[Metadata]
Title:Twilight ni Kienaide
TitleUnicode:トワイライトに消えないで
Artist:Hara Yumi
ArtistUnicode:原由実
Creator:kunkakunkakunkakunka
Version:Gets
Source:俺がお嬢様学校に「庶民サンプル」としてゲッツ❤された件
Tags:ending tv size ore ga ojousama gakkou ni shomin sample toshite gets♥sareta ken silver link.
BeatmapID:818686
BeatmapSetID:373704

[Difficulty]
HPDrainRate:7
CircleSize:4.2
OverallDifficulty:7
ApproachRate:8
SliderMultiplier:1.6
SliderTickRate:1

[Events]
//Background and Video events
Video,0,"Twilight ni Kienaide.avi"
0,0,"BG.jpg",0,0
//Break Periods
//Storyboard Layer 0 (Background)
//Storyboard Layer 1 (Fail)
//Storyboard Layer 2 (Pass)
//Storyboard Layer 3 (Foreground)
//Storyboard Sound Samples

[TimingPoints]
577,476.190476190476,4,2,1,40,1,0
3910,-90.9090909090909,4,2,1,45,0,0
4386,-100,4,2,1,40,0,0
23434,-90.9090909090909,4,2,1,45,0,0
23672,-100,4,2,1,40,0,0
38672,-90.9090909090909,4,2,1,45,0,0
38910,-100,4,2,1,40,0,0
54862,-90.9090909090909,4,2,1,45,0,0
57719,-83.3333333333333,4,2,1,50,0,1
72838,-83.3333333333333,4,2,1,50,0,0
72957,-83.3333333333333,4,2,1,50,0,1
79862,-76.9230769230769,4,2,1,55,0,1
80100,-83.3333333333333,4,2,1,50,0,1
87957,-133.333333333333,4,2,1,20,0,0
88672,-133.333333333333,4,2,1,10,0,0

[Colours]
Combo1 : 255,128,255
Combo2 : 128,255,128
Combo3 : 128,255,255
Combo4 : 255,128,128
Combo5 : 255,255,128

[HitObjects]
99,313,577,6,0,P|136:328|178:322,1,80,4|2,0:0|0:0,0:0:0:0:
212,310,934,1,2,0:0:0:0:
249,294,1053,2,0,P|286:279|328:285,1,80,8|2,0:0|0:0,0:0:0:0:
435,218,1529,2,0,P|450:181|444:139,1,80,2|2,0:3|0:0,0:0:0:0:
431,104,1886,1,2,0:0:0:0:
402,75,2005,2,0,P|365:60|323:66,1,80,8|2,0:0|0:0,0:0:0:0:
205,108,2481,6,0,P|168:123|126:117,1,80,2|2,0:3|0:0,0:0:0:0:
90,128,2838,1,2,0:0:0:0:
61,155,2957,2,0,P|46:192|52:234,1,80,8|2,0:0|0:0,0:0:0:0:
121,339,3434,1,2,0:3:0:0:
160,334,3553,1,8,0:0:0:0:
196,350,3672,1,0,0:0:0:0:
236,345,3791,1,2,0:3:0:0:
276,362,3910,2,0,L|363:350,1,88.000002685547,8|0,0:0|0:0,0:0:0:0:
423,201,4386,5,12,0:0:0:0:
225,244,4624,1,2,0:3:0:0:
307,145,4862,1,8,0:0:0:0:
353,359,5100,2,0,P|315:371|277:362,1,80,2|0,0:3|0:0,0:0:0:0:
238,209,5576,1,12,0:0:0:0:
378,130,5815,1,2,0:3:0:0:
412,286,6053,6,0,B|354:254|296:286|296:286|238:318|180:286,1,240,12|0,0:0|0:0,0:0:0:0:
74,129,7124,2,0,L|60:111,2,20,2|2|8,0:3|0:3|0:0,0:0:0:0:
71,168,7362,1,2,0:3:0:0:
193,131,7600,2,0,L|231:140,1,40,2|12,0:3|1:2,0:0:0:0:
310,281,7957,1,8,0:0:0:0:
310,281,8076,1,8,0:0:0:0:
310,281,8196,6,0,P|352:272|391:276,1,80,4|2,0:0|0:3,0:0:0:0:
427,284,8553,1,0,0:0:0:0:
462,265,8672,2,0,P|475:224|473:185,1,80,8|0,0:0|0:0,0:0:0:0:
396,85,9148,1,2,0:3:0:0:
289,155,9386,1,2,0:3:0:0:
166,118,9624,1,8,0:0:0:0:
59,188,9862,1,0,0:0:0:0:
63,60,10100,6,0,L|142:50,1,80,2|2,0:3|0:3,0:0:0:0:
182,47,10457,1,0,0:0:0:0:
216,68,10576,2,0,L|295:58,1,80,8|0,0:0|0:0,0:0:0:0:
417,18,11053,1,2,0:0:0:0:
386,142,11291,1,2,0:3:0:0:
437,259,11529,1,10,0:0:0:0:
343,346,11767,1,2,0:0:0:0:
343,346,11886,1,0,0:0:0:0:
343,346,12005,6,0,P|303:339|261:341,1,80,2|2,0:3|0:3,0:0:0:0:
224,336,12362,1,0,0:0:0:0:
187,319,12481,2,0,P|156:283|149:252,1,80,8|0,0:0|0:0,0:0:0:0:
178,128,12957,1,2,0:3:0:0:
82,43,13196,1,2,0:3:0:0:
31,160,13434,1,8,0:0:0:0:
61,284,13672,1,0,0:0:0:0:
61,284,13791,1,0,0:0:0:0:
61,284,13910,6,0,P|105:290|141:305,1,80,2|2,0:3|0:3,0:0:0:0:
175,318,14267,1,0,0:3:0:0:
214,319,14386,2,0,P|253:309|278:279,1,80,8|0,0:0|0:0,0:0:0:0:
307,155,14862,1,2,0:3:0:0:
318,27,15100,1,2,0:3:0:0:
202,82,15338,1,8,0:0:0:0:
307,155,15576,1,0,0:0:0:0:
307,155,15696,1,0,0:0:0:0:
307,155,15815,6,0,L|388:148,1,80,4|2,0:0|0:3,0:0:0:0:
424,160,16172,1,0,0:0:0:0:
453,187,16291,2,0,P|473:220|474:262,1,80,8|0,0:0|0:0,0:0:0:0:
346,257,16767,1,2,0:3:0:0:
257,165,17005,1,2,0:3:0:0:
377,121,17243,1,8,0:0:0:0:
288,29,17481,1,0,0:0:0:0:
288,29,17600,1,0,0:0:0:0:
288,29,17719,6,0,P|249:19|207:29,1,80,2|2,0:3|0:3,0:0:0:0:
183,55,18076,1,0,0:0:0:0:
171,93,18196,2,0,L|93:124,1,80,8|0,0:0|0:0,0:0:0:0:
37,236,18672,1,2,0:3:0:0:
103,345,18910,1,2,0:3:0:0:
200,261,19148,1,8,0:0:0:0:
308,330,19386,1,0,0:0:0:0:
308,330,19505,1,0,0:0:0:0:
308,330,19624,6,0,P|350:322|389:324,1,80,4|2,0:0|0:3,0:0:0:0:
422,304,19981,1,0,0:0:0:0:
447,273,20100,2,0,P|463:233|461:193,1,80,8|0,0:0|0:0,0:0:0:0:
387,92,20576,1,2,0:3:0:0:
334,209,20815,1,2,0:3:0:0:
207,192,21053,1,8,0:0:0:0:
53,238,21291,6,0,L|24:164,1,80,4|0,0:0|0:0,0:0:0:0:
105,64,21767,1,2,0:3:0:0:
105,64,21886,1,0,0:0:0:0:
105,64,22005,2,0,L|189:75,1,80,8|0,0:0|0:0,0:0:0:0:
306,113,22481,5,8,0:0:0:0:
339,135,22600,1,8,0:0:0:0:
356,171,22719,1,8,0:0:0:0:
256,251,22957,1,2,0:3:0:0:
223,228,23076,1,2,0:3:0:0:
207,192,23195,1,2,0:3:0:0:
288,35,23434,6,0,L|200:40,1,88.000002685547,4|2,0:0|0:3,0:0:0:0:
171,67,23791,1,0,0:0:0:0:
139,91,23910,2,0,L|57:95,1,80,8|0,0:0|0:0,0:0:0:0:
3,210,24386,1,2,0:3:0:0:
130,201,24624,1,2,0:3:0:0:
217,294,24862,1,8,0:0:0:0:
344,285,25100,1,0,0:0:0:0:
344,285,25219,1,0,0:0:0:0:
344,285,25338,6,0,P|387:287|425:296,1,80,2|2,0:3|0:3,0:0:0:0:
463,297,25696,1,0,0:0:0:0:
492,268,25815,2,0,P|503:229|500:187,1,80,8|0,0:0|0:0,0:0:0:0:
432,82,26291,1,2,0:0:0:0:
336,167,26529,1,2,0:3:0:0:
218,117,26767,1,10,0:0:0:0:
122,202,27005,1,2,0:0:0:0:
122,202,27124,1,0,0:0:0:0:
122,202,27243,6,0,P|136:242|144:280,1,80,2|2,0:3|0:3,0:0:0:0:
155,316,27600,1,0,0:0:0:0:
185,341,27719,2,0,P|222:355|263:346,1,80,8|0,0:0|0:0,0:0:0:0:
368,276,28196,1,2,0:3:0:0:
258,210,28434,1,2,0:3:0:0:
137,253,28672,1,8,0:0:0:0:
63,357,28910,1,0,0:0:0:0:
63,357,29029,1,0,0:0:0:0:
63,357,29148,6,0,P|31:333|17:295,1,80,2|2,0:3|0:3,0:0:0:0:
14,256,29505,1,0,0:0:0:0:
27,218,29624,2,0,P|38:179|36:140,1,80,8|0,0:0|0:0,0:0:0:0:
110,35,30100,1,2,0:3:0:0:
237,19,30338,1,2,0:3:0:0:
320,116,30576,1,8,0:0:0:0:
253,226,30815,1,0,0:0:0:0:
253,226,30934,1,0,0:0:0:0:
253,226,31053,6,0,L|277:305,1,80,4|2,0:0|0:3,0:0:0:0:
388,363,31529,2,0,P|427:359|463:336,1,80,8|0,0:0|0:0,0:0:0:0:
509,219,32005,1,2,0:3:0:0:
487,92,32243,1,2,0:3:0:0:
380,21,32481,1,8,0:0:0:0:
252,31,32719,1,0,0:0:0:0:
252,31,32838,1,0,0:0:0:0:
252,31,32957,6,0,L|170:40,1,80,2|2,0:3|0:3,0:0:0:0:
49,77,33434,2,0,P|13:100|-1:136,1,80,8|0,0:0|0:0,0:0:0:0:
116,185,33910,1,2,0:3:0:0:
123,313,34148,1,2,0:3:0:0:
9,255,34386,1,8,0:0:0:0:
116,185,34624,1,0,0:0:0:0:
116,185,34743,1,0,0:0:0:0:
116,185,34862,6,0,P|155:176|194:184,1,80,4|2,0:0|0:3,0:0:0:0:
307,242,35338,2,0,P|346:251|385:243,1,80,8|0,0:0|0:0,0:0:0:0:
493,176,35815,1,2,0:0:0:0:
491,48,36053,1,2,0:3:0:0:
369,87,36291,1,8,0:0:0:0:
210,68,36529,6,0,L|131:59,1,80,4|0,0:0|0:0,0:0:0:0:
43,152,37005,1,2,0:3:0:0:
58,274,37243,2,0,P|74:312|105:338,1,80,10|0,0:0|0:0,0:0:0:0:
229,316,37719,5,8,0:0:0:0:
268,310,37838,1,8,0:0:0:0:
307,316,37957,1,2,0:3:0:0:
433,338,38196,1,10,0:0:0:0:
461,310,38315,1,10,0:0:0:0:
471,272,38434,1,10,0:0:0:0:
462,234,38553,1,10,0:0:0:0:
433,200,38672,6,0,P|390:185|350:193,1,88.000002685547,4|0,0:0|0:0,0:0:0:0:
231,242,39148,2,0,P|190:246|151:235,1,80,8|0,0:0|0:0,0:0:0:0:
34,187,39624,1,2,0:3:0:0:
64,63,39862,1,2,0:3:0:0:
176,124,40100,1,8,0:0:0:0:
163,283,40338,6,0,P|190:313|230:322,1,80,6|0,0:0|0:0,0:0:0:0:
355,315,40815,1,2,0:0:0:0:
396,194,41053,2,0,P|433:178|474:180,1,80,8|2,0:0|0:0,0:0:0:0:
496,305,41529,1,2,0:3:0:0:
459,320,41648,1,2,0:3:0:0:
419,319,41767,1,2,0:3:0:0:
293,294,42005,1,10,0:0:0:0:
167,268,42243,1,0,0:0:0:0:
167,268,42362,1,0,0:0:0:0:
167,268,42481,6,0,L|89:281,1,80,6|0,0:0|0:0,0:0:0:0:
7,181,42957,2,0,P|-1:138|7:102,1,80,10|0,0:0|0:0,0:0:0:0:
107,23,43434,1,2,0:3:0:0:
215,90,43672,1,2,0:3:0:0:
220,217,43910,1,8,0:0:0:0:
319,342,44148,6,0,P|358:351|399:341,1,80,6|0,0:0|0:0,0:0:0:0:
496,217,44624,1,2,0:0:0:0:
399,89,44862,2,0,P|360:80|319:90,1,80,12|0,0:0|0:0,0:0:0:0:
194,77,45338,1,2,0:0:0:0:
156,91,45457,1,8,0:0:0:0:
116,91,45576,1,0,0:0:0:0:
79,79,45695,1,2,0:3:0:0:
47,55,45814,1,10,0:0:0:0:
12,180,46053,1,2,0:0:0:0:
12,180,46172,1,8,0:0:0:0:
12,180,46291,6,0,L|25:264,1,80,6|0,0:0|0:0,0:0:0:0:
102,360,46767,2,0,P|140:370|186:360,1,80,8|2,0:0|0:0,0:0:0:0:
270,273,47243,1,2,0:3:0:0:
391,314,47481,2,0,P|429:324|475:314,1,80,2|10,0:3|0:0,0:0:0:0:
472,165,47957,6,0,P|434:155|388:165,1,80,6|0,0:0|0:0,0:0:0:0:
271,199,48434,1,2,0:0:0:0:
196,303,48672,1,8,0:0:0:0:
323,316,48910,1,2,0:0:0:0:
271,199,49148,1,2,0:3:0:0:
235,179,49267,1,2,0:3:0:0:
196,175,49386,1,2,0:3:0:0:
74,133,49624,2,0,P|61:92|70:53,1,80,8|0,0:0|0:0,0:0:0:0:
223,17,50100,6,0,L|311:31,1,80,4|0,0:0|0:0,0:0:0:0:
332,55,50457,1,2,0:3:0:0:
362,81,50576,2,0,L|450:95,1,80,8|2,0:0|0:0,0:0:0:0:
443,222,51053,1,2,0:3:0:0:
422,256,51172,2,0,L|334:270,1,80,8|0,0:0|0:0,0:0:0:0:
324,303,51529,2,0,L|236:317,1,80,8|0,0:0|0:0,0:0:0:0:
117,324,52005,6,0,P|89:294|81:254,1,80,2|0,0:0|0:0,0:0:0:0:
81,216,52362,1,2,0:3:0:0:
95,178,52481,2,0,P|108:140|99:100,1,80,8|0,0:0|0:0,0:0:0:0:
211,165,52957,1,2,0:0:0:0:
237,194,53076,1,8,0:0:0:0:
275,204,53195,1,2,0:3:0:0:
313,193,53314,1,2,0:3:0:0:
339,164,53434,2,0,P|377:150|414:161,1,80,8|0,0:0|0:0,0:0:0:0:
368,322,53910,5,12,0:0:0:0:
237,194,54148,1,8,0:0:0:0:
413,160,54386,1,8,0:0:0:0:
368,322,54624,1,8,0:0:0:0:
368,322,54743,1,2,0:3:0:0:
368,322,54862,6,0,P|322:328|280:314,1,88.000002685547,12|2,0:0|0:3,0:0:0:0:
116,289,55338,1,2,0:3:0:0:
147,107,55576,2,0,P|97:52|70:121,1,176.000005371094,8|2,0:0|0:3,0:0:0:0:
97,204,56172,1,2,0:3:0:0:
97,204,56291,6,0,P|110:252|116:289,1,88.000002685547,12|0,0:0|0:0,0:0:0:0:
284,344,56767,1,12,0:0:0:0:
252,170,57005,1,8,0:0:0:0:
243,127,57124,1,10,0:0:0:0:
258,86,57243,1,8,0:0:0:0:
291,58,57362,1,8,0:0:0:0:
334,51,57481,1,8,0:0:0:0:
374,68,57600,1,8,0:0:0:0:
401,102,57719,6,0,L|394:197,1,95.9999970703126,4|0,0:0|0:0,0:0:0:0:
368,270,58076,1,0,0:0:0:0:
368,270,58196,2,0,P|319:257|272:265,1,95.9999970703126,8|0,0:0|0:0,0:0:0:0:
122,282,58672,1,2,0:3:0:0:
95,242,58791,2,0,P|79:192|86:145,1,95.9999970703126,0|0,3:0|0:0,0:0:0:0:
110,77,59148,1,8,0:0:0:0:
247,146,59386,1,0,0:0:0:0:
263,298,59624,6,0,P|307:311|354:301,1,95.9999970703126,2|0,0:0|0:0,0:0:0:0:
414,252,59981,1,0,0:0:0:0:
414,252,60100,2,0,P|432:209|427:161,1,95.9999970703126,8|0,0:0|0:0,0:0:0:0:
322,48,60576,1,2,0:3:0:0:
279,71,60696,2,0,L|183:79,1,95.9999970703126,0|0,3:0|0:0,0:0:0:0:
122,125,61053,1,8,0:0:0:0:
56,264,61291,1,0,0:0:0:0:
56,264,61410,1,0,0:0:0:0:
56,264,61529,6,0,L|155:257,1,95.9999970703126,6|0,0:0|0:0,0:0:0:0:
220,292,61886,1,0,0:0:0:0:
220,292,62005,2,0,L|319:285,1,95.9999970703126,8|0,0:0|0:0,0:0:0:0:
466,315,62481,1,2,0:3:0:0:
484,270,62600,2,0,P|496:223|485:175,1,95.9999970703126,0|0,3:0|0:0,0:0:0:0:
453,108,62957,1,8,0:0:0:0:
315,179,63196,1,0,0:0:0:0:
360,326,63434,6,0,L|261:319,1,95.9999970703126,2|0,0:0|0:0,0:0:0:0:
190,339,63791,1,2,0:0:0:0:
190,339,63910,2,0,L|91:332,1,95.9999970703126,8|2,0:0|0:0,0:0:0:0:
19,198,64386,1,2,0:3:0:0:
10,151,64505,1,8,0:0:0:0:
21,104,64624,1,0,0:0:0:0:
51,67,64743,1,2,0:3:0:0:
93,45,64862,2,0,L|143:51,1,47.9999985351563,8|8,0:0|0:0,0:0:0:0:
192,108,65100,2,0,L|230:136,1,47.9999985351563,8|0,0:0|0:0,0:0:0:0:
310,190,65338,6,0,P|357:204|407:184,1,95.9999970703126,6|0,0:0|0:0,0:0:0:0:
445,126,65696,1,0,0:0:0:0:
445,126,65815,2,0,P|398:112|348:132,1,95.9999970703126,10|0,0:0|0:0,0:0:0:0:
251,239,66291,1,2,0:3:0:0:
227,281,66410,2,0,L|132:301,1,95.9999970703126,0|0,3:0|0:0,0:0:0:0:
66,338,66767,1,10,0:0:0:0:
25,189,67005,1,0,0:0:0:0:
25,189,67124,1,0,0:0:0:0:
25,189,67243,6,0,P|17:140|27:93,1,95.9999970703126,2|0,0:0|0:0,0:0:0:0:
88,49,67600,1,0,0:0:0:0:
88,49,67719,2,0,L|183:59,1,95.9999970703126,8|0,0:0|0:0,0:0:0:0:
334,26,68196,1,2,0:3:0:0:
365,62,68315,2,0,L|357:158,1,95.9999970703126,0|0,3:0|0:0,0:0:0:0:
371,233,68672,1,10,0:0:0:0:
263,342,68910,1,0,0:0:0:0:
263,342,69029,1,0,0:0:0:0:
263,342,69148,6,0,P|225:309|215:267,1,95.9999970703126,6|0,0:0|0:0,0:0:0:0:
191,193,69505,1,0,0:0:0:0:
191,193,69624,2,0,P|160:151|119:137,1,95.9999970703126,10|0,0:0|0:0,0:0:0:0:
45,156,69981,1,8,0:0:0:0:
45,156,70100,1,10,0:0:0:0:
85,304,70338,1,8,0:0:0:0:
191,193,70576,1,10,0:0:0:0:
356,97,70815,6,0,L|452:117,1,95.9999970703126,12|0,0:0|0:0,0:0:0:0:
439,308,71291,1,2,0:3:0:0:
264,228,71529,2,0,P|215:213|172:226,1,95.9999970703126,12|8,0:0|0:0,0:0:0:0:
115,276,71886,1,2,0:0:0:0:
173,352,72005,6,0,P|221:366|264:353,1,95.9999970703126,10|0,0:0|0:0,0:0:0:0:
323,305,72362,1,10,0:0:0:0:
347,264,72481,1,10,0:0:0:0:
351,216,72600,1,8,0:0:0:0:
334,172,72719,1,10,0:0:0:0:
298,140,72838,1,8,0:0:0:0:
251,130,72957,6,0,L|153:155,1,95.9999970703126,4|0,0:0|0:0,0:0:0:0:
99,204,73315,1,0,0:0:0:0:
99,204,73434,2,0,L|1:179,1,95.9999970703126,10|0,0:0|0:0,0:0:0:0:
16,27,73910,1,2,0:3:0:0:
53,59,74029,2,0,L|151:84,1,95.9999970703126,0|0,3:0|0:0,0:0:0:0:
201,135,74386,1,8,0:0:0:0:
187,289,74624,1,0,0:0:0:0:
325,356,74862,6,0,L|423:331,1,95.9999970703126,2|0,0:0|0:0,0:0:0:0:
464,270,75219,1,0,0:0:0:0:
464,270,75338,2,0,P|477:223|464:177,1,95.9999970703126,8|0,0:0|0:0,0:0:0:0:
363,63,75815,1,2,0:3:0:0:
323,90,75934,2,0,P|301:133|305:181,1,95.9999970703126,0|0,3:0|0:0,0:0:0:0:
324,253,76291,1,8,0:0:0:0:
199,343,76529,1,0,0:0:0:0:
199,343,76648,1,0,0:0:0:0:
199,343,76767,6,0,L|106:317,1,95.9999970703126,6|0,0:0|0:0,0:0:0:0:
38,281,77124,1,0,0:0:0:0:
38,281,77243,2,0,P|22:231|28:186,1,95.9999970703126,8|0,0:0|0:0,0:0:0:0:
85,46,77719,1,2,0:3:0:0:
124,73,77838,2,0,L|221:81,1,95.9999970703126,0|0,3:0|0:0,0:0:0:0:
296,88,78196,1,8,0:0:0:0:
441,38,78434,1,0,0:0:0:0:
448,191,78672,6,0,L|428:287,1,95.9999970703126,2|0,0:0|0:0,0:0:0:0:
364,242,79029,1,2,0:0:0:0:
364,242,79148,2,0,L|384:146,1,95.9999970703126,8|2,0:0|0:0,0:0:0:0:
442,98,79505,1,8,0:0:0:0:
442,98,79624,1,8,0:0:0:0:
244,31,79862,6,0,P|196:16|143:27,1,103.999995239258,6|2,0:0|0:3,0:0:0:0:
33,135,80338,1,2,0:3:0:0:
33,135,80457,1,2,0:3:0:0:
33,135,80576,6,0,P|19:179|33:227,1,95.9999970703126,6|0,0:0|0:0,0:0:0:0:
77,288,80934,1,0,0:0:0:0:
77,288,81053,2,0,P|129:292|168:311,1,95.9999970703126,10|0,0:0|0:0,0:0:0:0:
309,371,81529,1,2,0:3:0:0:
356,364,81648,2,0,P|401:341|420:302,1,95.9999970703126,0|0,3:0|0:0,0:0:0:0:
424,224,82005,1,10,0:0:0:0:
275,185,82243,1,0,0:0:0:0:
275,185,82362,1,0,0:0:0:0:
275,185,82481,6,0,P|228:168|180:181,1,95.9999970703126,2|0,0:0|0:0,0:0:0:0:
117,216,82838,1,0,0:0:0:0:
117,216,82957,2,0,P|67:213|28:183,1,95.9999970703126,10|0,0:0|0:0,0:0:0:0:
125,65,83434,1,2,0:3:0:0:
167,43,83553,2,0,L|261:58,1,95.9999970703126,0|0,3:0|0:0,0:0:0:0:
328,96,83910,1,8,0:0:0:0:
296,246,84148,1,0,0:0:0:0:
296,246,84267,1,0,0:0:0:0:
296,246,84386,6,0,L|310:347,1,95.9999970703126,6|0,0:0|0:0,0:0:0:0:
386,334,84743,1,0,0:0:0:0:
386,334,84862,2,0,L|371:232,1,95.9999970703126,10|0,0:0|0:0,0:0:0:0:
445,103,85338,1,2,0:3:0:0:
404,78,85457,2,0,P|354:69|314:85,1,95.9999970703126,0|0,3:0|0:0,0:0:0:0:
241,114,85815,2,0,P|191:123|151:107,1,95.9999970703126,10|0,0:0|0:0,0:0:0:0:
58,275,86291,6,0,P|108:266|148:282,1,95.9999970703126,2|0,0:3|0:0,0:0:0:0:
210,328,86648,1,2,1:3:0:0:
210,328,86767,1,2,0:3:0:0:
381,241,87005,1,8,0:0:0:0:
426,226,87124,1,8,0:0:0:0:
472,238,87243,1,4,0:0:0:0:
494,47,87481,1,10,0:0:0:0:
472,238,87719,1,10,0:0:0:0:
317,123,87957,6,0,B|265:106|228:123|228:123|185:138|140:123,1,180.000006866455,2|0,0:0|0:0,0:0:0:0:
