osu file format v12

[General]
AudioFilename: Wind Flower.mp3
AudioLeadIn: 0
PreviewTime: 54259
Countdown: 0
SampleSet: Soft
StackLeniency: 0.7
Mode: 0
LetterboxInBreaks: 0
WidescreenStoryboard: 1

[Editor]
Bookmarks: 25413,47566,81720,309720,313413
DistanceSpacing: 1.8
BeatDivisor: 4
GridSize: 4
TimelineZoom: 0.8999999

[Metadata]
Title:Snow Flurry
TitleUnicode:風花
Artist:Hara Yumi
ArtistUnicode:Hara Yumi
Creator:Asgard
Version:Insane
Source:THE iDOLM@STER
Tags:Ending Shijou Takane
BeatmapID:389723
BeatmapSetID:159546

[Difficulty]
HPDrainRate:7
CircleSize:4
OverallDifficulty:6
ApproachRate:8
SliderMultiplier:1.8
SliderTickRate:1

[Events]
//Background and Video events
0,0,"0047.jpg",0,0
//Break Periods
//Storyboard Layer 0 (Background)
//Storyboard Layer 1 (Fail)
//Storyboard Layer 2 (Pass)
//Storyboard Layer 3 (Foreground)
//Storyboard Sound Samples
//Background Colour Transformations
3,100,0,0,0

[TimingPoints]
1413,461.538461538462,4,2,0,100,1,0
54489,-76.9230769230769,4,2,0,100,0,0
54951,-76.9230769230769,4,2,0,100,0,1
71105,-76.9230769230769,4,2,0,100,0,0
71566,-76.9230769230769,4,2,0,100,0,1
115874,-100,4,2,0,100,0,0
134105,-76.9230769230769,4,2,0,100,0,0
134336,-76.9230769230769,4,2,0,100,0,1
150489,-76.9230769230769,4,2,0,100,0,0
150951,-76.9230769230769,4,2,0,100,0,1
180489,-76.9230769230769,4,2,0,100,0,0

[Colours]
Combo1 : 255,255,36
Combo2 : 223,223,223
Combo3 : 170,170,255
Combo4 : 206,0,206

[HitObjects]
116,44,25413,6,0,P|160:96|148:204,1,180
149,291,26105,2,0,B|176:364|252:360|252:360|308:396,1,180
264,260,26797,2,0,L|356:224|356:224,1,90
392,236,27143,1,0,0:0:0:0:
428,264,27259,2,0,B|452:200|404:160|404:160|392:92,1,180
347,227,27951,2,0,P|352:308|436:352,1,180
288,160,28643,1,0,0:0:0:0:
288,160,28874,1,0,0:0:0:0:
288,160,28989,1,0,0:0:0:0:
288,160,29105,2,0,B|204:196|148:136|96:172,1,180
20,36,29797,2,0,B|60:104|60:104|12:152|44:208,2,180
111,164,30951,2,0,P|108:240|20:276,1,180
37,195,31643,1,0,0:0:0:0:
200,328,32105,1,0,0:0:0:0:
284,296,32336,1,0,0:0:0:0:
364,340,32566,1,0,0:0:0:0:
328,92,32797,2,0,P|360:128|368:200,1,90
372,212,33143,1,0,0:0:0:0:
360,256,33259,1,0,0:0:0:0:
284,296,33490,1,0,0:0:0:0:
208,248,33720,2,0,L|76:208,2,135
24,144,34643,1,0,0:0:0:0:
78,208,34874,1,0,0:0:0:0:
116,184,34989,1,0,0:0:0:0:
148,148,35105,2,0,L|256:180,1,90
272,200,35451,2,0,P|348:220|416:200,1,135
452,132,36028,1,0,0:0:0:0:
496,208,36259,1,0,0:0:0:0:
452,284,36489,1,0,0:0:0:0:
384,72,36951,1,0,0:0:0:0:
320,136,37182,1,0,0:0:0:0:
320,136,37297,1,0,0:0:0:0:
320,136,37413,2,0,P|260:192|248:268,2,135
368,248,38336,1,0,0:0:0:0:
368,248,39028,1,0,0:0:0:0:
336,164,40182,2,0,P|280:236|328:332,1,180
416,204,40874,2,0,P|404:113|302:79,1,180
244,64,41566,2,0,L|144:88,1,90
124,116,41913,1,0,0:0:0:0:
92,148,42028,2,0,B|96:224|20:244|20:244|-4:295,1,180
156,85,42720,2,0,L|228:164,2,90
68,72,43413,1,0,0:0:0:0:
12,144,43643,1,0,0:0:0:0:
28,188,43759,1,0,0:0:0:0:
44,228,43874,2,0,P|136:268|160:360,1,180
334,338,44566,2,0,L|248:364,2,90
412,296,45259,2,0,P|448:260|448:204,1,90
364,40,45720,2,0,P|348:152|368:216,1,180
424,156,46413,2,0,P|316:144|280:208,1,180
224,264,47105,2,0,L|124:292,1,90
312,292,47567,2,0,L|398:267,1,90,0|0,0:0|0:0,0:0:0:0:
444,260,47913,1,0,0:0:0:0:
480,232,48028,2,0,P|504:188|504:128,1,90
443,85,48489,1,0,0:0:0:0:
443,85,48720,1,0,0:0:0:0:
443,85,48951,2,0,P|344:60|268:88,1,180
220,156,49643,2,0,P|184:200|148:224,2,90
180,76,50336,1,0,0:0:0:0:
28,168,50797,2,0,L|44:264,1,90
272,344,51259,2,0,P|200:312|100:324,2,180
440,280,52643,1,0,0:0:0:0:
468,196,52874,1,0,0:0:0:0:
380,212,53105,2,0,B|284:208|268:112|268:112|180:112|160:44|160:44|80:88|20:48,1,450
24,168,54489,1,0,0:0:0:0:
24,285,54720,2,0,B|84:257|84:257|168:292|248:244,1,233.999989288331
328,164,55413,1,0,0:0:0:0:
404,72,55643,2,0,B|376:148|328:164|328:164|380:200|364:280,1,233.999989288331
245,245,56335,1,0,0:0:0:0:
212,132,56566,2,0,P|140:220|180:340,1,233.999989288331
288,356,57259,2,0,L|404:356,1,116.999994644165
212,132,57720,2,0,L|84:132,1,116.999994644165
32,232,58182,1,0,0:0:0:0:
380,260,58412,1,0,0:0:0:0:
380,260,58528,1,0,0:0:0:0:
380,260,58643,2,0,P|268:288|200:200,1,233.999989288331
308,156,59336,2,0,P|412:121|486:203,1,233.999989288331
380,260,60028,2,0,L|336:368,1,116.999994644165
219,359,60489,2,0,P|111:323|6:369,2,233.999989288331
296,272,61643,1,0,0:0:0:0:
368,180,61874,1,0,0:0:0:0:
296,88,62105,2,0,P|416:92|472:192,1,233.999989288331
396,276,62797,1,0,0:0:0:0:
308,352,63028,2,0,B|244:356|220:304|220:304|148:336|96:304,1,233.999989288331
15,222,63720,1,0,0:0:0:0:
140,40,63951,2,0,P|116:100|68:144,1,116.999994644165
328,288,64413,2,0,P|236:232|84:252,1,233.999989288331
412,308,65105,2,0,L|520:252,1,116.999994644165
328,288,65566,2,0,L|220:344,1,116.999994644165
192,352,65913,1,0,0:0:0:0:
156,352,66028,2,0,P|122:259|164:132,1,233.999989288331
236,44,66720,1,0,0:0:0:0:
236,44,67182,1,0,0:0:0:0:
240,160,67413,1,0,0:0:0:0:
352,188,67643,1,0,0:0:0:0:
256,192,67874,12,0,69259,0:0:0:0:
352,92,69720,6,0,L|420:132,1,58.4999973220826
109,121,70066,2,0,L|160:92,1,58.4999973220826
320,196,70413,2,0,L|348:268,1,58.4999973220826,0|0,0:0|0:0,0:0:0:0:
170,250,70759,2,0,L|192:196,1,58.4999973220826,0|0,0:0|0:0,0:0:0:0:
256,332,71105,1,0,0:0:0:0:
460,220,71566,5,0,0:0:0:0:
460,220,71797,1,0,0:0:0:0:
460,220,71913,1,0,0:0:0:0:
460,220,72028,2,0,B|409:191|411:121|411:121|341:123|312:72,1,233.999989288331
344,188,72720,2,0,P|320:244|264:276,1,116.999994644165
172,216,73182,1,0,0:0:0:0:
16,356,73413,2,0,P|36:304|84:268,1,116.999994644165
324,68,73874,2,0,P|304:120|256:156,1,116.999994644165
120,128,74336,2,0,P|100:73|112:17,1,116.999994644165
399,17,74797,2,0,P|411:73|392:128,1,116.999994644165
308,211,75259,2,0,P|276:279|280:335,1,116.999994644165
276,319,75605,1,0,0:0:0:0:
276,319,75720,1,0,0:0:0:0:
164,360,75951,1,0,0:0:0:0:
192,248,76182,2,0,P|128:252|52:340,2,175.499991966248
328,196,77105,2,0,P|348:132|328:76,1,116.999994644165
184,188,77566,2,0,P|164:252|184:308,1,116.999994644165
384,112,78028,2,0,P|352:52|299:27,1,116.999994644165
128,272,78489,2,0,P|159:331|212:356,1,116.999994644165
384,112,78951,1,0,0:0:0:0:
200,72,79182,1,0,0:0:0:0:
200,72,79297,1,0,0:0:0:0:
200,72,79412,2,0,B|171:123|101:121|101:121|103:191|52:220,2,233.999989288331
316,60,80566,1,0,0:0:0:0:
400,140,80797,2,0,P|416:196|404:256,1,116.999994644165
212,360,81259,2,0,P|240:309|291:275,1,116.999994644165
256,176,81720,1,0,0:0:0:0:
192,80,81951,1,0,0:0:0:0:
192,80,82066,1,0,0:0:0:0:
192,80,82182,1,0,0:0:0:0:
88,136,82413,1,0,0:0:0:0:
140,236,82643,2,0,P|148:308|172:352,1,116.999994644165
284,372,83105,2,0,P|338:352|382:314,1,116.999994644165
408,200,83566,2,0,P|440:132|496:96,2,116.999994644165
304,144,84259,1,0,0:0:0:0:
304,144,84374,1,0,0:0:0:0:
304,144,84490,2,0,B|208:184|144:116|85:157,2,175.499991966248
256,252,85413,1,0,0:0:0:0:
256,252,85528,1,0,0:0:0:0:
256,252,85644,2,0,L|256:372,2,116.999994644165
312,72,86336,1,0,0:0:0:0:
312,72,86566,1,0,0:0:0:0:
312,72,86682,1,0,0:0:0:0:
312,72,86797,2,0,B|364:92|376:160|376:160|444:160|468:228,1,233.999989288331
360,276,87489,2,0,L|276:364,1,116.999994644165
160,352,87951,1,0,0:0:0:0:
64,284,88182,2,0,P|40:196|116:76,1,233.999989288331
124,244,88874,2,0,P|111:196|160:136,1,116.999994644165
188,204,89336,2,0,P|200:260|160:312,2,116.999994644165
270,286,90028,2,0,B|349:235|413:281|413:281|486:236,1,233.999989288331
396,152,90720,1,0,0:0:0:0:
396,152,90836,1,0,0:0:0:0:
396,152,90951,2,0,L|220:152,2,175.499991966248
172,216,91874,2,0,P|160:276|176:336,1,116.999994644165
336,372,92336,2,0,P|348:315|336:258,1,116.999994644165
172,24,92797,2,0,P|159:80|171:137,1,116.999994644165
332,184,93259,2,0,P|344:124|332:70,1,116.999994644165
392,239,93720,1,0,0:0:0:0:
392,239,93951,1,0,0:0:0:0:
392,239,94066,1,0,0:0:0:0:
392,239,94181,2,0,P|418:127|389:15,2,233.999989288331
274,239,95336,2,0,L|182:311,1,116.999994644165
76,264,95797,2,0,P|24:232|-8:179,2,116.999994644165
143,359,96489,2,0,P|255:331|368:360,2,233.999989288331
256,192,97528,12,0,100643,0:0:0:0:
116,192,100874,5,0,0:0:0:0:
116,192,100989,1,0,0:0:0:0:
116,192,101105,2,0,P|88:264|200:364,1,233.999989288331
292,316,101797,1,0,0:0:0:0:
292,316,101913,1,0,0:0:0:0:
292,316,102028,1,0,0:0:0:0:
116,192,102259,1,0,0:0:0:0:
256,36,102490,1,0,0:0:0:0:
428,152,102720,2,0,L|488:152,2,58.4999973220826
280,176,103182,1,0,0:0:0:0:
280,176,103297,1,0,0:0:0:0:
280,176,103413,1,0,0:0:0:0:
164,96,103643,1,0,0:0:0:0:
48,172,103874,2,0,B|16:236|16:236|80:296|40:384,2,233.999989288331
256,80,105259,1,0,0:0:0:0:
372,284,105720,1,0,0:0:0:0:
140,284,106182,1,0,0:0:0:0:
256,80,106643,2,0,P|240:144|196:192,1,116.999994644165
208,182,106989,1,0,0:0:0:0:
208,182,107105,1,0,0:0:0:0:
140,284,107336,1,0,0:0:0:0:
232,356,107566,2,0,L|408:356,2,175.499991966248
140,284,108489,2,0,P|116:220|120:168,1,116.999994644165
372,100,108951,2,0,P|396:164|392:216,1,116.999994644165
309,294,109413,2,0,P|224:324|160:388,2,175.499991966248
163,382,110335,1,0,0:0:0:0:
65,99,110797,1,0,0:0:0:0:
348,1,111259,1,0,0:0:0:0:
446,284,111720,1,0,0:0:0:0:
216,148,112182,2,0,P|120:124|40:148,2,175.499991966248
296,236,113105,2,0,P|392:260|472:236,2,175.499991966248
464,240,114028,1,0,0:0:0:0:
472,232,114951,1,0,0:0:0:0:
480,224,115874,1,0,0:0:0:0:
256,192,115989,12,0,117605,0:0:0:0:
256,192,117720,12,0,119105,0:0:0:0:
396,44,119566,6,0,P|352:96|364:204,1,180
284,296,120259,2,0,B|336:288|336:288|404:304|444:240,1,180
362,201,120951,2,0,P|328:176|304:136,1,90
272,104,121297,1,0,0:0:0:0:
240,72,121413,2,0,B|156:108|100:48|48:84,1,180
0,139,122105,2,0,P|16:216|-12:336,1,180
72,368,122797,2,0,L|160:340,1,90
189,308,123143,1,0,0:0:0:0:
220,276,123259,2,0,P|304:248|388:276,1,180
472,244,123951,2,0,L|492:152,2,90
460,332,124643,1,0,0:0:0:0:
372,356,124874,1,0,0:0:0:0:
372,356,124989,1,0,0:0:0:0:
372,356,125105,2,0,P|292:336|184:368,1,180
71,231,125797,2,0,P|151:251|259:219,1,180
312,78,126489,2,0,P|319:122|304:164,1,90
216,140,126951,1,0,0:0:0:0:
128,148,127182,2,0,L|20:124,2,90
180,224,127874,2,0,L|288:248,2,90
116,287,128566,1,0,0:0:0:0:
116,287,128682,1,0,0:0:0:0:
116,288,128797,1,0,0:0:0:0:
256,344,129028,1,0,0:0:0:0:
396,288,129259,1,0,0:0:0:0:
436,144,129489,1,0,0:0:0:0:
336,32,129720,2,0,P|280:68|168:64,2,180
108,128,131104,1,0,0:0:0:0:
184,292,131566,1,0,0:0:0:0:
24,376,132028,1,0,0:0:0:0:
88,292,132259,1,0,0:0:0:0:
184,292,132489,2,0,P|256:312|356:288,1,180
396,208,133182,1,0,0:0:0:0:
340,136,133413,2,0,P|364:84|364:52,2,90
236,184,134105,2,0,B|144:200|132:284|132:284|56:312,1,233.999989288331
164,364,134797,1,0,0:0:0:0:
416,328,135028,2,0,P|316:252|216:276,1,233.999989288331
135,191,135720,1,0,0:0:0:0:
223,125,135951,2,0,P|255:77|256:20,1,116.999994644165
135,191,136413,2,0,P|48:240|0:364,2,233.999989288331
353,252,137566,2,0,L|236:288,1,116.999994644165
232,320,137913,1,0,0:0:0:0:
224,352,138028,2,0,B|296:392|380:324|472:352,1,233.999989288331
288,32,138720,2,0,B|216:-8|132:60|40:32,1,233.999989288331
40,240,139413,2,0,P|26:178|51:134,1,116.999994644165
116,192,139874,2,0,P|128:268|-4:320,1,233.999989288331
156,120,140566,2,0,P|192:168|204:244,1,116.999994644165
288,305,141028,1,0,0:0:0:0:
116,192,141259,1,0,0:0:0:0:
256,44,141489,2,0,P|316:58|378:34,1,116.999994644165
200,96,141951,2,0,P|140:82|78:106,1,116.999994644165
5,181,142413,2,0,P|-15:257|9:361,2,175.499991966248
116,192,143336,1,0,0:0:0:0:
216,256,143566,2,0,P|276:272|328:256,1,116.999994644165
496,200,144028,2,0,P|436:184|384:200,1,116.999994644165
404,384,144489,2,0,P|420:324|404:272,1,116.999994644165
312,72,144951,2,0,P|296:132|312:184,1,116.999994644165
264,16,145413,2,0,P|224:136|264:245,1,233.999989288331
84,360,146105,2,0,P|148:324|204:316,1,116.999994644165
304,340,146566,1,0,0:0:0:0:
304,340,146682,1,0,0:0:0:0:
304,340,146797,1,0,0:0:0:0:
386,257,147028,1,0,0:0:0:0:
256,192,147259,12,0,148643,0:0:0:0:
372,300,149105,6,0,L|432:328,1,58.4999973220826
148,308,149451,2,0,L|120:368,1,58.4999973220826
140,84,149797,2,0,L|80:56,1,58.4999973220826
364,76,150143,2,0,L|392:16,1,58.4999973220826
256,192,150489,1,0,0:0:0:0:
