osu file format v12

[General]
AudioFilename: NAKED GENIUS.mp3
AudioLeadIn: 0
PreviewTime: -1
Countdown: 0
SampleSet: Soft
StackLeniency: 0.7
Mode: 3
LetterboxInBreaks: 1
SpecialStyle: 1
WidescreenStoryboard: 1

[Editor]
Bookmarks: 8990,9752,24880,35812,40430,55430,75049,94075
DistanceSpacing: 1.2
BeatDivisor: 8
GridSize: 8

[Metadata]
Title:NAKED GENIUS
TitleUnicode:NAKED GENIUS
Artist:Haqua starring Hayami Saori
ArtistUnicode:ハクア starring 早見沙織
Creator:Andrew Chow
Version:7K HD
Source:The World God Only Knows
Tags:Haqua du Lot Herminium, The World God Only Knows, ハクア, Haqua
BeatmapID:363062
BeatmapSetID:146296

[Difficulty]
HPDrainRate:9
CircleSize:7
OverallDifficulty:9
ApproachRate:9
SliderMultiplier:1.4
SliderTickRate:2

[Events]
//Background and Video events
0,0,"bt4020-Konachan.com-103548blue_hairhaqua_du_lot_herminiumhatkawata_hisashired_eyesscythethe_world_god_only_knowsthighhighsweapon.jpg",0,0
//Break Periods
//Storyboard Layer 0 (Background)
//Storyboard Layer 1 (Fail)
//Storyboard Layer 2 (Pass)
//Storyboard Layer 3 (Foreground)
//Storyboard Sound Samples
//Background Colour Transformations
3,100,163,162,255

[TimingPoints]
14084,338.983050847458,4,2,1,70,1,0
56108,-100,4,2,1,70,0,1
77803,-100,4,2,1,70,0,0
125261,-100,4,2,1,70,0,1
146956,-100,4,2,1,70,0,0
209329,-100,4,2,1,70,0,1
231024,-100,4,2,1,70,0,0

[HitObjects]
36,192,524,1,0,0:0:0:0:
109,192,694,1,0,0:0:0:0:
182,192,863,1,0,0:0:0:0:
256,192,1033,1,0,0:0:0:0:
329,192,1202,1,0,0:0:0:0:
36,192,1372,1,0,0:0:0:0:
475,192,1541,128,0,3067:0:0:0:0:
36,192,1880,128,0,3067:0:0:0:0:
402,192,2050,1,0,0:0:0:0:
329,192,2219,1,0,0:0:0:0:
256,192,2389,1,0,0:0:0:0:
182,192,2558,1,0,0:0:0:0:
182,192,2728,1,0,0:0:0:0:
109,192,2897,1,0,0:0:0:0:
256,192,3067,1,0,0:0:0:0:
256,192,3236,1,0,0:0:0:0:
182,192,3236,1,0,0:0:0:0:
329,192,3236,1,0,0:0:0:0:
182,192,3575,1,0,0:0:0:0:
329,192,3575,1,0,0:0:0:0:
109,192,3745,1,0,0:0:0:0:
402,192,3745,1,0,0:0:0:0:
36,192,4592,128,0,6499:0:0:0:0:
182,192,4931,1,0,0:0:0:0:
109,192,5270,128,0,6499:0:0:0:0:
256,192,5609,1,0,0:0:0:0:
182,192,5948,128,0,6499:0:0:0:0:
329,192,6499,1,0,0:0:0:0:
329,192,6965,1,0,0:0:0:0:
109,192,7346,1,0,0:0:0:0:
402,192,7346,1,0,0:0:0:0:
182,192,7812,1,0,0:0:0:0:
329,192,7812,1,0,0:0:0:0:
402,192,8151,1,0,0:0:0:0:
109,192,8151,1,0,0:0:0:0:
256,192,8321,1,0,0:0:0:0:
182,192,8702,1,0,0:0:0:0:
475,192,8999,1,0,0:0:0:0:
36,192,8999,1,0,0:0:0:0:
402,192,9083,1,0,0:0:0:0:
109,192,9083,1,0,0:0:0:0:
329,192,9168,1,0,0:0:0:0:
182,192,9168,1,0,0:0:0:0:
256,192,9253,1,0,0:0:0:0:
182,192,9338,1,0,0:0:0:0:
329,192,9338,1,0,0:0:0:0:
109,192,9422,1,0,0:0:0:0:
402,192,9422,1,0,0:0:0:0:
36,192,9507,1,0,0:0:0:0:
475,192,9507,1,0,0:0:0:0:
109,192,9592,1,0,0:0:0:0:
402,192,9592,1,0,0:0:0:0:
182,192,9677,1,0,0:0:0:0:
329,192,9677,1,0,0:0:0:0:
256,192,10016,1,0,0:0:0:0:
329,192,10100,1,0,0:0:0:0:
182,192,10100,1,0,0:0:0:0:
109,192,10185,1,0,0:0:0:0:
402,192,10185,1,0,0:0:0:0:
36,192,10270,1,0,0:0:0:0:
475,192,10270,1,0,0:0:0:0:
109,192,10355,1,0,0:0:0:0:
402,192,10355,1,0,0:0:0:0:
36,192,10439,1,0,0:0:0:0:
475,192,10439,1,0,0:0:0:0:
109,192,10524,1,0,0:0:0:0:
402,192,10524,1,0,0:0:0:0:
182,192,10609,1,0,0:0:0:0:
329,192,10609,1,0,0:0:0:0:
256,192,10694,1,0,0:0:0:0:
36,192,11329,128,0,13660:0:0:0:0:
475,192,11329,128,0,13660:0:0:0:0:
109,192,11329,128,0,12431:0:0:0:0:
402,192,11329,128,0,12431:0:0:0:0:
182,192,12600,1,0,0:0:0:0:
329,192,12685,1,0,0:0:0:0:
109,192,12770,1,0,0:0:0:0:
402,192,12855,1,0,0:0:0:0:
182,192,12939,1,0,0:0:0:0:
329,192,13024,1,0,0:0:0:0:
109,192,13109,1,0,0:0:0:0:
402,192,13194,1,0,0:0:0:0:
182,192,13278,1,0,0:0:0:0:
329,192,13363,1,0,0:0:0:0:
109,192,13448,1,0,0:0:0:0:
402,192,13533,1,0,0:0:0:0:
182,192,13660,1,0,0:0:0:0:
36,192,14083,128,0,14507:0:0:0:0:
402,192,14507,128,0,15100:0:0:0:0:
36,192,15100,128,0,15439:0:0:0:0:
329,192,15439,128,0,15948:0:0:0:0:
182,192,15990,128,0,16456:0:0:0:0:
329,192,16456,128,0,16880:0:0:0:0:
256,192,16880,128,0,17389:0:0:0:0:
36,192,17389,128,0,19168:0:0:0:0:
475,192,17812,128,0,19168:0:0:0:0:
402,192,18151,128,0,19168:0:0:0:0:
329,192,18660,128,0,19168:0:0:0:0:
182,192,19168,1,0,0:0:0:0:
182,192,19507,1,0,0:0:0:0:
182,192,19677,1,0,0:0:0:0:
329,192,19846,1,0,0:0:0:0:
182,192,20016,1,0,0:0:0:0:
329,192,20100,1,0,0:0:0:0:
182,192,20143,1,0,0:0:0:0:
329,192,20228,1,0,0:0:0:0:
182,192,20312,1,0,0:0:0:0:
329,192,20397,1,0,0:0:0:0:
182,192,20482,1,0,0:0:0:0:
329,192,20863,1,0,0:0:0:0:
329,192,21033,1,0,0:0:0:0:
182,192,21202,1,0,0:0:0:0:
329,192,21329,1,0,0:0:0:0:
182,192,21456,1,0,0:0:0:0:
329,192,21499,1,0,0:0:0:0:
182,192,21626,1,0,0:0:0:0:
329,192,21668,1,0,0:0:0:0:
182,192,21795,1,0,0:0:0:0:
329,192,21922,1,0,0:0:0:0:
109,192,22261,1,0,0:0:0:0:
109,192,22389,1,0,0:0:0:0:
402,192,22558,1,0,0:0:0:0:
109,192,22728,1,0,0:0:0:0:
402,192,22812,1,0,0:0:0:0:
109,192,22897,1,0,0:0:0:0:
402,192,22982,1,0,0:0:0:0:
109,192,23067,1,0,0:0:0:0:
402,192,23151,1,0,0:0:0:0:
109,192,23236,1,0,0:0:0:0:
402,192,23575,1,0,0:0:0:0:
402,192,23745,1,0,0:0:0:0:
109,192,23914,1,0,0:0:0:0:
402,192,24084,1,0,0:0:0:0:
109,192,24168,1,0,0:0:0:0:
402,192,24253,1,0,0:0:0:0:
109,192,24380,1,0,0:0:0:0:
402,192,24465,1,0,0:0:0:0:
256,192,24592,128,0,25058:0:0:0:0:
