osu file format v14

[General]
AudioFilename: BGM.mp3
AudioLeadIn: 0
PreviewTime: 46398
Countdown: 0
SampleSet: Soft
StackLeniency: 0.7
Mode: 0
LetterboxInBreaks: 1
WidescreenStoryboard: 0

[Editor]
Bookmarks: 24096,47038
DistanceSpacing: 1
BeatDivisor: 4
GridSize: 4
TimelineZoom: 1

[Metadata]
Title:Treasure Town no Theme
TitleUnicode:トレジャータウンのテーマ
Artist:HappyDragonite
ArtistUnicode:HappyDragonite
Creator:CrystilonZ
Version:Normal
Source:
Tags:時の探検隊 闇の探検隊 空の探検隊 Toki no Tankentai Yami Sora YouTube [_lost_] 飯吉新 Iiyoshi Arata 坂本英城 Sakamoto Hideki いとうけいすけ Itou Keisuke
BeatmapID:666224
BeatmapSetID:293048

[Difficulty]
HPDrainRate:3
CircleSize:3.5
OverallDifficulty:3
ApproachRate:4
SliderMultiplier:0.8
SliderTickRate:1

[Events]
//Background and Video events
0,0,"BG.jpg",0,0
//Break Periods
//Storyboard Layer 0 (Background)
//Storyboard Layer 1 (Fail)
//Storyboard Layer 2 (Pass)
//Storyboard Layer 3 (Foreground)
//Storyboard Sound Samples

[TimingPoints]
163,352.941176470588,4,2,1,50,1,0
24162,-100,4,2,1,50,0,0
35457,-100,4,2,1,55,0,0
45692,-100,4,2,1,70,0,0
46751,-100,4,2,1,60,0,0
69339,-100,4,2,1,50,0,0
74986,-100,4,2,1,60,0,0
80986,-100,4,2,1,40,0,0
85574,-100,4,2,1,60,0,0

[Colours]
Combo1 : 220,160,120
Combo2 : 109,238,252
Combo3 : 254,238,126
Combo4 : 252,130,255
Combo5 : 223,220,217
Combo6 : 254,169,129
Combo7 : 192,255,155
Combo8 : 255,108,108

[HitObjects]
120,24,24162,6,0,P|108:76|164:176,2,160,10|2|8,0:2|3:2|0:2,0:2:0:0:
264,80,26280,5,2,3:2:0:0:
324,132,26633,1,8,0:2:0:0:
400,112,26986,2,0,P|376:192|300:208,2,160,10|2|10,0:2|3:2|0:2,0:2:0:0:
464,260,29104,5,2,3:2:0:0:
396,304,29457,1,8,0:2:0:0:
316,312,29810,2,0,B|276:324|240:304|240:304|192:280|144:296,1,160,10|2,0:2|3:2,0:2:0:0:
132,216,30868,2,0,P|180:208|224:216,1,80,0|10,0:2|0:2,0:2:0:0:
188,372,31927,5,2,3:2:0:0:
104,360,32280,1,8,0:2:0:0:
72,284,32633,2,0,P|48:256|44:208,1,80,10|2,0:2|0:2,0:2:0:0:
56,132,33339,2,0,P|51:92|26:62,1,80,10|2,0:2|0:2,0:2:0:0:
96,20,34045,1,10,0:2:0:0:
228,108,34751,5,2,3:2:0:0:
304,132,35104,1,8,0:2:0:0:
384,116,35457,2,0,P|360:192|280:212,2,160,6|2|10,0:2|3:2|0:2,0:2:0:0:
432,268,37574,5,2,3:2:0:0:
360,308,37927,1,8,0:2:0:0:
280,308,38280,2,0,P|232:304|144:376,1,160,10|2,0:2|3:2,0:2:0:0:
76,328,39339,2,0,P|68:284|48:240,1,80,2|10,0:2|0:2,0:2:0:0:
100,180,40045,6,0,P|84:140|80:92,1,80,2|2,0:2|3:2,0:2:0:0:
136,40,40751,1,8,0:2:0:0:
216,28,41104,2,0,B|219:71|194:96|194:96|232:104|280:137,1,160,10|2,0:2|3:2,0:2:0:0:
336,178,42162,1,8,0:2:0:0:
388,236,42515,6,0,P|420:280|424:312,1,80,10|2,0:2|0:2,0:2:0:0:
344,304,43221,2,0,P|304:300|264:304,1,80,2|8,3:2|0:2,0:2:0:0:
220,236,43927,2,0,P|188:280|184:312,1,80,10|2,0:2|0:2,0:2:0:0:
108,336,44633,2,0,L|48:284,1,80,2|10,3:2|0:2,0:2:0:0:
32,204,45339,5,10,0:2:0:0:
88,148,45692,1,8,0:1:0:0:
16,112,46045,1,8,0:1:0:0:
68,48,46398,1,2,0:2:0:0:
68,48,46751,6,0,L|156:28,1,80,6|2,1:2|0:2,0:2:0:0:
204,88,47457,2,0,L|292:68,1,80,10|8,1:2|1:2,0:2:0:0:
360,52,48162,6,0,B|364:104|336:128|336:128|384:196,1,160,2|10,1:2|1:2,0:2:0:0:
308,228,49221,2,0,L|353:293,1,80,8|2,1:2|1:2,0:2:0:0:
191,303,50280,6,0,P|156:292|116:304,1,80,10|8,1:2|1:2,0:2:0:0:
68,240,50986,2,0,B|96:216|140:212|140:212|148:168|144:128,1,160,2|10,1:2|1:2,0:2:0:0:
140,52,52045,1,2,0:2:0:0:
140,52,52398,6,0,B|196:48|224:104|224:104|228:132|228:160,1,160,2|10,1:2|1:2,0:2:0:0:
308,164,53457,2,0,P|308:124|300:80,1,80,8|2,1:2|1:2,0:2:0:0:
356,28,54162,1,2,3:2:0:0:
356,28,54515,2,0,P|400:44|448:48,1,80,10|2,1:2|0:2,0:2:0:0:
472,120,55221,6,0,B|433:136|392:125|392:125|388:160|392:212,2,160,6|6|6,1:2|1:2|1:2,0:2:0:0:
472,200,56986,2,0,P|468:240|428:276,1,80,2|2,3:2|3:2,0:2:0:0:
364,276,57692,1,10,0:2:0:0:
312,212,58045,5,6,1:2:0:0:
240,248,58398,1,2,0:2:0:0:
200,180,58751,1,10,1:2:0:0:
272,144,59104,1,8,1:2:0:0:
332,92,59457,6,0,B|284:52|236:76|236:76|176:36,1,160,2|10,1:2|1:2,0:2:0:0:
148,112,60515,1,8,1:2:0:0:
120,189,60868,6,0,B|124:236|160:252|160:252|160:296|201:316,1,160,2|10,1:2|1:2,0:2:0:0:
240,248,61927,1,8,1:2:0:0:
281,317,62280,6,0,P|317:271|316:241,1,80,2|2,1:2|3:2,0:2:0:0:
396,264,62986,2,0,L|416:176,1,80,10|2,1:2|3:2,0:2:0:0:
432,108,63692,5,2,1:2:0:0:
352,120,64045,1,2,0:2:0:0:
380,44,64398,1,10,1:2:0:0:
300,56,64751,1,8,1:2:0:0:
216,64,65104,6,0,B|224:116|264:132|264:132|188:148,1,160,2|10,1:2|1:2,0:2:0:0:
136,204,66162,1,2,0:2:0:0:
212,228,66515,6,0,B|282:212|282:212|252:243|266:294,1,160,6|6,1:2|1:2,0:2:0:0:
436,316,67927,2,0,P|460:272|460:228,1,80,6|2,1:2|3:2,0:2:0:0:
432,168,68633,2,0,L|472:84,1,80,2|2,3:2|0:2,0:2:0:0:
404,44,69339,6,0,B|368:116|368:116|336:80|288:84,1,160,10|2,1:2|3:2,0:2:0:0:
300,164,70398,1,2,0:2:0:0:
228,128,70751,6,0,B|208:84|224:48|224:48|144:52,1,160,2|2,1:2|3:2,0:2:0:0:
112,124,71810,2,0,L|20:128,1,80,10|10,1:2|1:2,0:2:0:0:
96,276,72868,5,2,3:2:0:0:
176,273,73221,1,2,0:2:0:0:
224,336,73574,2,0,B|260:308|256:264|256:264|340:252,1,160,10|2,1:2|3:2,0:2:0:0:
412,248,74633,1,10,1:2:0:0:
404,168,74986,6,0,P|392:120|396:76,1,80,6|2,1:2|3:2,0:2:0:0:
340,28,75692,2,0,P|292:40|248:36,1,80,6|2,1:2|3:2,0:2:0:0:
212,104,76398,6,0,B|248:124|280:120|280:120|268:160|232:200,1,160,6|10,1:2|1:2,0:2:0:0:
160,168,77457,2,0,P|152:212|172:252,1,80,2|14,3:2|1:2,0:2:0:0:
100,292,78162,6,0,P|134:320|178:323,1,80,2|10,3:2|1:2,0:2:0:0:
236,280,78868,1,10,1:2:0:0:
312,252,79221,6,0,B|324:304|296:332|296:332|328:336|380:316,1,160,10|10,1:2|1:2,0:2:0:0:
444,288,80280,1,10,1:2:0:0:
492,224,80633,1,10,1:2:0:0:
256,192,81339,12,2,85574,3:2:0:0:
