osu file format v14

[General]
AudioFilename: BGM.mp3
AudioLeadIn: 0
PreviewTime: 46398
Countdown: 0
SampleSet: Soft
StackLeniency: 0.7
Mode: 0
LetterboxInBreaks: 1
WidescreenStoryboard: 0

[Editor]
Bookmarks: 24096,47038
DistanceSpacing: 1
BeatDivisor: 4
GridSize: 4
TimelineZoom: 1

[Metadata]
Title:Treasure Town no Theme
TitleUnicode:トレジャータウンのテーマ
Artist:HappyDragonite
ArtistUnicode:HappyDragonite
Creator:CrystilonZ
Version:Insane
Source:
Tags:時の探検隊 闇の探検隊 空の探検隊 Toki no Tankentai Yami Sora YouTube [_lost_] 飯吉新 Iiyoshi Arata 坂本英城 Sakamoto Hideki いとうけいすけ Itou Keisuke
BeatmapID:659359
BeatmapSetID:293048

[Difficulty]
HPDrainRate:7
CircleSize:4
OverallDifficulty:7
ApproachRate:7.5
SliderMultiplier:1.5
SliderTickRate:1

[Events]
//Background and Video events
0,0,"BG.jpg",0,0
//Break Periods
//Storyboard Layer 0 (Background)
//Storyboard Layer 1 (Fail)
//Storyboard Layer 2 (Pass)
//Storyboard Layer 3 (Foreground)
//Storyboard Sound Samples

[TimingPoints]
163,352.941176470588,4,2,1,50,1,0
24162,-200,4,2,1,50,0,0
35457,-133.333333333333,4,2,1,55,0,0
45692,-200,4,2,1,70,0,0
46398,-200,4,2,1,50,0,0
46751,-100,4,2,1,60,0,0
55927,-200,4,2,1,60,0,0
56986,-133.333333333333,4,2,1,60,0,0
58045,-100,4,2,1,60,0,0
67221,-200,4,2,1,60,0,0
69339,-200,4,2,1,50,0,0
74986,-133.333333333333,4,2,1,60,0,0
85221,-133.333333333333,4,2,1,75,0,0

[Colours]
Combo1 : 220,160,120
Combo2 : 109,238,252
Combo3 : 254,238,126
Combo4 : 252,130,255
Combo5 : 223,220,217
Combo6 : 254,169,129
Combo7 : 192,255,155
Combo8 : 255,108,108

[HitObjects]
144,46,24162,6,0,P|108:90|120:186,1,150,10|2,0:2|3:2,0:2:0:0:
208,130,25221,1,0,0:2:0:0:
272,46,25574,2,0,P|308:90|296:186,1,150,10|2,0:2|3:2,0:2:0:0:
208,246,26633,1,8,0:2:0:0:
140,328,26986,6,0,P|208:352|280:328,1,150,10|2,0:2|3:2,0:2:0:0:
336,250,28045,1,0,0:2:0:0:
92,250,28398,1,10,0:2:0:0:
92,250,29104,2,0,L|40:182,1,75,2|8,3:2|0:2,0:2:0:0:
208,130,29810,6,0,P|244:118|308:26,1,150,10|2,0:2|3:2,0:2:0:0:
408,26,30868,1,0,0:2:0:0:
444,121,31221,2,0,P|409:137|353:234,1,150,10|2,0:2|3:2,0:2:0:0:
460,228,32280,1,8,0:2:0:0:
336,330,32633,6,0,P|280:306|268:282,1,75,10|2,0:2|0:2,0:2:0:0:
248,182,33339,1,2,3:2:0:0:
460,228,33692,1,2,0:2:0:0:
408,26,34045,1,10,0:2:0:0:
408,26,34751,5,2,3:2:0:0:
248,182,35104,1,8,0:2:0:0:
64,294,35457,5,6,0:2:0:0:
60,118,35721,2,0,L|36:158,1,28.1250010728836,0|2,0:2|0:2,0:2:0:0:
160,26,36074,2,0,L|180:70,1,28.1250010728836,0|2,0:2|3:2,0:2:0:0:
248,182,36427,1,0,0:2:0:0:
260,158,36515,1,2,0:2:0:0:
360,18,36780,6,0,L|380:50,1,28.1250010728836,0|10,0:2|0:2,0:2:0:0:
436,226,37133,1,0,0:2:0:0:
456,206,37221,1,2,0:2:0:0:
308,308,37486,2,0,L|300:268,1,28.1250010728836,0|2,0:2|3:2,0:2:0:0:
256,52,37839,2,0,L|256:92,1,28.1250010728836,0|8,0:2|0:2,0:2:0:0:
192,308,38192,5,0,0:2:0:0:
197,280,38280,1,10,0:2:0:0:
360,18,38545,1,0,0:2:0:0:
372,42,38633,2,0,P|396:78|436:102,1,84.3750032186509,2|0,0:2|0:2,0:2:0:0:
336,138,38986,2,0,L|280:201,1,84.3750032186509,2|0,3:2|0:2,0:2:0:0:
200,166,39339,2,0,P|152:188|104:182,1,84.3750032186509,2|0,0:2|0:2,0:2:0:0:
140,102,39692,5,10,0:2:0:0:
335,273,39957,2,0,L|352:250,1,28.1250010728836,0|2,0:2|0:2,0:2:0:0:
84,34,40310,2,0,L|68:58,1,28.1250010728836,0|2,0:2|3:2,0:2:0:0:
200,166,40662,2,0,L|216:142,1,28.1250010728836,0|8,0:2|0:2,0:2:0:0:
368,26,41015,5,0,0:2:0:0:
376,54,41104,1,10,0:2:0:0:
335,273,41368,1,0,0:2:0:0:
311,290,41457,2,0,P|281:318|262:356,1,84.3750032186509,2|0,0:2|0:2,0:2:0:0:
184,358,41810,2,0,P|165:320|134:291,1,84.3750032186509,2|0,3:2|0:2,0:2:0:0:
16,378,42162,2,0,P|57:380|97:368,1,84.3750032186509,8|0,0:2|0:2,0:2:0:0:
76,218,42515,2,0,P|52:253|43:293,1,84.3750032186509,8|0,0:2|0:2,0:2:0:0:
43,293,42868,5,2,0:2:0:0:
262,356,43133,1,0,0:2:0:0:
273,330,43221,1,2,3:2:0:0:
430,376,43486,1,0,0:2:0:0:
404,380,43574,1,8,0:2:0:0:
370,216,43839,5,0,0:2:0:0:
383,240,43927,2,0,P|392:190|416:146,1,84.3750032186509,10|0,0:2|0:2,0:2:0:0:
348,40,44280,2,0,P|339:90|315:134,1,84.3750032186509,2|0,0:2|0:2,0:2:0:0:
228,164,44633,2,0,P|236:113|260:69,1,84.3750032186509,2|0,3:2|0:2,0:2:0:0:
164,30,44986,2,0,P|155:80|131:124,1,84.3750032186509,10|0,0:2|0:2,0:2:0:0:
80,178,45339,5,10,0:2:0:0:
84,202,45692,1,8,3:1:0:0:
88,226,46045,1,8,3:1:0:0:
92,248,46398,2,0,P|96:280|108:304,1,56.25,2|0,0:2|0:2,0:2:0:0:
112,322,46751,6,0,P|156:330|208:374,1,112.5,6|0,1:2|0:2,0:2:0:0:
332,330,47104,2,0,P|277:317|236:279,1,112.5,2|0,0:2|0:2,0:2:0:0:
320,234,47457,2,0,P|352:194|364:122,1,112.5,10|0,1:2|0:2,0:2:0:0:
412,44,47810,2,0,P|361:36|293:61,1,112.5,8|0,1:2|0:2,0:2:0:0:
200,60,48162,2,0,P|218:107|274:154,1,112.5,10|0,1:2|0:2,0:2:0:0:
232,224,48515,1,2,3:2:0:0:
232,224,48780,5,0,3:2:0:0:
232,224,48868,2,0,P|164:228|120:260,1,112.5,10|0,1:2|0:2,0:2:0:0:
192,308,49221,2,0,B|164:338|128:338|128:338|96:378,1,112.5,8|0,1:2|0:2,0:2:0:0:
60,298,49574,2,0,L|4:198,1,112.5,2|0,1:2|0:2,0:2:0:0:
24,48,49927,2,0,L|80:148,1,112.5,2|0,0:2|0:2,0:2:0:0:
92,168,50280,5,10,1:2:0:0:
312,46,50545,2,0,L|256:26,1,37.5,0|8,0:2|1:2,0:2:0:0:
444,178,50898,1,0,0:2:0:0:
420,194,50986,2,0,P|400:226|408:304,1,112.5,2|0,1:2|0:2,0:2:0:0:
436,374,51339,1,2,3:2:0:0:
436,374,51604,5,0,3:2:0:0:
408,382,51692,2,0,L|296:362,1,112.5,10|0,1:2|0:2,0:2:0:0:
272,274,52045,2,0,P|220:306|160:294,1,112.5,2|0,0:2|0:2,0:2:0:0:
156,342,52398,6,0,L|128:222,1,112.5,2|0,1:2|0:2,0:2:0:0:
112,150,52751,1,2,0:2:0:0:
284,50,53015,1,0,0:2:0:0:
252,70,53104,1,10,1:2:0:0:
420,170,53368,1,0,0:2:0:0:
388,150,53457,1,8,1:2:0:0:
272,274,53721,5,0,0:2:0:0:
300,246,53810,2,0,P|284:306|280:362,1,112.5,2|0,1:2|0:2,0:2:0:0:
399,280,54162,2,0,P|415:226|420:170,1,112.5,2|0,3:2|3:2,0:2:0:0:
388,149,54515,2,0,P|432:116|459:67,1,112.5,10|0,1:2|0:2,0:2:0:0:
371,44,54868,2,0,P|328:74|284:44,1,112.5,2|0,0:2|0:2,0:2:0:0:
196,68,55221,6,0,P|222:118|268:151,1,112.5,6|0,1:2|0:2,0:2:0:0:
148,170,55574,2,0,P|92:182|52:234,1,112.5,2|0,0:2|0:2,0:2:0:0:
148,266,55927,6,0,B|184:274|216:242|216:242|256:290,1,131.25,6|0,1:2|0:2,0:2:0:0:
320,250,56633,2,0,L|364:302,1,56.25,6|0,1:2|0:2,0:2:0:0:
432,346,56986,6,0,P|444:290|460:258,1,84.3750032186509,2|0,3:2|3:2,0:2:0:0:
396,204,57339,2,0,P|384:148|368:116,1,84.3750032186509,2|0,3:2|0:2,0:2:0:0:
448,82,57692,2,0,P|455:40|471:2,1,84.3750032186509,10|0,0:2|0:2,0:2:0:0:
256,74,58045,6,0,L|361:34,1,112.5,6|0,1:2|0:2,0:2:0:0:
164,94,58398,2,0,L|277:113,1,112.5,2|0,0:2|0:2,0:2:0:0:
80,66,58751,2,0,L|168:139,1,112.5,10|0,1:2|0:2,0:2:0:0:
64,158,59104,2,0,P|80:198|64:274,1,112.5,8|0,1:2|0:2,0:2:0:0:
144,322,59457,2,0,P|184:294|260:298,1,112.5,2|0,1:2|0:2,0:2:0:0:
328,322,59810,1,2,3:2:0:0:
328,322,60074,5,0,3:2:0:0:
356,346,60162,2,0,L|380:230,1,112.5,10|0,1:2|0:2,0:2:0:0:
388,198,60515,1,10,0:2:0:0:
324,30,60780,1,0,0:2:0:0:
288,46,60868,2,0,P|244:58|172:42,1,112.5,2|0,1:2|0:2,0:2:0:0:
104,94,61221,2,0,P|88:146|40:194,1,112.5,2|0,0:2|0:2,0:2:0:0:
8,194,61574,2,0,P|60:190|116:234,1,112.5,10|0,1:2|0:2,0:2:0:0:
74,377,61927,2,0,P|38:335|36:279,1,112.5,8|0,1:2|0:2,0:2:0:0:
132,298,62280,6,0,B|168:322|168:358|168:358|232:346,1,112.5,2|0,1:2|0:2,0:2:0:0:
284,334,62633,1,2,3:2:0:0:
432,194,62898,2,8,L|439:230,1,37.5,0|10,3:2|1:2,0:2:0:0:
279,53,63251,2,0,L|316:46,1,37.5,0|2,0:2|3:2,0:2:0:0:
127,190,63604,5,0,0:2:0:0:
119,153,63692,2,0,P|116:106|76:46,1,112.5,2|0,1:2|0:2,0:2:0:0:
169,25,64045,2,0,L|279:53,1,112.5,2|0,0:2|0:2,0:2:0:0:
384,78,64398,2,0,L|304:159,1,112.5,10|0,1:2|0:2,0:2:0:0:
232,232,64751,2,0,L|201:122,1,112.5,8|0,1:2|0:2,0:2:0:0:
169,25,65104,5,2,1:2:0:0:
384,78,65368,1,0,0:2:0:0:
412,50,65457,1,2,3:2:0:0:
232,232,65721,1,0,3:2:0:0:
240,270,65810,1,10,1:2:0:0:
169,25,66074,1,0,0:2:0:0:
132,18,66162,2,0,P|84:54|20:74,1,112.5,2|0,0:2|0:2,0:2:0:0:
12,26,66515,6,0,L|0:150,1,112.5,6|0,1:2|0:2,0:2:0:0:
68,306,66868,2,0,L|80:182,1,112.5,2|0,0:2|0:2,0:2:0:0:
144,128,67221,6,0,B|172:160|176:190|176:190|240:152,1,131.25,6|0,1:2|0:2,0:2:0:0:
296,194,67927,2,0,L|360:158,1,56.25,6|0,1:2|3:2,0:2:0:0:
416,130,68280,1,2,0:2:0:0:
484,246,68545,1,0,3:2:0:0:
500,238,68633,1,2,3:2:0:0:
368,310,68898,1,0,0:2:0:0:
376,326,68986,2,0,P|368:354|368:386,1,56.25,2|0,0:2|0:2,0:2:0:0:
276,350,69339,6,0,P|284:322|280:270,1,75,10|2,1:2|0:2,0:2:0:0:
136,228,70045,2,0,P|128:256|132:308,1,75,2|2,3:2|0:2,0:2:0:0:
216,200,70662,1,0,0:2:0:0:
208,184,70751,2,0,P|148:148|72:176,1,150,2|2,1:2|3:2,0:2:0:0:
128,40,71810,2,0,P|168:40|192:48,1,56.25,10|0,1:2|0:2,0:2:0:0:
204,52,72162,6,0,L|288:40,1,75,10|2,1:2|0:2,0:2:0:0:
408,104,72868,1,2,3:2:0:0:
408,104,73221,2,0,P|404:148|412:168,1,56.25,2|0,0:2|0:2,0:2:0:0:
412,180,73574,2,0,B|432:220|408:256|408:256|472:300,1,150,10|2,1:2|3:2,0:2:0:0:
336,208,74633,2,0,P|296:212|264:208,1,56.25,10|0,1:2|0:2,0:2:0:0:
271,188,74986,6,0,P|227:221|172:221,1,112.500004291535,6|2,1:2|3:2,0:2:0:0:
169,31,75604,1,0,0:2:0:0:
169,31,75692,2,0,L|200:140,1,112.500004291535,6|2,1:2|3:2,0:2:0:0:
92,280,76310,1,0,0:2:0:0:
92,280,76398,2,0,B|52:212|104:152|104:152|76:56,1,225.000008583069,6|10,1:2|1:2,0:2:0:0:
272,32,77457,1,2,3:2:0:0:
452,156,77721,5,0,0:2:0:0:
428,140,77810,1,14,1:2:0:0:
318,298,78162,1,2,3:2:0:0:
136,172,78427,1,0,0:2:0:0:
162,187,78515,1,10,1:2:0:0:
295,164,78868,1,10,1:2:0:0:
368,28,79133,5,0,0:2:0:0:
372,54,79221,1,10,1:2:0:0:
406,241,79574,1,2,3:2:0:0:
224,304,79839,1,0,0:2:0:0:
216,275,79927,1,10,1:2:0:0:
184,86,80280,1,10,1:2:0:0:
295,164,80545,5,0,0:2:0:0:
295,164,80633,2,0,L|172:188,1,112.500004291535,10|2,1:2|3:2,0:2:0:0:
80,48,81251,1,0,0:2:0:0:
80,48,81339,2,0,L|12:140,1,112.500004291535,10|10,1:2|1:2,0:2:0:0:
72,264,81957,5,0,0:2:0:0:
72,264,82045,2,0,P|112:296|152:312,1,84.3750032186509,10|0,1:2|0:2,0:2:0:0:
225,308,82398,2,0,P|263:290|296:264,1,84.3750032186509,2|0,3:2|0:2,0:2:0:0:
218,221,82751,2,0,P|180:203|143:220,1,84.3750032186509,10|0,1:2|0:2,0:2:0:0:
184,132,83104,2,0,L|184:48,1,84.3750032186509,10|0,1:2|0:2,0:2:0:0:
184,20,83457,5,10,1:2:0:0:
380,64,83721,1,0,0:2:0:0:
352,72,83810,2,0,P|312:92|292:128,1,84.3750032186509,2|0,3:2|0:2,0:2:0:0:
388,236,84162,2,0,P|389:194|373:155,1,84.3750032186509,10|0,1:2|0:2,0:2:0:0:
480,252,84515,2,0,P|478:293|494:332,1,84.3750032186509,10|0,1:2|0:2,0:2:0:0:
492,168,84868,5,10,0:2:0:0:
480,144,85221,1,8,3:1:0:0:
480,120,85574,1,8,3:1:0:0:
