osu file format v14

[General]
AudioFilename: BGM.mp3
AudioLeadIn: 0
PreviewTime: 46398
Countdown: 0
SampleSet: Soft
StackLeniency: 0.7
Mode: 0
LetterboxInBreaks: 1
WidescreenStoryboard: 0

[Editor]
Bookmarks: 24096,47038
DistanceSpacing: 1.2
BeatDivisor: 4
GridSize: 4
TimelineZoom: 1

[Metadata]
Title:Treasure Town no Theme
TitleUnicode:トレジャータウンのテーマ
Artist:HappyDragonite
ArtistUnicode:HappyDragonite
Creator:CrystilonZ
Version:Hard
Source:
Tags:時の探検隊 闇の探検隊 空の探検隊 Toki no Tankentai Yami Sora YouTube [_lost_] 飯吉新 Iiyoshi Arata 坂本英城 Sakamoto Hideki いとうけいすけ Itou Keisuke
BeatmapID:660197
BeatmapSetID:293048

[Difficulty]
HPDrainRate:5
CircleSize:4
OverallDifficulty:5
ApproachRate:6.5
SliderMultiplier:1
SliderTickRate:1

[Events]
//Background and Video events
0,0,"BG.jpg",0,0
//Break Periods
//Storyboard Layer 0 (Background)
//Storyboard Layer 1 (Fail)
//Storyboard Layer 2 (Pass)
//Storyboard Layer 3 (Foreground)
//Storyboard Sound Samples

[TimingPoints]
163,352.941176470588,4,2,1,50,1,0
24162,-133.333333333333,4,2,1,50,0,0
35457,-133.333333333333,4,2,1,55,0,0
45692,-133.333333333333,4,2,1,70,0,0
46398,-133.333333333333,4,2,1,50,0,0
46751,-100,4,2,1,60,0,0
55927,-100,4,2,1,60,0,0
56986,-100,4,2,1,60,0,0
58045,-100,4,2,1,60,0,0
67221,-100,4,2,1,60,0,0
69339,-133.333333333333,4,2,1,50,0,0
74986,-100,4,2,1,60,0,0
80810,-100,4,2,1,40,0,0
85574,-100,4,2,1,60,0,0

[Colours]
Combo1 : 220,160,120
Combo2 : 109,238,252
Combo3 : 254,238,126
Combo4 : 252,130,255
Combo5 : 223,220,217
Combo6 : 254,169,129
Combo7 : 192,255,155
Combo8 : 255,108,108

[HitObjects]
140,44,24162,6,0,P|148:112|84:168,1,150.000005722046,10|2,0:2|3:2,0:2:0:0:
136,244,25221,2,0,P|176:224|200:196,1,75.000002861023,0|8,0:2|0:2,0:2:0:0:
216,168,26280,5,2,3:2:0:0:
232,84,26633,1,8,0:2:0:0:
316,52,26986,2,0,B|328:108|300:140|300:140|360:168,1,150.000005722046,10|2,0:2|3:2,0:2:0:0:
300,236,28045,2,0,L|367:269,1,75.000002861023,0|10,0:2|0:2,0:2:0:0:
404,284,29104,5,2,3:2:0:0:
336,344,29457,1,8,0:2:0:0:
252,312,29810,2,0,P|212:264|236:172,1,150.000005722046,10|2,0:2|3:2,0:2:0:0:
308,144,30868,1,0,0:2:0:0:
308,236,31221,1,10,0:2:0:0:
308,236,31927,5,2,3:2:0:0:
252,312,32280,1,8,0:2:0:0:
164,316,32633,2,0,P|128:300|80:300,1,75.0000028610231,10|2,0:2|0:2,0:2:0:0:
108,208,33339,2,0,P|70:205|36:189,1,75.0000028610231,2|2,3:2|0:2,0:2:0:0:
92,116,34045,2,0,B|120:92|116:44|116:44|196:60,1,150.000005722046,10|2,0:2|3:2,0:2:0:0:
272,76,35104,1,8,0:2:0:0:
360,96,35457,5,6,0:2:0:0:
452,96,35810,2,0,P|444:136|416:168,1,75.0000028610231,2|2,0:2|3:2,0:2:0:0:
336,184,36515,2,0,L|320:268,1,75.0000028610231,2|10,0:2|0:2,0:2:0:0:
232,240,37221,2,0,L|216:312,1,56.2500021457673,2|0,0:2|0:2,0:2:0:0:
216,316,37574,2,0,P|172:316|136:336,1,75.0000028610231,2|8,3:2|0:2,0:2:0:0:
72,276,38280,6,0,B|88:256|72:216|72:216|56:176|72:144,1,131.25000500679,10|0,3:2|0:0,0:0:0:0:
76,128,38986,2,0,P|112:104|136:68,1,75.0000028610231,2|2,3:2|0:2,0:2:0:0:
200,28,39692,2,0,L|280:40,1,75.0000028610231,10|2,0:2|0:2,0:2:0:0:
364,52,40398,1,2,3:2:0:0:
364,52,40751,1,8,0:2:0:0:
436,108,41104,6,0,P|408:136|376:140,1,56.2500021457673,10|0,0:2|0:2,0:2:0:0:
372,144,41457,2,0,L|380:224,1,75.0000028610231,2|2,0:2|3:2,0:2:0:0:
448,276,42162,2,0,P|424:296|400:304,1,56.2500021457673,8|0,0:2|0:2,0:2:0:0:
378,300,42515,2,0,L|316:342,1,75.0000028610231,10|2,0:2|0:2,0:2:0:0:
264,268,43221,2,0,L|202:310,1,75.0000028610231,2|8,3:2|0:2,0:2:0:0:
120,348,43927,6,0,P|128:308|120:268,1,75.0000028610231,10|2,0:2|0:2,0:2:0:0:
60,208,44633,2,0,P|84:188|123:184,1,56.2500021457673,2|0,3:2|0:2,0:2:0:0:
130,178,44986,2,0,P|170:162|186:146,1,56.2500021457673,10|0,0:2|0:2,0:2:0:0:
193,135,45339,2,0,L|205:51,1,75.0000028610231,10|8,0:2|3:1,0:2:0:0:
288,36,46045,1,8,3:1:0:0:
288,36,46398,2,0,P|312:52|344:64,1,56.2500021457673,2|0,0:2|0:2,0:2:0:0:
360,44,46751,6,0,P|352:84|376:148,1,100,6|2,1:2|0:2,0:2:0:0:
280,216,47457,2,0,P|288:176|272:124,1,75,10|0,1:2|0:2,0:2:0:0:
264,116,47810,2,0,P|224:92|204:36,1,100,8|2,1:2|1:2,0:2:0:0:
84,60,48515,1,2,3:2:0:0:
40,136,48780,1,0,3:2:0:0:
52,164,48868,2,0,P|72:204|52:276,1,100,10|8,1:2|1:2,0:2:0:0:
12,364,49574,5,2,1:2:0:0:
12,364,50280,2,0,P|64:352|120:344,1,100,10|8,1:2|1:2,0:2:0:0:
232,340,50986,5,2,1:2:0:0:
320,348,51251,2,0,L|360:356,1,25,0|2,0:2|3:2,0:2:0:0:
424,312,51604,2,0,L|456:292,1,25,0|10,3:2|1:2,0:2:0:0:
480,216,51957,1,0,0:2:0:0:
488,188,52045,2,0,P|484:136|500:96,1,75,2|0,0:2|0:2,0:2:0:0:
504,88,52398,6,0,L|388:108,1,100,2|2,1:2|0:2,0:2:0:0:
292,60,53104,1,10,1:2:0:0:
200,136,53457,1,8,1:2:0:0:
80,116,53810,2,0,P|80:172|160:252,1,175,2|0,1:2|0:2,0:2:0:0:
148,280,54515,2,0,P|192:268|260:268,1,100,10|2,1:2|0:2,0:2:0:0:
336,187,55221,6,0,P|385:186|434:174,1,100,6|2,1:2|0:2,0:2:0:0:
436,84,55927,2,0,P|504:120|508:228,1,175,6|0,1:2|0:2,0:2:0:0:
504,236,56633,5,6,1:2:0:0:
434,174,56898,1,0,3:2:0:0:
434,174,56986,1,2,3:2:0:0:
360,112,57251,1,0,3:2:0:0:
360,112,57339,1,2,3:2:0:0:
368,24,57604,1,0,0:2:0:0:
368,24,57692,1,10,0:2:0:0:
284,60,57957,5,0,0:2:0:0:
284,60,58045,2,0,P|240:72|184:52,1,100,6|2,1:2|0:2,0:2:0:0:
76,20,58751,2,0,P|64:64|40:100,1,75,10|0,1:2|0:2,0:2:0:0:
20,76,59104,2,0,L|44:180,1,100,8|2,1:2|1:2,0:2:0:0:
72,292,59810,1,2,3:2:0:0:
124,220,60074,1,0,3:2:0:0:
124,220,60162,2,0,P|156:256|152:320,1,100,10|8,1:2|1:2,0:2:0:0:
236,352,60780,5,0,0:2:0:0:
264,360,60868,2,0,L|368:336,1,100,2|2,1:2|0:2,0:2:0:0:
316,228,61574,1,10,1:2:0:0:
316,228,61927,2,0,L|392:140,1,100,8|2,1:2|1:2,0:2:0:0:
460,64,62633,1,2,3:2:0:0:
496,180,62986,1,10,1:2:0:0:
468,56,63339,1,2,3:2:0:0:
332,40,63692,5,2,1:2:0:0:
332,40,64398,2,0,L|266:115,1,100,10|8,1:2|1:2,0:2:0:0:
148,96,65104,2,0,P|148:140|168:180,1,75,2|0,1:2|0:2,0:2:0:0:
172,196,65457,2,0,P|128:200|80:244,1,100,2|10,3:2|1:2,0:2:0:0:
176,312,66162,2,0,L|256:336,1,75,2|0,0:2|0:2,0:2:0:0:
244,364,66515,6,0,P|288:332|348:328,1,100,6|2,1:2|0:2,0:2:0:0:
452,348,67221,2,0,B|424:320|452:272|452:272|480:216|436:176,1,175,6|0,1:2|0:0,0:0:0:0:
424,164,67927,1,6,1:2:0:0:
448,76,68192,2,0,L|436:36,1,25,0|2,3:2|3:2,0:2:0:0:
356,24,68545,2,0,L|320:28,1,25,0|2,3:2|3:2,0:2:0:0:
244,52,68898,1,0,0:2:0:0:
244,52,68986,2,0,P|220:92|184:116,1,75,2|0,0:2|0:2,0:2:0:0:
180,120,69339,5,10,1:2:0:0:
180,120,70045,1,2,3:2:0:0:
124,192,70398,1,2,0:2:0:0:
112,280,70751,2,0,B|152:284|180:260|180:260|216:336,1,150.000005722046,2|2,1:2|3:2,0:2:0:0:
304,320,71810,2,0,L|270:252,1,75.0000028610231,10|10,1:2|1:2,0:2:0:0:
344,200,72515,6,0,L|377:267,1,75.0000028610231,2|2,0:2|3:2,0:2:0:0:
468,256,73221,1,2,0:2:0:0:
468,256,73574,2,0,P|440:208|456:112,1,150.000005722046,10|2,1:2|3:2,0:2:0:0:
396,48,74633,2,0,L|328:44,1,56.2500021457673,10|0,1:2|0:2,0:2:0:0:
344,24,74986,6,0,L|248:72,1,100,6|2,1:2|3:2,0:2:0:0:
168,44,75604,1,0,0:2:0:0:
168,44,75692,2,0,P|164:88|120:136,1,100,6|2,1:2|3:2,0:2:0:0:
80,208,76310,1,0,0:0:0:0:
80,208,76398,2,0,B|132:236|176:208|176:208|216:240|256:280,1,200,6|10,1:2|1:2,0:0:0:0:
344,348,77457,2,0,P|388:356|448:324,1,100,2|14,3:2|1:2,0:2:0:0:
376,232,78162,5,2,3:2:0:0:
376,232,78515,2,0,L|424:136,1,100,10|10,1:2|1:2,0:2:0:0:
304,120,79221,2,0,L|256:24,1,100,10|2,1:2|3:2,0:2:0:0:
164,100,79927,2,0,P|120:80|64:84,1,100,10|10,1:2|1:2,0:2:0:0:
96,200,80633,1,10,1:2:0:0:
256,192,80986,12,2,85574,3:2:0:0:
