osu file format v9

[General]
AudioFilename: crawling.mp3
AudioLeadIn: 1996
PreviewTime: 36934
Countdown: 0
SampleSet: Soft
StackLeniency: 0.7
Mode: 0
LetterboxInBreaks: 0

[Editor]
DistanceSpacing: 0.8
BeatDivisor: 4
GridSize: 4

[Metadata]
Title:My Ryuu
Artist:Happy Birthday
Creator:rockleejkooo
Version:I love you
Source:
Tags:[Ryuu] birthday Superchick Crawl Carry Me Through

[Difficulty]
HPDrainRate:6
CircleSize:4
OverallDifficulty:7
ApproachRate:8
SliderMultiplier:1
SliderTickRate:1

[Events]
//Background and Video events
0,0,"happy birthday darling.jpg"
//Break Periods
//Storyboard Layer 0 (Background)
//Storyboard Layer 1 (Fail)
//Storyboard Layer 2 (Pass)
//Storyboard Layer 3 (Foreground)
//Storyboard Sound Samples
//Background Colour Transformations
3,100,163,162,255

[TimingPoints]
132,400.026668444563,4,2,0,30,1,0
12932,-66.6666666666667,4,2,0,50,0,0
37034,-100,4,2,0,60,0,0
37334,-66.6666666666667,4,2,0,70,0,0
37734,-50,4,2,0,80,0,0
38634,-66.6666666666667,4,2,0,50,0,0
64136,-50,4,1,0,30,0,0
145741,-100,4,2,0,50,0,0
159342,-100,4,2,0,70,0,0
159742,-100,4,2,0,90,0,0
160142,-100,4,2,0,70,0,0
160542,-100,4,2,0,50,0,0
173810,-100,4,2,0,100,0,0
176143,-100,4,2,0,20,0,0
176543,-100,4,2,0,50,0,0
203945,-100,4,2,0,20,0,0
204945,-100,4,2,0,40,0,0
210446,-100,4,2,0,70,0,0

[Colours]
Combo1 : 217,62,78
Combo2 : 0,94,47
Combo3 : 66,66,251
Combo4 : 209,168,58

[HitObjects]
140,36,6532,2,0,B|152:60|152:60|160:60|160:60|160:68|160:68|168:68|168:68|164:76|164:76|172:76|172:76|172:84|172:84|180:80|180:80|180:88|180:88|188:92|188:92|196:96|196:96|204:100|204:100|224:120|280:132,1,200,2|0
392,152,7732,1,0
120,248,8132,2,0,B|216:304|344:256,1,200,2|0
368,108,9732,2,0,B|372:134|372:134|365:139|365:139|370:145|370:145|364:150|364:150|372:154|372:154|365:159|365:159|370:165|370:165|361:167|361:167|366:173|366:173|362:181|362:181|357:189|357:189|353:197|353:197|349:225|311:267,1,200,2|0
4,232,11332,2,0,B|11:206|11:206|19:204|19:204|17:196|17:196|25:195|25:195|19:188|19:188|27:186|27:186|26:178|26:178|34:181|34:181|33:173|33:173|40:167|40:167|47:162|47:162|54:156|54:156|70:133|123:111,1,200,2|0
216,68,12532,1,0
312,40,12932,5,4
456,184,13732,1,2
328,288,14132,2,0,B|264:296|264:296|224:304|160:264,1,149.999995529652,0|0
40,168,14932,1,0
216,32,15333,2,0,B|264:120|240:184,1,149.999995529652,2|0
224,264,15933,1,2
192,352,16133,1,2
192,352,16533,5,4
260,260,17533,1,2
296,176,17733,2,0,B|344:96,1,74.9999977648259,4|0
60,160,18333,1,2
120,88,18533,1,0
32,72,18733,1,0
120,88,18933,2,0,B|224:148,1,112.499996647239,2|0
244,140,19333,2,0,B|304:120|380:68,1,149.999995529652,4|0
152,240,20133,6,0,B|48:120,2,149.999995529652,2|0|0
152,240,21333,1,0
288,56,21733,2,0,B|328:128,1,74.9999977648259,2|0
208,296,22133,2,0,B|344:176,2,149.999995529652,4|0|0
208,296,23333,1,2
208,72,23933,5,0
248,152,24133,2,0,B|304:248,1,74.9999977648259,2|0
400,264,24533,2,0,B|456:168,1,74.9999977648259
400,88,24933,2,0,B|312:40,1,74.9999977648259,2|0
224,120,25333,1,2
168,192,25533,1,2
256,216,25733,1,4
272,224,26133,1,0
288,232,26533,6,0,B|368:272,1,74.9999977648259,2|0
384,256,26933,1,0
384,256,27333,1,2
176,288,28133,2,0,B|152:192,1,74.9999977648259
136,108,28533,1,2
312,304,28933,1,4
272,112,29333,2,0,B|448:96,1,149.999995529652,0|2
208,248,30134,1,2
208,248,30334,6,0,B|160:224|96:216,1,112.499996647239,0|4
384,80,30934,2,0,B|376:168,1,74.9999977648259,2|0
288,288,31334,2,0,B|288:200,1,74.9999977648259,4|0
152,86,31734,2,0,B|153:102|153:102|157:102|157:102|158:110|158:110|154:110|154:110|150:111|150:111|150:119|150:119|154:118|154:118|158:118|158:118|159:126|159:126|155:126|155:126|151:127|151:127|151:135|151:135|155:134|155:134|160:204,1,149.999995529652,2|4
300,320,32534,1,2
404,172,32934,1,2
272,52,33334,5,2
196,100,33534,1,0
124,152,33734,1,4
384,220,34334,1,2
212,276,34734,5,2
192,268,35334,5,4
176,260,35734,6,0,B|108:116,1,149.999995529652,0|4
168,316,36934,5,2
188,292,37034,2,0,B|208:236,1,50,0|0
200,216,37334,2,0,B|280:124,1,112.499996647239,2|0
292,144,37734,2,0,B|328:48,2,100,2|0|2
316,232,38334,1,2
392,276,38534,5,4
432,256,38934,1,2
456,216,39334,1,2
456,172,39734,1,2
440,128,40134,6,0,B|388:144|296:140,1,112.499996647239,2|0
300,188,40534,2,0,B|240:208|180:252,1,112.499996647239,2|0
156,208,40934,2,0,B|120:164|64:132,1,112.499996647239,2|0
20,164,41334,2,0,B|16:236|84:300,1,149.999995529652,2|4
92,304,42134,5,2
104,308,42534,5,2
384,176,43134,1,0
408,72,43334,1,2
108,96,43734,1,2
160,188,43934,1,0
160,188,44134,2,0,B|196:228|224:284,1,112.499996647239,2|0
272,304,44534,2,0,B|336:304|408:320,1,112.499996647239,2|0
428,284,44934,2,0,B|452:256|468:212,2,74.9999977648259,2|0|2
148,320,45735,6,0,B|144:240|144:240|128:156,1,149.999995529652,2|0
308,112,46535,2,0,B|308:168|296:240,1,112.499996647239,2|0
332,264,46935,2,0,B|296:300|212:336,1,112.499996647239,2|0
204,368,47335,2,0,B|152:336|100:272,1,112.499996647239,2|0
104,244,47735,1,0
180,132,48135,1,2
292,208,48535,1,2
220,320,48935,1,2
120,116,49535,5,0
172,40,49735,1,2
192,276,50135,1,0
248,208,50335,1,2
444,148,50535,2,0,B|388:72,2,74.9999977648259,2|0|0
352,232,51135,1,0
352,232,51335,2,0,B|268:184,2,74.9999977648259,2|0|0
316,348,51935,1,0
316,348,52135,2,0,B|224:364,2,74.9999977648259,2|0|0
56,44,52935,6,0,B|124:104|104:244|168:324,2,299.999991059304,0|2|0
256,192,55335,1,2
358,148,56135,1,2
152,148,56535,1,0
255,316,56935,5,2
439,73,57335,1,0
71,73,57735,5,4
116,184,58135,1,0
228,148,58535,1,2
192,32,58935,1,0
441,73,59335,5,4
396,184,59735,1,0
284,148,60136,1,2
320,32,60536,1,0
52,144,60936,6,0,B|88:208|104:288,1,149.999995529652,4|0
200,160,61736,2,0,B|212:232|200:324,1,149.999995529652,2|0
312,160,62536,2,0,B|301:232|311:309,1,149.999995529652,4|0
459,144,63336,2,0,B|424:208|408:284,1,149.999995529652,2|0
384,272,63836,1,0
356,268,63936,1,0
328,272,64036,1,0
272,268,64136,5,0
112,168,64536,2,0,B|116:136|156:96|156:64,2,100,0|0|8
100,256,65136,1,0
156,324,65336,1,0
336,344,65736,1,0
392,228,65936,1,0
264,236,66136,1,0
292,152,66336,6,0,B|288:116|320:80|312:48,1,100,0|8
88,132,66936,1,0
168,172,67136,1,0
212,252,67336,1,0
252,332,67536,2,0,B|304:316|344:272,1,100,0|0
336,280,68136,1,8
344,104,68536,1,2
256,72,68736,6,0,B|220:104|220:104|152:128,1,100,8|0
260,288,69336,2,0,B|224:320|224:320|152:352,2,100,0|0|8
332,220,69936,1,0
332,132,70136,1,0
376,52,70336,2,0,B|408:72|456:56|488:76,1,100,0|0
456,264,70936,1,0
268,332,71336,6,0,B|244:220|140:192,1,200,8|0
60,148,71936,1,0
120,80,72136,1,0
356,92,72536,1,0
276,140,72736,1,0
232,220,72936,1,8
452,248,73336,1,0
372,288,73536,1,0
316,356,73736,1,0
280,120,74136,2,0,B|228:140|168:144,1,100,0|0
92,164,74536,1,10
92,164,75137,5,0
100,252,75337,1,8
148,328,75537,1,0
156,332,75637,2,0,B|208:304|240:268,1,100
260,360,76037,2,0,B|304:252,1,100
368,348,76437,2,0,B|348:304|348:244,1,100
344,224,76737,1,0
340,200,76837,1,0
336,176,76937,1,10
312,48,77337,1,0
52,120,77737,6,0,B|108:156|128:248,1,150,8|0
160,240,78137,2,0,B|264:292,1,100
320,320,78537,1,0
436,212,78937,1,0
288,48,79337,6,0,B|212:136|216:140,1,100,8|0
256,232,79737,2,0,B|168:240|152:232,1,100
140,84,80137,2,0,B|104:152|116:208,1,100
228,180,80537,2,0,B|272:260|360:304,1,150
352,288,80937,1,8
324,76,81537,5,0
152,120,81737,2,0,B|196:156|224:196,1,100
320,156,82137,2,0,B|292:196|276:264,1,100,0|0
68,212,82537,2,0,B|92:248|92:248|140:288,1,100,8|0
316,272,82937,2,0,B|356:224|356:224|376:168,1,100,0|0
232,32,83337,2,0,B|188:32|188:32|136:52,1,100
52,112,83737,1,0
36,120,84137,1,8
232,104,84937,1,2
88,256,85337,5,0
188,324,85537,1,0
304,292,85737,1,8
152,108,85937,1,0
304,140,86137,1,0
208,224,86537,5,6
68,100,87337,2,0,B|68:216,1,100,8|0
164,284,87737,2,0,B|164:176,1,100,2|0
284,56,88137,2,0,B|284:156,1,100,8|0
440,328,88537,2,0,B|440:224,1,100,2|0
344,72,88937,5,10
328,176,89137,1,8
224,332,89337,2,0,B|224:284|216:228,1,100,0|0
164,148,89737,1,4
216,232,89937,1,0
164,148,90138,1,0
248,96,90338,1,2
352,280,90538,6,0,B|420:220|480:104,1,200,8|0
488,20,91138,1,0
176,176,91338,2,0,B|304:156|392:112,1,200,2|0
452,68,91938,1,0
60,88,92138,2,0,B|160:96|264:80,1,200,8|0
344,132,92738,1,0
360,232,92938,1,2
360,232,93338,5,0
260,220,93538,1,0
208,136,93738,1,8
116,100,93938,2,0,B|76:132|60:200,1,100
140,256,94338,1,0
228,364,94538,1,2
232,376,94938,5,0
144,268,95138,1,0
268,276,95338,2,0,B|324:268,3,50
344,260,95738,2,0,B|364:216,3,50
376,192,96138,2,0,B|328:136|324:88,2,100,0|0|2
404,288,96738,1,0
328,356,96938,6,0,B|220:348|220:348|216:292|160:244,1,200,8|0
284,260,97538,1,0
244,168,97738,2,0,B|352:176|352:176|356:232|412:280,1,200
404,272,98238,1,0
420,284,98338,1,0
440,292,98438,1,0
460,296,98538,1,8
416,128,98938,1,0
304,140,99138,1,0
352,40,99338,1,0
292,240,99738,6,0,B|196:304,2,100,0|0|8
372,148,100338,1,0
420,256,100538,1,0
292,240,100738,2,0,B|256:192,2,50
312,128,101138,1,0
224,72,101338,6,0,B|200:128,3,50
224,140,101738,2,0,B|260:180|255:254|220:292|144:304|92:284|68:236|64:180|88:132|144:112,1,400,8|4
256,120,103338,1,8
380,104,104138,5,0
256,152,104538,1,0
356,216,104938,1,8
284,48,105339,1,0
232,284,105739,5,0
480,184,106139,1,0
304,296,106539,1,8
408,172,106939,1,0
342,101,107139,5,0
296,148,107339,2,0,B|256:108|260:40|324:0|384:12|424:52|432:100|412:148|348:180,1,350
248,196,108139,2,0,B|208:156|212:88|276:48|336:60|376:100|384:148|364:196|300:228,1,350,8|0
200,244,108939,2,0,B|160:204|164:136|228:92|288:104|328:148|336:192|320:244|256:272|256:272|256:312,1,400,0|8
260,384,110139,1,0
404,84,110539,6,0,B|372:120|372:120|332:144|332:144|284:156|248:224,1,200
248,72,111339,1,8
264,312,111739,1,0
92,128,112139,2,0,B|132:156|132:156|136:216|164:220|164:220|164:264|240:288,1,200
264,96,112939,1,8
248,336,113339,1,0
352,216,113739,2,0,B|308:260|308:260|300:288|272:316|236:320|204:304|188:276,2,200,0|0|8
372,88,114739,5,0
256,32,114939,1,0
172,132,115139,1,0
244,240,115339,1,4
244,240,115739,2,0,B|300:244|352:272,1,100
424,300,116139,1,8
372,88,116339,6,0,B|332:120|304:168,1,100
132,128,116739,2,0,B|176:164|212:220,1,100
400,244,117139,2,0,B|352:252|276:304,1,100
84,292,117539,2,0,B|116:336|204:348,1,100,0|8
360,304,117939,1,0
184,224,118139,1,0
360,176,118339,5,0
168,56,118739,1,0
160,256,119139,1,0
264,264,119339,2,0,B|336:276,2,50,8|0|0
344,200,119739,1,0
312,100,119939,5,0
352,288,120340,1,0
172,220,120740,2,0,B|112:208|60:148,1,100,0|8
84,173,121140,1,0
364,96,121540,6,0,B|376:120|376:168,3,50
364,176,121940,2,0,B|312:168|240:188,2,100
388,200,122540,1,8
176,164,122940,5,0
128,240,123140,1,0
208,292,123340,2,0,B|352:272,1,100
332,296,123640,2,0,B|372:268,3,50
436,188,124140,1,8
200,112,124540,22,0,B|156:74|94:92|81:162|114:219|173:252|244:260|244:260|296:217|329:158|327:92|279:39|217:57|193:147,1,600,0|8
144,256,126140,5,0
256,296,126340,1,0
368,256,126540,1,8
256,168,126940,5,0
204,72,127340,5,8
308,72,127540,1,0
184,208,128140,5,4
280,192,128340,2,0,B|296:240|288:288|248:320|200:320|152:304,2,200,0|8|0
184,208,129340,1,0
88,224,129540,2,0,B|72:176|80:128|120:96|168:96|216:112,2,200
144,304,130540,1,8
240,320,130740,1,0
312,248,130940,6,0,B|288:200,1,50
304,176,131140,2,0,B|344:144|416:128|464:160|496:208,2,200,0|0|8
304,176,132140,1,0
240,248,132340,1,0
304,320,132540,1,0
304,320,132740,2,0,B|264:352|192:368|144:336|112:288,2,200
304,320,133740,1,8
208,96,134340,6,0,B|256:160,1,50
256,160,134540,2,0,B|216:176|216:176|216:184|216:184|208:184|208:184|208:192|208:192|200:192|200:192|168:232|184:344,2,200,0|0|8
396,212,135941,1,0
396,212,136141,2,0,B|356:268|276:300,1,150
260,296,136541,2,0,B|176:256|180:160,1,150,8|0
192,168,136941,2,0,B|264:128|360:136,1,150
344,144,137341,2,0,B|364:180|348:220|316:244|316:244|320:252|320:252|312:252|312:252|316:260|316:260|308:260|308:260|312:268|312:268|304:268|304:268|308:276|308:276|292:308,2,200,8|0|0
344,144,138541,1,8
184,176,138941,5,0
88,264,139141,1,0
216,304,139341,5,2
408,272,139641,1,8
296,112,139941,5,2
272,240,140141,1,2
400,256,140341,1,2
424,128,140541,1,8
88,264,140941,1,4
256,192,141041,12,2,144141
136,216,145741,5,2
144,160,145941,1,0
144,160,146141,2,0,B|160:104|224:80,1,100,0|2
368,112,147141,1,0
368,112,147341,2,0,B|432:192|408:320,1,200
392,320,148241,6,0,B|336:352|272:344|216:304,1,175,0|2
148,212,149341,2,0,B|228:312,1,125
252,324,149941,2,0,B|312:296|392:288,1,125
384,316,150542,2,0,B|428:296|428:296|476:248,2,100,2|2|2
320,88,151942,5,0
296,140,152142,2,0,B|292:168|272:204,1,50,2|0
240,228,152542,1,0
260,280,152742,1,0
284,328,152942,2,0,B|312:340|348:344,1,50,2|0
384,256,153342,2,0,B|328:352,1,100,0|2
116,88,154542,6,0,B|100:192|184:276,1,200,0|2
296,324,155742,1,0
352,112,156542,2,0,B|240:104|192:216,1,200,0|2
194,210,157742,1,2
272,148,158342,6,0,B|312:124,1,25
312,120,158542,2,0,B|352:76|328:4,4,100,0|2|2|2|2
216,192,160542,5,2
320,252,160942,1,2
216,312,161342,1,2
316,356,161742,6,0,B|368:344|408:308|432:256|420:204,1,200,0|2
368,112,162942,1,2
300,200,163342,1,2
300,200,164142,1,2
148,64,164942,6,0,B|104:128|136:216,1,150
108,320,165743,2,0,B|192:328|236:244,1,150,2|0
160,160,166543,2,0,B|196:120|248:104|308:124|336:192,1,200,0|2
152,152,168276,1,2
168,168,169143,1,2
184,184,170009,1,2
368,136,170943,5,2
412,204,171343,5,2
412,312,171876,5,2
308,280,172410,5,2
228,180,173043,5,2
252,28,173810,5,2
112,96,176143,6,0,B|120:216|208:240,1,175,4|2
312,244,177343,1,2
388,192,177743,5,2
412,300,178143,1,0
396,188,178543,5,2
444,288,178943,1,0
404,184,179343,5,2
472,268,179743,1,0
412,180,180144,5,2
500,248,180544,1,0
168,116,180944,5,2
180,204,181344,1,2
244,268,181744,2,0,B|280:304|340:328,2,100,0|0|2
352,56,183344,6,0,B|444:116,2,100,0|0|2
328,132,184544,1,0
328,132,184944,6,0,B|380:232,2,100,0|0|2
268,192,186144,1,0
268,192,186544,6,0,B|288:296,1,100
286,290,187344,1,2
172,248,187744,1,0
172,128,188144,1,2
284,88,188544,1,2
356,188,188944,5,2
352,288,189344,1,0
368,172,189744,5,2
400,268,190144,1,0
380,156,190544,5,2
440,236,190944,1,0
392,140,191344,5,2
472,196,191744,1,0
404,124,192144,5,2
404,124,192544,2,0,B|416:176|456:224,1,100,0|2
272,96,193744,5,2
228,164,194144,1,2
152,184,194544,1,2
152,184,194944,2,0,B|172:292,1,100,0|2
256,248,195745,6,0,B|356:304,1,100,0|2
332,176,196545,6,0,B|444:180,1,100,0|2
332,176,197345,1,0
264,132,197745,1,0
204,80,198145,1,0
124,80,198545,6,0,B|8:120,1,100,2|0
64,184,199345,1,0
104,252,199745,1,0
104,252,200145,6,0,B|128:268|160:272|192:260|208:232|216:216,1,125,2|0
268,140,201212,1,2
268,140,201945,1,0
160,128,203945,5,4
160,128,204995,5,2
184,232,205545,5,2
300,288,206195,5,2
300,288,207445,5,2
296,116,209245,5,2
172,176,210346,5,2
176,184,210546,2,0,B|192:212,1,25,2|2
