osu file format v5

[General]
AudioFilename: YATTA.mp3
AudioLeadIn: 0
PreviewTime: 138279
Countdown: 1
SampleSet: Normal
StackLeniency: 1
Mode: 0
LetterboxInBreaks: 1
EditorBookmarks: 3776,11001,19129,25902,29515,36288,43513,50286,57499,64722,73300,77814,82780,90154,104879,123836,141438,159041,173484,187927,202778,209592,216767

[Metadata]
Title:YATTA
Artist:Happai-tai
Creator:Jaq
Version:Normal
Source:
Tags:

[Difficulty]
HPDrainRate:7
CircleSize:5
OverallDifficulty:7
SliderMultiplier:1.5
SliderTickRate:2

[Events]
//Background and Video events
//Break Periods
2,57687,64110
2,126292,141291
2,209747,215717
//Storyboard Layer 0 (Background)
//Storyboard Layer 1 (Failing)
//Storyboard Layer 2 (Passing)
//Storyboard Layer 3 (Foreground)
//Storyboard Sound Samples
//Background Colour Transformations
3,100,163,162,255

[TimingPoints]
3777,451.25013095932,4,1,0,100,1

[HitObjects]
96,32,3776,2,8,C|416:32,1,300
416,128,5582,2,8,L|64:128,1,300
96,224,6935,2,8,L|256:224,1,150
256,224,8289,1,8
256,64,9192,2,8,L|256:224|416:224,1,300
256,192,10997,5,0
192,128,12802,1,0
96,128,14155,1,0
96,128,14607,1,0
160,224,15509,1,0
256,288,16412,1,0
256,192,16863,1,0
256,192,17314,1,0
256,192,17765,1,0
256,192,18217,1,0
192,96,19119,6,2,L|96:96|96:96|96:160,1,150
160,160,20022,1,0
224,160,20473,1,4
320,96,22729,2,2,L|480:96|480:96|480:96,1,150
384,160,23632,1,4
384,224,24083,1,4
160,160,26339,1,0
256,160,26790,1,0
256,288,27242,1,0
256,224,27693,1,0
256,160,28144,1,0
320,192,29498,6,2,L|64:192,2,150
256,192,30852,5,0
256,192,31303,1,0
256,192,31754,1,0
256,192,32205,1,0
320,288,32657,2,4,L|320:128,1,150
192,128,33559,2,4,L|192:288,1,150
224,32,36267,5,0
288,32,36718,1,0
224,96,37169,1,0
288,96,37620,1,0
224,160,38072,5,0
288,160,38523,1,0
224,224,38974,1,0
288,224,39425,1,0
224,288,39877,5,0
288,288,40328,1,0
224,352,40779,1,0
288,352,41230,1,0
256,288,41682,5,4
256,224,42133,1,4
256,160,42584,1,4
256,96,43035,1,4
256,32,43487,1,4
128,32,43938,6,2,L|32:160|32:160|128:288,2,300
192,32,46194,1,4
320,32,46645,1,4
384,32,47097,6,2,L|486:148|486:148|384:288,2,300
320,32,49353,1,4
256,192,49804,1,4
256,192,50255,1,4
32,192,50707,5,8
96,192,51158,1,0
160,192,51609,1,8
224,192,52060,1,0
288,192,52512,5,8
352,192,52963,1,0
416,192,53414,1,8
480,192,53865,1,0
480,192,54317,5,8
416,192,54768,1,0
352,192,55219,1,8
288,192,55670,1,0
224,192,56122,5,8
160,192,56573,1,0
96,192,57024,1,8
32,192,57475,1,0
256,192,65147,5,4
96,192,66049,1,0
192,288,66500,1,0
320,288,66952,1,0
416,192,67403,1,4
160,96,68757,6,2,B|320:96,1,150
64,96,69659,1,0
160,96,70110,1,0
256,96,70562,1,0
352,96,71013,1,0
448,96,71464,1,4
192,64,73269,6,2,L|96:224,2,150
192,64,74623,2,2,L|288:192,3,150
288,192,76428,2,2,L|384:64,2,150
256,192,77782,6,2,L|256:32|128:160|384:160,1,450
256,160,79587,2,2,L|256:320|384:192|128:192,1,450
32,64,83197,6,0,B|192:64|96:256|96:192,1,150
128,160,84099,6,0,B|288:160|192:-32|192:32,1,150
224,64,85002,6,0,B|384:64|288:256|288:192,1,150
320,160,85904,6,0,B|480:160|384:-32|384:32,1,150
416,64,86807,6,0,B|416:224,1,150
416,224,87709,2,0,B|416:384,1,150,0|0
416,352,88612,1,0
320,256,89063,1,0
256,160,89514,1,0
352,96,89965,1,0
480,32,90417,6,4,C|384:128|256:32|32:352|428:310|384:160,1,1200
480,192,94478,5,0
448,224,94929,1,0
416,192,95380,1,0
384,224,95832,1,0
352,192,96283,1,0
320,160,96734,6,0,B|96:160,1,150
160,160,97637,1,0
32,96,98088,5,0
64,160,98539,1,0
96,224,98990,5,0
128,160,99442,1,0
160,96,99893,5,0
192,160,100344,1,0
224,224,100795,5,0
256,160,101247,1,0
288,96,101698,5,0
320,160,102149,1,0
352,224,102600,5,0
384,288,103052,1,0
320,288,103503,5,0
256,288,103954,1,0
256,224,104405,5,0
256,160,104857,1,0
256,32,105308,6,0,C|256:352,3,300
256,320,108467,5,0
256,224,108918,1,0
256,128,109369,1,0
256,32,109820,1,0
256,192,110723,1,0
256,192,111174,2,0,C|320:192|320:128|192:128|192:256|384:256|384:64|320:64,1,750
192,96,113882,5,0
320,96,114333,1,0
192,256,114784,1,0
320,256,115235,1,0
128,64,115687,6,0,C|256:160|128:320,2,300
160,96,117943,1,0
352,96,118394,1,0
256,96,118845,1,0
192,256,119297,6,0,C|320:160|448:288,2,300
128,192,121553,1,0
256,288,122004,1,0
384,192,122455,1,0
256,192,122907,6,0,B|323:-131|308:180|416:32,2,300
256,192,125163,1,4
256,192,125614,1,4
256,192,126065,1,4
96,64,141859,5,0
256,64,142310,1,0
416,64,142762,1,0
416,192,143213,1,0
256,192,145469,1,0
96,192,145920,1,0
96,320,146372,1,0
256,320,146823,1,0
416,320,148628,1,0
416,192,149530,1,0
416,64,150433,1,0
256,64,151110,1,4
256,64,151335,1,4
256,288,152238,1,0
256,192,153140,1,0
256,192,153592,5,0
256,192,154043,1,0
256,192,154494,1,0
256,192,154945,1,0
256,192,155397,5,0
256,192,155848,1,0
256,192,156299,1,0
256,192,156750,1,0
172,25,159007,6,0,L|256:136|256:294|256:135|353:12,1,600
136,309,161263,2,0,L|256:18|356:312|153:104,1,900
112,78,164422,2,0,L|439:78|261:76|259:353,1,750
112,78,167129,2,0,L|439:78|261:76|259:353,1,750
136,309,169837,2,0,L|256:18|356:312|153:104,1,900
32,32,173447,5,0
64,32,173898,1,0
96,32,174349,1,0
128,32,174800,1,0
160,32,175252,5,0
192,32,175703,1,0
224,32,176154,1,0
256,32,176605,1,0
256,64,177057,5,0
256,96,177508,1,0
256,128,177959,1,0
256,160,178410,1,0
256,192,178862,5,0
288,192,179313,1,0
320,192,179764,1,0
352,192,180215,1,0
384,192,180667,5,0
416,192,181118,1,0
448,192,181569,1,0
480,192,182020,1,0
480,224,182472,5,0
480,256,182923,1,0
480,288,183374,1,0
480,320,183825,1,0
448,320,184277,5,0
416,320,184728,1,0
416,288,185179,1,0
384,288,185630,1,0
352,288,186082,5,0
320,288,186533,1,0
288,288,186984,1,0
256,288,187435,1,0
96,160,187887,6,0,B|256:160,1,150
256,96,188789,2,0,B|416:96,1,150
416,160,189692,2,0,B|416:320,1,150
352,320,190594,2,0,B|192:320,1,150
128,320,191497,2,0,B|128:160,1,150
128,96,192399,2,0,B|288:96,1,150
288,192,193302,2,0,B|128:192,1,150
128,288,194204,2,0,B|128:128,1,150
128,32,195107,6,0,L|32:160|160:288,2,300
192,32,197363,1,0
256,32,197814,1,0
320,32,198265,1,0
128,128,198717,5,0
192,128,199168,1,0
256,128,199619,1,0
320,128,200070,1,0
128,224,200522,5,0
192,224,200973,1,0
256,224,201424,2,0,L|416:224|416:64,1,300
384,32,202778,5,0
320,96,203229,1,0
256,160,203680,5,0
192,96,204132,1,0
128,160,204583,5,0
192,224,205034,1,0
256,288,205485,5,0
320,352,205937,1,0
384,288,206388,5,0
448,224,206839,1,0
384,160,207290,5,0
320,96,207742,1,0
256,32,208193,5,0
192,96,208644,1,0
256,160,209095,5,0
256,256,209547,1,0
128,64,216767,5,0
192,64,217218,1,0
256,128,217669,1,0
320,64,218120,1,0
384,64,218572,5,0
384,128,219023,1,0
384,192,219474,1,0
384,256,219925,1,0
384,320,220377,5,0
256,320,220828,1,0
128,320,221279,5,0
128,192,221730,1,0
256,64,222182,2,0,L|256:224|416:224,1,300
256,192,223987,12,0,231207
