osu file format v5

[General]
AudioFilename: Title.mp3
AudioLeadIn: 0
PreviewTime: -1
Countdown: 1
SampleSet: Soft
StackLeniency: 0.7
Mode: 0
LetterboxInBreaks: 1

[Metadata]
Title:Mabinogi
Artist:Hanstone
Creator:darksen
Version:Easy
Source:
Tags:dark sen mabinogi

[Difficulty]
HPDrainRate:5
CircleSize:4
OverallDifficulty:4
SliderMultiplier:1.4
SliderTickRate:1

[Events]
//Background and Video events
0,0,"20060322112903489.jpg"
//Break Periods
//Storyboard Layer 0 (Background)
//Storyboard Layer 1 (Failing)
//Storyboard Layer 2 (Passing)
//Storyboard Layer 3 (Foreground)
4,3,1,"mabinogi.nexon[1]",320,240 M,0,26250,26250,320,240,320,240
//Storyboard Sound Samples
//Background Colour Transformations
3,100,0,0,0

[TimingPoints]
0,1000,4,2,0,100,1,0

[Colours]
Combo1 : 164,237,129
Combo2 : 128,128,255
Combo3 : 255,255,128
Combo4 : 255,185,255

[HitObjects]
161,166,2000,1,0
224,228,3000,1,0
289,292,4000,1,0
292,158,5000,1,0
160,97,6000,1,0
61,161,7000,2,0,B|160:250|188:187|208:145,1,140
184,190,9000,1,0
231,84,10000,2,0,B|372:137|272:236|311:204,1,140
304,184,12000,1,0
163,128,13000,5,0
238,206,14000,1,0
327,284,15000,1,0
160,224,16000,6,0,B,1,280
174,136,17000,2,8,B|330:136|329:136,1,140
224,96,19000,5,0
128,160,20000,1,0
32,192,21000,1,0
68,96,21500,1,0
132,100,22000,1,0
192,100,22500,1,0
256,194,23000,1,8
256,194,23250,1,8
256,194,23500,1,8
256,194,23750,1,8
256,194,24000,1,8
153,132,24500,5,0
256,98,25000,1,0
359,199,25500,1,0
124,292,26000,1,0
248,328,26500,1,0
219,190,27000,1,0
367,104,27500,1,0
255,51,28000,1,0
192,128,29000,5,0
288,160,30000,1,0
192,128,31000,1,0
288,192,32000,1,0
320,96,33000,6,0,B|96:192|128:288|96:288,1,280
192,192,36000,5,0
160,96,37000,6,0,B|320:64|288:96,1,140
256,160,39000,2,0,B|416:192|384:192,1,140
373,136,40500,1,0
403,200,40750,1,0
368,267,41000,1,0
315,308,41250,1,0
248,324,41500,1,0
181,294,41750,1,0
138,234,42000,1,0
128,160,42250,1,0
168,99,42500,1,0
228,66,42750,1,0
290,64,43000,1,0
256,272,44000,5,0
96,316,45000,1,0
362,197,46000,1,0
108,110,46500,5,0
212,109,47000,1,0
260,112,47250,1,0
291,113,47500,1,0
332,121,47750,1,0
366,123,48000,1,0
320,192,49000,6,0,B,1,70
224,192,50000,6,0,B,1,70
256,288,51000,5,0
410,268,52000,6,0,B|156:132|132:194|173:156,1,280
