osu file format v5

[General]
AudioFilename: Kung_Fu_Fighting.mp3
AudioLeadIn: 0
PreviewTime: -1
Countdown: 2
SampleSet: Normal
StackLeniency: 0.7
Mode: 0
LetterboxInBreaks: 1

[Metadata]
Title:Kung Fu Fighting
Artist:Hans Zimmer
Creator:Rythem_Knight
Version:
Source:
Tags:

[Difficulty]
HPDrainRate:7
CircleSize:4
OverallDifficulty:7
SliderMultiplier:2.6
SliderTickRate:1

[Events]
//Background and Video events
//Break Periods
2,29000,39000
2,75000,91000
2,109800,126000
//Storyboard Layer 0 (Background)
//Storyboard Layer 1 (Failing)
//Storyboard Layer 2 (Passing)
//Storyboard Layer 3 (Foreground)
//Storyboard Sound Samples
//Background Colour Transformations
3,100,163,162,255

[TimingPoints]
0,400,4,1,0,100,1

[HitObjects]
256,192,22400,1,0
416,192,22800,1,0
352,128,23300,1,0
256,96,23700,1,0
160,96,24700,1,0
192,256,25200,1,0
352,256,25900,1,0
384,160,26400,1,0
288,160,26900,1,0
192,160,27300,1,0
96,128,28000,1,0
256,96,28500,1,0
256,96,28800,1,0
256,192,39900,5,0
384,192,40400,1,0
320,288,40800,1,0
320,288,40900,1,0
224,288,42500,1,0
160,224,42900,1,0
256,224,43400,1,0
192,160,44700,1,0
288,160,45100,1,0
384,160,45600,1,0
288,256,46300,1,0
192,288,46900,1,0
384,288,47800,1,0
256,288,49000,5,0
128,224,49600,1,0
96,160,50100,1,0
256,96,51300,2,0,B|448:160|224:288|128:160|96:32|32:256|256:320|448:320|480:160,1,715
256,192,53400,5,0
416,192,54000,1,0
0,288,54600,2,0,B|512:288,3,455
256,192,57000,12,0,59400
256,224,60000,1,0
352,192,60800,1,0
224,160,61500,1,0
160,192,62200,1,0
96,160,62900,1,0
224,96,63400,1,0
320,128,63800,1,0
256,192,65700,12,0,68200
160,192,68700,1,0
288,192,69100,1,0
384,224,69500,1,0
384,320,70000,1,0
384,320,70300,1,0
256,192,71600,1,0
384,192,72200,1,0
384,192,72500,1,0
384,256,73100,1,0
256,256,74500,1,0
256,256,74800,1,0
256,192,91900,5,0
384,192,92700,1,0
320,288,93100,1,0
224,288,93400,1,0
160,288,94400,1,0
160,224,94900,1,0
160,224,95300,1,0
160,224,95600,1,0
288,224,96300,1,0
224,224,97000,1,0
352,224,97400,1,0
448,224,97900,1,0
416,320,98400,1,0
416,320,98700,1,0
64,64,99200,2,0,B|480:256|96:320,4,455
256,192,102900,1,0
256,192,103100,1,0
352,192,103600,1,0
416,192,104100,1,0
416,192,104400,1,0
416,192,105000,1,0
480,192,105300,1,0
352,320,105700,1,0
224,288,106100,1,0
224,288,106500,1,0
256,192,107100,1,0
256,192,107400,1,0
416,224,108000,1,0
320,288,108400,1,0
256,320,108800,1,0
256,320,109300,1,0
256,320,109600,1,0
256,192,126900,5,0
352,192,127600,1,0
288,256,128000,1,0
224,288,128400,1,0
160,288,129000,1,0
128,288,129300,1,0
256,192,129700,5,0
352,256,130200,1,0
384,256,130600,1,0
448,256,131100,1,0
256,192,131700,12,0,138000
192,192,138500,1,0
256,192,138900,1,0
352,224,139300,1,0
416,224,139900,1,0
416,224,140100,1,0
256,320,140700,1,0
192,320,141000,1,0
128,320,141500,1,0
96,320,142100,1,0
96,320,142300,1,0
256,192,143200,12,0,146800
