osu file format v12

[General]
AudioFilename: hina nige.mp3
AudioLeadIn: 0
PreviewTime: 165881
Countdown: 0
SampleSet: Soft
StackLeniency: 0.3
Mode: 0
LetterboxInBreaks: 1

[Editor]
DistanceSpacing: 1.5
BeatDivisor: 4
GridSize: 8

[Metadata]
Title:Hina Nige
TitleUnicode:雛逃げ
Artist:HannyaG
ArtistUnicode:はんにゃG
Creator:Blize
Version:Hard
Source:
Tags:Hatsune Miku & Megpoid Gumi
BeatmapID:261567
BeatmapSetID:97522

[Difficulty]
HPDrainRate:6
CircleSize:4
OverallDifficulty:5
ApproachRate:7
SliderMultiplier:1.7
SliderTickRate:1

[Events]
//Background and Video events
0,0,"hina nige.jpg",0,0
//Break Periods
2,77234,84596
2,92619,94788
//Storyboard Layer 0 (Background)
//Storyboard Layer 1 (Fail)
//Storyboard Layer 2 (Pass)
//Storyboard Layer 3 (Foreground)
//Storyboard Sound Samples
//Background Colour Transformations
3,100,163,162,255

[TimingPoints]
112,384.615384615385,4,2,1,100,1,0
61650,-133.333333333333,4,2,1,100,0,0
70881,-66.6666666666667,4,2,1,100,0,0
73862,-133.333333333333,4,2,1,100,0,0
73965,-133.333333333333,4,2,0,19,0,0
77035,-133.333333333333,4,2,0,70,0,0
84727,-100,4,2,1,70,0,0
127900,-133.333333333333,4,2,1,70,0,0

[Colours]
Combo1 : 192,244,172
Combo2 : 241,241,175
Combo3 : 131,223,231
Combo4 : 252,139,247

[HitObjects]
256,192,5881,1,0,0:0:0:0:
256,72,6265,6,0,P|184:112|144:200,1,170
72,144,7035,1,0,0:0:0:0:
144,192,7227,1,0,0:0:0:0:
72,248,7419,1,0,0:0:0:0:
144,304,7612,1,0,0:0:0:0:
256,312,7804,6,0,P|336:256|368:184,1,170
440,240,8574,1,0,0:0:0:0:
368,192,8766,1,0,0:0:0:0:
440,144,8958,1,0,0:0:0:0:
368,96,9150,1,0,0:0:0:0:
256,56,9342,5,0,0:0:0:0:
104,192,9727,1,0,0:0:0:0:
184,120,10112,2,0,L|112:64,1,85
184,120,10496,2,0,L|272:184,1,85
328,224,10881,5,0,0:0:0:0:
376,304,11265,1,0,0:0:0:0:
408,160,11650,2,0,P|432:128|424:64,1,85
352,80,12035,2,0,P|312:48|248:64,1,85
288,168,12419,6,0,P|208:120|112:136,1,170
136,128,13189,1,0,0:0:0:0:
168,208,13381,1,0,0:0:0:0:
208,288,13573,1,0,0:0:0:0:
248,368,13766,1,0,0:0:0:0:
248,368,13958,6,0,P|320:344|360:232,1,170
360,264,14728,1,0,0:0:0:0:
320,184,14920,1,0,0:0:0:0:
280,104,15112,1,0,0:0:0:0:
240,24,15305,1,0,0:0:0:0:
144,16,15496,6,0,P|56:64|8:144,1,170
16,200,16265,2,0,P|24:248|56:280,1,85
112,336,16650,2,0,P|168:352|208:336,1,85
280,312,17035,6,0,P|344:240|336:144,1,170
312,88,17804,1,0,0:0:0:0:
304,80,17900,1,0,0:0:0:0:
296,72,17996,1,0,0:0:0:0:
288,64,18092,1,0,0:0:0:0:
280,56,18188,2,0,P|352:16|448:16,1,170
448,120,18765,5,0,0:0:0:0:
432,240,18958,1,0,0:0:0:0:
336,168,19150,1,0,0:0:0:0:
320,288,19342,2,0,P|344:320|408:352,2,85
216,336,19919,5,0,0:0:0:0:
208,328,20015,1,0,0:0:0:0:
200,320,20112,2,0,P|136:296|112:312,1,85
64,352,20496,2,0,P|16:312|40:264,1,85
72,240,20881,2,0,P|112:216|176:224,2,85
56,48,21458,5,0,0:0:0:0:
56,48,21554,1,0,0:0:0:0:
56,48,21650,2,0,P|72:96|128:136,1,85
144,64,22035,2,0,P|176:96|192:160,1,85
136,192,22419,2,0,P|168:240|216:248,1,85
191,248,22708,1,0,0:0:0:0:
192,248,22804,1,0,0:0:0:0:
400,312,22996,5,0,0:0:0:0:
392,304,23092,1,0,0:0:0:0:
384,296,23188,2,0,P|336:312|264:304,1,85
280,240,23573,2,0,P|320:224|384:224,1,85
440,240,23957,2,0,P|448:184|416:136,1,85
432,152,24246,1,0,0:0:0:0:
424,144,24342,1,0,0:0:0:0:
352,64,24535,5,0,0:0:0:0:
344,72,24631,1,0,0:0:0:0:
336,80,24727,1,0,0:0:0:0:
256,192,24823,12,0,30496,0:0:0:0:
344,32,30881,6,0,P|392:64|400:120,1,85
296,104,31265,6,0,P|344:136|352:192,1,85
256,184,31650,6,0,P|304:216|312:272,1,85
216,264,32035,6,0,P|264:296|272:352,1,85
176,352,32419,5,0,0:0:0:0:
112,280,32612,1,0,0:0:0:0:
104,272,32708,1,0,0:0:0:0:
96,264,32804,1,0,0:0:0:0:
144,200,32996,5,0,0:0:0:0:
136,192,33092,1,0,0:0:0:0:
128,184,33188,1,0,0:0:0:0:
184,120,33381,5,0,0:0:0:0:
176,112,33477,1,0,0:0:0:0:
168,104,33573,1,0,0:0:0:0:
224,40,33765,5,0,0:0:0:0:
216,32,33862,1,0,0:0:0:0:
208,24,33958,2,0,P|296:32|368:104,1,170
424,48,34535,1,0,0:0:0:0:
280,120,34727,2,0,P|344:168|400:240,1,170
472,176,35304,1,0,0:0:0:0:
384,328,35496,5,0,0:0:0:0:
336,296,35688,1,0,0:0:0:0:
288,272,35881,1,0,0:0:0:0:
240,240,36073,1,0,0:0:0:0:
192,208,36265,1,0,0:0:0:0:
144,176,36458,1,0,0:0:0:0:
96,144,36650,1,0,0:0:0:0:
48,112,36842,1,0,0:0:0:0:
0,80,37035,1,0,0:0:0:0:
256,192,37131,12,0,39342,0:0:0:0:
256,128,39535,5,0,0:0:0:0:
192,192,39727,1,0,0:0:0:0:
256,256,39919,1,0,0:0:0:0:
320,192,40112,1,0,0:0:0:0:
256,192,40208,12,0,42419,0:0:0:0:
416,112,42612,5,0,0:0:0:0:
392,192,42804,1,0,0:0:0:0:
368,272,42996,1,0,0:0:0:0:
279,278,43188,6,0,L|231:278,4,42.5
256,192,43765,1,0,0:0:0:0:
170,215,43958,6,0,L|170:167,4,42.5
256,192,44535,1,0,0:0:0:0:
233,106,44727,6,0,L|281:106,4,42.5
256,192,45304,1,0,0:0:0:0:
342,169,45496,6,0,L|342:217,4,42.5
256,192,46073,1,0,0:0:0:0:
277,106,46265,6,0,L|229:106,4,42.5
256,192,46842,1,0,0:0:0:0:
170,171,47035,6,0,L|170:219,4,42.5
256,192,47612,1,0,0:0:0:0:
235,278,47804,6,0,L|283:278,4,42.5
256,192,48381,1,0,0:0:0:0:
342,213,48573,6,0,L|342:165,4,42.5
256,192,49150,1,0,0:0:0:0:
168,168,49342,2,0,P|72:160|8:80,1,170
112,80,49919,1,0,0:0:0:0:
64,0,50112,6,0,P|160:8|224:88,1,170
320,88,50689,1,0,0:0:0:0:
242,162,50881,2,0,P|289:247|388:273,1,170
346,178,51458,1,0,0:0:0:0:
438,189,51651,6,0,P|392:104|293:79,1,170
256,0,52228,1,0,0:0:0:0:
208,96,52419,2,0,P|128:150|113:252,1,170
203,200,52996,1,0,0:0:0:0:
201,293,53189,6,0,P|280:238|295:136,1,170
224,112,53765,1,0,0:0:0:0:
312,72,53958,2,0,P|387:12|489:27,1,170
412,97,54535,1,0,0:0:0:0:
502,123,54728,6,0,P|426:182|324:167,1,170
304,264,55305,1,0,0:0:0:0:
216,312,55496,1,0,0:0:0:0:
256,192,55592,12,0,60112,0:0:0:0:
256,192,60304,5,0,0:0:0:0:
256,192,60401,1,0,0:0:0:0:
256,192,60497,1,0,0:0:0:0:
168,144,60689,1,0,0:0:0:0:
264,88,60881,1,0,0:0:0:0:
328,320,61265,1,0,0:0:0:0:
96,48,61650,6,0,P|165:60|192:120,1,127.500004863739
192,107,62419,6,0,P|261:119|288:179,1,127.500004863739
287,164,63188,6,0,P|356:176|383:236,1,127.500004863739
385,222,63958,6,0,P|454:234|481:294,1,127.500004863739
481,279,64438,1,0,0:0:0:0:
481,280,64535,1,0,0:0:0:0:
392,352,64727,6,0,P|322:339|296:280,1,127.500004863739
296,293,65496,6,0,P|226:280|200:221,1,127.500004863739
201,236,66265,6,0,P|131:223|105:164,1,127.500004863739
104,176,67034,5,0,0:0:0:0:
40,120,67227,1,0,0:0:0:0:
32,112,67323,1,0,0:0:0:0:
24,104,67419,1,0,0:0:0:0:
121,67,67804,5,0,0:0:0:0:
122,55,67900,1,0,0:0:0:0:
130,45,67996,1,0,0:0:0:0:
140,37,68092,1,0,0:0:0:0:
152,32,68188,2,0,P|288:16|368:96,1,255.000009727478
372,102,69054,1,0,0:0:0:0:
375,112,69150,1,0,0:0:0:0:
376,120,69246,1,0,0:0:0:0:
377,129,69342,5,0,0:0:0:0:
376,139,69438,1,0,0:0:0:0:
375,149,69535,2,0,P|352:232|279:291,1,159.375006079674
295,286,70112,5,0,0:0:0:0:
287,291,70208,1,0,0:0:0:0:
279,294,70304,1,0,0:0:0:0:
200,296,70496,5,0,0:0:0:0:
191,294,70592,1,0,0:0:0:0:
183,289,70688,1,0,0:0:0:0:
256,192,70881,6,0,P|200:224|112:192,1,127.500004863739
256,192,71265,6,0,P|193:175|154:90,1,127.500004863739
256,192,71650,6,0,P|224:136|256:48,1,127.500004863739
256,192,72035,6,0,P|272:129|357:90,1,127.500004863739
256,192,72419,6,0,P|312:160|400:192,1,127.500004863739
256,192,72804,6,0,P|318:208|357:293,1,127.500004863739
256,192,73188,6,0,P|288:248|256:336,1,127.500004863739
256,192,73573,6,0,P|239:254|154:293,1,127.500004863739
248,192,73958,2,0,L|264:192,64,15.9375006079674,0|0|0|0|0|0|0|0|0|0|0|0|0|0|0|0|0|0|0|0|0|0|0|0|0|0|0|0|0|0|0|0|0|0|0|0|0|0|0|0|0|0|0|0|0|0|0|0|0|0|0|0|0|0|0|0|0|0|0|0|0|0|0|0|2,0:0|0:0|0:0|0:0|0:0|0:0|0:0|0:0|0:0|0:0|0:0|0:0|0:0|0:0|0:0|0:0|0:0|0:0|0:0|0:0|0:0|0:0|0:0|0:0|0:0|0:0|0:0|0:0|0:0|0:0|0:0|0:0|0:0|0:0|0:0|0:0|0:0|0:0|0:0|0:0|0:0|0:0|0:0|0:0|0:0|0:0|0:0|0:0|0:0|0:0|0:0|0:0|0:0|0:0|0:0|0:0|0:0|0:0|0:0|0:0|0:0|0:0|0:0|0:0|0:0,0:0:0:0:
264,296,85496,5,0,0:0:0:0:
256,304,85592,1,0,0:0:0:0:
248,312,85688,1,0,0:0:0:0:
240,320,85784,1,0,0:0:0:0:
232,328,85880,2,0,P|160:368|64:368,1,170
64,264,86457,5,0,0:0:0:0:
80,144,86650,1,0,0:0:0:0:
176,216,86842,1,0,0:0:0:0:
192,96,87034,2,0,P|168:64|104:32,2,85
296,48,87611,5,0,0:0:0:0:
304,56,87707,1,0,0:0:0:0:
312,64,87804,2,0,P|376:88|400:72,1,85
448,32,88188,2,0,P|496:72|472:120,1,85
440,144,88573,2,0,P|400:168|336:160,2,85
456,352,89150,5,0,0:0:0:0:
456,344,89246,1,0,0:0:0:0:
456,336,89342,2,0,P|440:288|384:248,1,85
368,320,89727,2,0,P|336:288|320:224,1,85
256,192,89823,12,0,95496,0:0:0:0:
376,192,90111,2,0,P|344:144|296:136,1,85
312,128,90400,1,0,0:0:0:0:
304,120,90496,1,0,0:0:0:0:
192,48,90688,5,0,0:0:0:0:
192,48,90785,1,0,0:0:0:0:
192,48,90880,2,0,P|240:32|312:40,1,85
152,128,91265,2,0,P|112:144|48:144,1,85
200,208,91649,2,0,P|192:264|224:312,1,85
208,296,91938,1,0,0:0:0:0:
216,304,92034,1,0,0:0:0:0:
312,248,92227,5,0,0:0:0:0:
320,240,92323,1,0,0:0:0:0:
328,232,92419,1,0,0:0:0:0:
168,112,95688,5,0,0:0:0:0:
256,152,95881,2,0,L|304:176,1,42.5
384,208,96265,2,0,P|416:144|408:104,1,85
448,248,96650,2,0,P|414:286|416:352,1,85
464,136,97035,5,0,0:0:0:0:
344,112,97227,1,0,0:0:0:0:
256,152,97420,2,0,L|208:176,1,42.5
138,178,97804,2,0,P|106:114|114:74,1,85
73,223,98189,2,0,P|106:261|105:327,1,85
168,352,98573,6,0,P|120:320|112:264,1,85
216,280,98957,6,0,P|168:248|160:192,1,85
256,200,99342,6,0,P|208:168|200:112,1,85
296,120,99727,6,0,P|248:88|240:32,1,85
336,32,100111,5,0,0:0:0:0:
400,104,100304,1,0,0:0:0:0:
408,112,100400,1,0,0:0:0:0:
416,120,100496,1,0,0:0:0:0:
368,184,100688,5,0,0:0:0:0:
376,192,100784,1,0,0:0:0:0:
384,200,100880,1,0,0:0:0:0:
328,264,101073,5,0,0:0:0:0:
336,272,101169,1,0,0:0:0:0:
344,280,101265,1,0,0:0:0:0:
288,344,101457,5,0,0:0:0:0:
296,352,101554,1,0,0:0:0:0:
304,360,101650,2,0,P|216:352|144:280,1,170
88,336,102227,1,0,0:0:0:0:
232,264,102419,2,0,P|168:216|112:144,1,170
40,208,102996,1,0,0:0:0:0:
128,56,103188,5,0,0:0:0:0:
176,88,103380,1,0,0:0:0:0:
224,112,103573,1,0,0:0:0:0:
272,144,103765,1,0,0:0:0:0:
320,176,103957,1,0,0:0:0:0:
368,208,104150,1,0,0:0:0:0:
416,240,104342,1,0,0:0:0:0:
464,272,104534,1,0,0:0:0:0:
512,304,104727,1,0,0:0:0:0:
256,192,104823,12,0,107034,0:0:0:0:
256,128,107227,5,0,0:0:0:0:
256,256,107419,1,0,0:0:0:0:
320,192,107611,1,0,0:0:0:0:
192,192,107804,1,0,0:0:0:0:
256,192,107900,12,0,110111,0:0:0:0:
96,272,110304,5,0,0:0:0:0:
120,192,110496,1,0,0:0:0:0:
144,112,110688,1,0,0:0:0:0:
170,215,110880,6,0,L|170:167,4,42.5
256,192,111457,1,0,0:0:0:0:
342,169,111650,6,0,L|342:217,4,42.5
256,192,112227,1,0,0:0:0:0:
128,174,112419,6,0,L|128:222,4,42.5
256,192,112996,1,0,0:0:0:0:
386,215,113188,6,0,L|386:167,4,42.5
256,192,113765,1,0,0:0:0:0:
85,216,113958,6,0,L|85:168,4,42.5
256,192,114535,1,0,0:0:0:0:
427,173,114728,6,0,L|427:221,4,42.5
256,192,115305,1,0,0:0:0:0:
44,175,115497,6,0,L|44:223,4,42.5
256,192,116074,1,0,0:0:0:0:
467,218,116266,6,0,L|467:170,4,42.5
256,192,116843,1,0,0:0:0:0:
64,64,117034,6,0,L|104:96,1,42.5
98,90,117227,2,0,L|137:120,1,42.5
133,115,117419,1,0,0:0:0:0:
186,154,117611,1,0,0:0:0:0:
80,192,117804,6,0,L|120:224,1,42.5
114,218,117997,2,0,L|153:248,1,42.5
149,243,118189,1,0,0:0:0:0:
202,282,118381,1,0,0:0:0:0:
286,118,118573,6,0,L|326:150,1,42.5
320,144,118766,2,0,L|359:174,1,42.5
355,169,118958,1,0,0:0:0:0:
408,208,119150,1,0,0:0:0:0:
304,0,119342,6,0,L|344:32,1,42.5
338,26,119535,2,0,L|377:56,1,42.5
373,51,119727,1,0,0:0:0:0:
426,90,119919,1,0,0:0:0:0:
448,320,120112,6,0,L|408:288,1,42.5
414,294,120305,2,0,L|375:264,1,42.5
379,269,120497,1,0,0:0:0:0:
326,230,120689,1,0,0:0:0:0:
432,192,120882,6,0,L|392:160,1,42.5
398,166,121075,2,0,L|359:136,1,42.5
363,141,121267,1,0,0:0:0:0:
310,102,121459,1,0,0:0:0:0:
226,266,121651,6,0,L|186:234,1,42.5
192,240,121844,2,0,L|153:210,1,42.5
157,215,122036,1,0,0:0:0:0:
104,176,122228,1,0,0:0:0:0:
208,384,122420,6,0,L|168:352,1,42.5
174,358,122613,2,0,L|135:328,1,42.5
139,333,122805,1,0,0:0:0:0:
86,294,122997,1,0,0:0:0:0:
32,256,123188,1,0,0:0:0:0:
256,192,123284,12,0,127804,0:0:0:0:
256,192,127996,5,0,0:0:0:0:
256,192,128093,1,0,0:0:0:0:
256,192,128189,1,0,0:0:0:0:
344,240,128381,1,0,0:0:0:0:
248,296,128573,1,0,0:0:0:0:
184,64,128957,1,0,0:0:0:0:
416,336,129342,6,0,P|347:324|320:264,1,127.500004863739
320,277,130111,6,0,P|251:265|224:205,1,127.500004863739
225,220,130880,6,0,P|156:208|129:148,1,127.500004863739
127,162,131650,6,0,P|58:150|31:90,1,127.500004863739
31,105,132130,1,0,0:0:0:0:
31,104,132227,1,0,0:0:0:0:
120,32,132419,6,0,P|190:45|216:104,1,127.500004863739
216,91,133188,6,0,P|286:104|312:163,1,127.500004863739
311,148,133957,6,0,P|381:161|407:220,1,127.500004863739
408,208,134726,5,0,0:0:0:0:
472,264,134919,1,0,0:0:0:0:
480,272,135015,1,0,0:0:0:0:
488,280,135111,1,0,0:0:0:0:
391,317,135496,5,0,0:0:0:0:
390,329,135592,1,0,0:0:0:0:
382,339,135688,1,0,0:0:0:0:
372,347,135784,1,0,0:0:0:0:
360,352,135880,2,0,P|224:368|144:288,1,255.000009727478
140,282,136746,1,0,0:0:0:0:
137,272,136842,1,0,0:0:0:0:
136,264,136938,1,0,0:0:0:0:
135,255,137034,5,0,0:0:0:0:
136,245,137130,1,0,0:0:0:0:
137,235,137227,2,0,P|160:152|233:93,1,159.375006079674
217,98,137804,5,0,0:0:0:0:
225,93,137900,1,0,0:0:0:0:
233,90,137996,1,0,0:0:0:0:
312,88,138188,5,0,0:0:0:0:
321,90,138284,1,0,0:0:0:0:
329,95,138380,1,0,0:0:0:0:
256,192,138573,6,0,P|312:160|400:192,1,127.500004863739
256,192,138957,6,0,P|318:208|357:293,1,127.500004863739
256,192,139342,6,0,P|288:248|256:336,1,127.500004863739
256,192,139727,6,0,P|239:254|154:293,1,127.500004863739
256,192,140111,6,0,P|200:224|112:192,1,127.500004863739
256,192,140496,6,0,P|193:175|154:90,1,127.500004863739
256,192,140880,6,0,P|224:136|256:48,1,127.500004863739
256,192,141265,6,0,P|272:129|357:90,1,127.500004863739
