osu file format v12

[General]
AudioFilename: hina nige.mp3
AudioLeadIn: 0
PreviewTime: 165881
Countdown: 0
SampleSet: Soft
StackLeniency: 0.3
Mode: 0
LetterboxInBreaks: 1
EpilepsyWarning: 1

[Editor]
DistanceSpacing: 2
BeatDivisor: 4
GridSize: 8

[Metadata]
Title:Hina Nige
TitleUnicode:雛逃げ
Artist:HannyaG
ArtistUnicode:はんにゃG
Creator:Blize
Version:Another
Source:
Tags:Hatsune Miku & Megpoid Gumi
BeatmapID:260690
BeatmapSetID:97522

[Difficulty]
HPDrainRate:6
CircleSize:4
OverallDifficulty:7
ApproachRate:9
SliderMultiplier:2.3
SliderTickRate:1

[Events]
//Background and Video events
0,0,"hina nige.jpg",0,0
//Break Periods
2,77235,85281
2,157235,165665
//Storyboard Layer 0 (Background)
//Storyboard Layer 1 (Fail)
//Storyboard Layer 2 (Pass)
//Storyboard Layer 3 (Foreground)
Sprite,Foreground,Centre,"white.jpg",320,240 F,0,5881,6073,0.1,0
Sprite,Foreground,Centre,"white.jpg",320,240 F,0,61265,61458,0.1,0
//Storyboard Sound Samples
//Background Colour Transformations
3,100,163,162,255

[TimingPoints]
112,384.615384615385,4,2,1,100,1,0
5592,-100,4,2,1,34,0,0
6073,-100,4,2,1,53,0,0
19342,-100,4,2,1,35,0,0
19919,-100,4,2,1,53,0,0
20881,-100,4,2,1,35,0,0
21458,-100,4,2,1,53,0,0
29823,-100,4,2,1,23,0,0
30785,-100,4,2,1,53,0,0
42323,-100,4,2,1,19,0,0
42996,-100,4,2,1,53,0,0
48958,-100,4,2,1,30,0,0
49246,-100,4,2,1,53,0,0
54342,-100,4,2,1,30,0,0
54823,-100,4,2,1,53,0,0
55304,-100,4,2,1,30,0,0
55400,-100,4,2,1,53,0,0
61169,-100,4,2,1,72,0,0
67612,-100,4,2,1,30,0,0
68188,-100,4,2,1,70,0,0
70881,-100,4,2,1,26,0,0
72419,-100,4,2,1,32,0,0
72804,-100,4,2,1,38,0,0
73188,-100,4,2,1,41,0,0
73573,-100,4,2,1,45,0,0
85881,-50,4,2,1,80,0,0
86462,-100,4,2,1,80,0,0
92419,-125,4,2,1,82,0,0
97612,-125,4,2,1,42,0,0
98573,-125,4,2,1,81,0,0
101362,-125,4,2,1,29,0,0
103573,-125,4,2,1,34,0,0
103958,-125,4,2,1,38,0,0
104342,-125,4,2,1,45,0,0
104727,-125,4,2,1,100,0,0
107419,-125,4,2,1,57,0,0
110112,-125,4,2,1,59,0,0
110208,-125,4,2,1,21,0,0
110785,-125,4,2,1,69,0,0
123188,-76.9230769230769,4,2,1,82,0,0
125881,-76.9230769230769,4,2,1,41,0,0
126265,-76.9230769230769,4,2,1,69,0,0
129342,-133.333333333333,4,2,1,42,0,0
134150,-133.333333333333,4,2,1,15,0,0
134823,-133.333333333333,4,2,1,65,0,0
138669,-133.333333333333,4,2,1,48,0,0
140112,-133.333333333333,4,2,1,21,0,0
140881,-133.333333333333,4,2,1,36,0,0
141650,-133.333333333333,4,2,1,82,0,0
165881,-133.333333333333,4,2,0,37,0,0
172227,-133.333333333333,4,2,1,82,0,0
178188,-50,4,2,1,100,0,1
178189,-50,4,2,1,100,0,1
178573,-50,4,2,1,64,0,1
178669,-133.333333333333,4,2,1,82,0,1
184054,-50,4,2,1,82,0,1
184823,-50,4,2,1,22,0,1
186265,-50,4,2,1,75,0,1
187419,-50,4,2,1,22,0,1
187804,-50,4,2,1,32,0,1
189342,-50,4,2,1,22,0,1
190112,-50,4,2,1,28,0,1
190496,-50,4,2,1,31,0,1
190881,-50,4,2,1,67,0,1
197227,-133.333333333333,4,2,1,19,0,1
197323,-133.333333333333,4,2,1,19,0,1
198573,-133.333333333333,4,2,1,72,0,1
199727,-133.333333333333,4,2,1,21,0,1
200112,-133.333333333333,4,2,1,19,0,1
201650,-133.333333333333,4,2,1,63,0,1
202419,-133.333333333333,4,2,1,100,0,1
203188,-200,4,2,1,82,0,1
205688,-100,4,2,1,34,0,0

[Colours]
Combo1 : 192,244,172
Combo2 : 241,241,175
Combo3 : 131,223,231
Combo4 : 252,139,247

[HitObjects]
256,192,5881,5,8,0:0:0:0:
32,32,6265,5,0,0:0:0:0:
80,80,6458,1,0,0:0:0:0:
88,88,6554,1,0,0:0:0:0:
96,96,6650,1,0,0:0:0:0:
104,104,6746,1,0,0:0:0:0:
112,112,6842,1,0,0:0:0:0:
64,184,7034,2,0,P|157:181|208:115,1,115,0|0,0:0|0:0,0:0:0:0:
190,63,7419,2,0,P|190:143|134:199,1,115
480,32,7804,5,0,0:0:0:0:
432,80,7997,1,0,0:0:0:0:
424,88,8093,1,0,0:0:0:0:
416,96,8189,1,0,0:0:0:0:
408,104,8285,1,0,0:0:0:0:
400,112,8381,1,0,0:0:0:0:
352,64,8573,1,0,0:0:0:0:
344,72,8669,1,0,0:0:0:0:
336,80,8765,1,0,0:0:0:0:
328,88,8862,1,0,0:0:0:0:
320,96,8958,1,0,0:0:0:0:
312,104,9054,1,0,0:0:0:0:
304,112,9150,1,0,0:0:0:0:
56,272,9342,5,0,0:0:0:0:
136,272,9535,1,0,0:0:0:0:
152,272,9631,1,0,0:0:0:0:
168,272,9727,1,0,0:0:0:0:
184,272,9823,1,0,0:0:0:0:
200,272,9919,1,0,0:0:0:0:
280,272,10112,2,0,P|344:232|400:272,1,115
344,304,10496,2,0,P|400:312|448:264,1,115
384,240,10881,5,0,0:0:0:0:
384,160,11074,1,0,0:0:0:0:
384,144,11170,1,0,0:0:0:0:
384,128,11266,1,0,0:0:0:0:
384,112,11362,1,0,0:0:0:0:
384,96,11458,1,0,0:0:0:0:
320,48,11650,1,0,0:0:0:0:
288,48,11746,1,0,0:0:0:0:
256,48,11842,1,0,0:0:0:0:
224,48,11939,1,0,0:0:0:0:
192,48,12035,1,0,0:0:0:0:
160,48,12131,1,0,0:0:0:0:
128,48,12227,1,0,0:0:0:0:
40,352,12419,5,2,0:0:0:0:
80,304,12612,1,0,0:0:0:0:
88,296,12708,1,0,0:0:0:0:
96,288,12804,1,2,0:0:0:0:
104,280,12900,1,0,0:0:0:0:
112,272,12996,1,0,0:0:0:0:
56,216,13188,2,0,P|157:213|176:232,1,115,2|0,0:0|0:0,0:0:0:0:
168,320,13572,2,0,P|174:230|154:212,1,115,2|0,0:0|0:0,0:0:0:0:
472,352,13958,5,2,0:0:0:0:
424,304,14151,1,0,0:0:0:0:
416,296,14247,1,0,0:0:0:0:
408,288,14343,1,2,0:0:0:0:
400,280,14439,1,0,0:0:0:0:
392,272,14535,1,0,0:0:0:0:
352,344,14727,1,2,0:0:0:0:
344,336,14823,1,0,0:0:0:0:
336,328,14919,1,0,0:0:0:0:
328,320,15016,1,0,0:0:0:0:
320,312,15112,1,2,0:0:0:0:
312,304,15208,1,0,0:0:0:0:
304,296,15304,1,0,0:0:0:0:
408,80,15496,5,2,0:0:0:0:
320,80,15689,1,0,0:0:0:0:
304,80,15785,1,0,0:0:0:0:
288,80,15881,1,2,0:0:0:0:
272,80,15977,1,0,0:0:0:0:
256,80,16073,1,0,0:0:0:0:
160,72,16265,2,0,P|80:72|56:120,1,115,2|0,0:0|0:0,0:0:0:0:
64,96,16650,2,0,P|128:104|168:56,1,115,2|0,0:0|0:0,0:0:0:0:
160,48,17035,5,2,0:0:0:0:
152,144,17228,1,0,0:0:0:0:
160,168,17324,1,0,0:0:0:0:
176,192,17419,1,2,0:0:0:0:
200,208,17516,1,0,0:0:0:0:
224,216,17612,1,0,0:0:0:0:
312,216,17804,1,2,0:0:0:0:
328,216,17900,1,2,0:0:0:0:
344,216,17996,1,2,0:0:0:0:
360,216,18093,1,2,0:0:0:0:
376,216,18188,2,2,B|384:176|392:216|392:216|400:256|408:216|408:216|416:176|424:216|424:216|432:256|440:216|440:216|496:216,1,230,0|2,0:0|0:0,0:0:0:0:
320,72,18669,5,0,0:0:0:0:
288,56,18765,1,0,0:0:0:0:
256,72,18862,1,0,0:0:0:0:
224,56,18958,1,2,0:0:0:0:
192,72,19054,1,0,0:0:0:0:
160,56,19150,1,0,0:0:0:0:
128,72,19246,1,0,0:0:0:0:
96,56,19342,1,10,0:0:0:0:
256,320,19535,1,8,0:0:0:0:
416,56,19727,1,8,0:0:0:0:
320,72,19919,5,0,0:0:0:0:
288,56,20015,1,0,0:0:0:0:
256,72,20112,1,2,0:0:0:0:
224,56,20208,1,0,0:0:0:0:
192,72,20304,1,0,0:0:0:0:
160,56,20400,1,0,0:0:0:0:
128,72,20496,1,2,0:0:0:0:
96,56,20592,1,0,0:0:0:0:
64,72,20688,1,0,0:0:0:0:
32,56,20785,1,0,0:0:0:0:
0,72,20881,1,10,0:0:0:0:
256,384,21073,1,8,0:0:0:0:
512,72,21265,1,10,0:0:0:0:
48,208,21458,5,0,0:0:0:0:
64,224,21554,1,0,0:0:0:0:
80,240,21650,2,0,B|104:208|120:264|144:176,3,57.5,2|0|0|0,0:0|0:0|0:0|0:0,0:0:0:0:
96,256,22035,2,0,B|64:248|72:312|48:312,3,57.5,2|0|0|0,0:0|0:0|0:0|0:0,0:0:0:0:
136,256,22419,1,2,0:0:0:0:
176,256,22515,1,2,0:0:0:0:
216,256,22612,1,2,0:0:0:0:
256,256,22708,1,2,0:0:0:0:
296,256,22804,1,2,0:0:0:0:
424,144,22996,5,0,0:0:0:0:
408,104,23092,1,0,0:0:0:0:
384,64,23188,1,2,0:0:0:0:
344,32,23285,1,0,0:0:0:0:
296,16,23381,1,0,0:0:0:0:
248,8,23477,1,0,0:0:0:0:
200,16,23573,1,2,0:0:0:0:
152,40,23669,1,0,0:0:0:0:
120,72,23765,1,0,0:0:0:0:
96,112,23862,1,0,0:0:0:0:
88,160,23958,1,2,0:0:0:0:
104,200,24054,1,0,0:0:0:0:
136,232,24150,1,0,0:0:0:0:
176,248,24246,1,0,0:0:0:0:
216,248,24342,1,2,0:0:0:0:
192,144,24535,5,2,0:0:0:0:
232,168,24631,1,2,0:0:0:0:
264,184,24727,2,0,B|336:179|410:161|471:124|471:124|443:65|346:89|293:127|270:138|262:184|262:184|185:191|102:213|60:253|60:253|78:293|197:284|244:238|263:185|263:185|248:115|262:81|226:26|207:1|207:1|153:54|175:145|233:177|265:185|265:185|270:261|280:348|330:374|330:374|400:294|250:171|250:171|262:186|262:186|264:185,1,1840,2|2,0:0|0:0,0:0:0:0:
440,80,30112,5,10,0:0:0:0:
336,16,30304,1,8,0:0:0:0:
272,128,30496,1,10,0:0:0:0:
376,192,30688,1,8,0:0:0:0:
344,248,30882,6,0,L|280:208,1,57.5,2|0,0:0|0:0,0:0:0:0:
240,184,31074,2,0,L|192:264,1,57.5
176,288,31266,2,0,L|256:336,1,57.5,2|0,0:0|0:0,0:0:0:0:
280,352,31458,2,0,L|320:288,1,57.5
344,248,31650,6,0,L|384:184,1,57.5,2|0,0:0|0:0,0:0:0:0:
408,144,31842,2,0,L|344:104,1,57.5
304,80,32035,2,0,L|256:160,1,57.5,2|0,0:0|0:0,0:0:0:0:
240,184,32227,2,0,L|320:232,1,57.5
128,128,32419,5,8,0:0:0:0:
96,240,32612,5,0,0:0:0:0:
128,256,32708,1,0,0:0:0:0:
160,240,32804,1,2,0:0:0:0:
112,112,32996,5,0,0:0:0:0:
120,120,33092,1,0,0:0:0:0:
128,128,33188,1,8,0:0:0:0:
240,96,33381,5,0,0:0:0:0:
256,128,33477,1,0,0:0:0:0:
240,160,33573,1,10,0:0:0:0:
112,112,33765,5,8,0:0:0:0:
120,120,33862,1,8,0:0:0:0:
128,128,33958,1,10,0:0:0:0:
448,56,34150,5,0,0:0:0:0:
352,344,34342,1,2,0:0:0:0:
312,0,34535,1,0,0:0:0:0:
304,16,34631,1,0,0:0:0:0:
312,32,34727,5,2,0:0:0:0:
304,48,34823,1,0,0:0:0:0:
296,64,34919,1,0,0:0:0:0:
288,80,35015,1,0,0:0:0:0:
312,96,35112,5,2,0:0:0:0:
304,112,35208,1,0,0:0:0:0:
296,128,35304,1,0,0:0:0:0:
288,144,35400,1,0,0:0:0:0:
312,160,35496,5,2,0:0:0:0:
304,176,35592,1,0,0:0:0:0:
296,192,35688,1,0,0:0:0:0:
288,208,35785,1,0,0:0:0:0:
312,224,35881,5,2,0:0:0:0:
304,240,35977,1,0,0:0:0:0:
296,256,36073,1,0,0:0:0:0:
288,272,36169,1,0,0:0:0:0:
312,288,36265,5,2,0:0:0:0:
304,304,36362,1,0,0:0:0:0:
296,320,36458,1,0,0:0:0:0:
288,336,36554,1,0,0:0:0:0:
280,352,36650,1,2,0:0:0:0:
264,352,36746,1,0,0:0:0:0:
248,352,36842,1,0,0:0:0:0:
232,352,36938,1,0,0:0:0:0:
216,352,37035,1,2,0:0:0:0:
256,192,37131,12,2,40112,0:0:0:0:
168,112,40304,5,0,0:0:0:0:
176,128,40400,1,0,0:0:0:0:
184,144,40496,1,2,0:0:0:0:
192,160,40592,1,0,0:0:0:0:
200,176,40688,1,0,0:0:0:0:
240,248,40881,2,0,P|168:256|120:208,1,115,2|0,0:0|0:0,0:0:0:0:
240,248,41265,2,0,P|280:208|280:144,1,115,2|0,0:0|0:0,0:0:0:0:
408,312,41650,5,2,0:0:0:0:
368,224,41842,1,0,0:0:0:0:
360,208,41938,1,0,0:0:0:0:
352,192,42035,1,2,0:0:0:0:
344,176,42131,1,0,0:0:0:0:
336,160,42227,1,0,0:0:0:0:
240,136,42419,1,10,0:0:0:0:
232,120,42515,1,8,0:0:0:0:
224,104,42612,1,8,0:0:0:0:
216,88,42708,1,8,0:0:0:0:
208,72,42804,1,10,0:0:0:0:
200,56,42900,1,8,0:0:0:0:
192,40,42996,1,8,0:0:0:0:
104,88,43188,5,0,0:0:0:0:
104,120,43285,1,2,0:0:0:0:
136,104,43381,1,2,0:0:0:0:
136,136,43477,1,2,0:0:0:0:
168,120,43573,1,2,0:0:0:0:
224,184,43765,6,0,L|168:152,1,57.5
168,120,43957,1,2,0:0:0:0:
136,136,44053,1,2,0:0:0:0:
136,104,44149,1,2,0:0:0:0:
104,120,44245,1,2,0:0:0:0:
104,88,44342,1,2,0:0:0:0:
56,224,44535,6,0,L|104:256,1,57.5,0|0,0:0|0:0,0:0:0:0:
136,240,44727,1,2,0:0:0:0:
136,272,44824,1,2,0:0:0:0:
168,256,44920,1,2,0:0:0:0:
168,288,45016,1,2,0:0:0:0:
200,272,45112,1,2,0:0:0:0:
256,336,45304,6,0,L|200:304,1,57.5
200,272,45496,1,2,0:0:0:0:
168,288,45592,1,2,0:0:0:0:
168,256,45688,1,2,0:0:0:0:
136,272,45784,1,2,0:0:0:0:
136,240,45881,1,2,0:0:0:0:
192,72,46073,6,0,L|240:104,1,57.5,0|0,0:0|0:0,0:0:0:0:
272,88,46265,1,2,0:0:0:0:
272,120,46362,1,2,0:0:0:0:
304,104,46458,1,2,0:0:0:0:
304,136,46554,1,2,0:0:0:0:
336,120,46650,1,2,0:0:0:0:
392,184,46842,6,0,L|336:152,1,57.5
336,120,47034,1,2,0:0:0:0:
304,136,47130,1,2,0:0:0:0:
304,104,47226,1,2,0:0:0:0:
272,120,47322,1,2,0:0:0:0:
272,88,47419,1,2,0:0:0:0:
240,232,47612,6,0,L|288:264,1,57.5,0|0,0:0|0:0,0:0:0:0:
320,248,47804,1,2,0:0:0:0:
320,280,47901,1,2,0:0:0:0:
352,264,47997,1,2,0:0:0:0:
352,296,48093,1,2,0:0:0:0:
384,280,48189,1,2,0:0:0:0:
440,344,48381,6,0,L|384:312,1,57.5
384,280,48573,1,2,0:0:0:0:
352,296,48669,1,2,0:0:0:0:
352,264,48765,1,2,0:0:0:0:
320,280,48861,1,2,0:0:0:0:
320,248,48958,1,10,0:0:0:0:
400,184,49150,1,8,0:0:0:0:
368,88,49342,6,2,L|424:40,1,57.5
320,128,49535,2,2,L|376:80,1,57.5
416,48,49727,1,2,0:0:0:0:
208,88,49919,6,0,L|264:40,1,57.5
160,128,50112,2,2,L|216:80,1,57.5
112,168,50304,2,2,L|168:120,1,57.5
256,48,50496,1,2,0:0:0:0:
408,200,50688,6,0,L|464:152,1,57.5
360,240,50881,2,2,L|416:192,1,57.5
312,280,51073,2,2,L|368:232,1,57.5
456,160,51265,1,2,0:0:0:0:
208,232,51458,6,0,L|264:184,1,57.5
160,272,51651,2,2,L|216:224,1,57.5
112,312,51843,2,2,L|168:264,1,57.5
256,192,52035,1,2,0:0:0:0:
256,32,52227,6,0,L|208:72,1,57.5
208,72,52419,2,2,L|160:112,1,57.5
160,112,52612,2,2,L|112:152,1,57.5
115,148,52804,1,2,0:0:0:0:
480,16,52996,6,0,L|432:56,1,57.5
432,56,53188,2,2,L|384:96,1,57.5
384,96,53381,2,2,L|336:136,1,57.5
339,132,53573,1,2,0:0:0:0:
496,184,53765,6,0,L|448:224,1,57.5
448,224,53957,2,2,L|400:264,1,57.5
400,264,54150,2,2,L|352:304,1,57.5
355,300,54342,1,10,0:0:0:0:
296,112,54535,5,8,0:0:0:0:
240,160,54727,1,2,0:0:0:0:
224,176,54823,1,2,0:0:0:0:
208,192,54919,1,2,0:0:0:0:
192,208,55015,1,2,0:0:0:0:
176,224,55112,1,2,0:0:0:0:
160,240,55208,1,0,0:0:0:0:
144,256,55304,1,8,0:0:0:0:
128,272,55400,1,0,0:0:0:0:
112,288,55496,2,2,B|8:168|8:168|155:211|155:211|64:80|64:80|239:131|239:131|168:16|168:16|299:53|299:53|368:168|368:168|239:131|239:131|336:288|336:288|185:231|185:231|240:352|240:352|92:269|92:269,1,1840,2|2,0:0|0:0,0:0:0:0:
88,280,58765,5,0,0:0:0:0:
80,296,58862,1,0,0:0:0:0:
72,312,58958,1,2,0:0:0:0:
64,328,59054,1,0,0:0:0:0:
56,344,59150,1,0,0:0:0:0:
138,181,59342,2,2,L|82:293,1,115,2|0,0:0|0:0,0:0:0:0:
189,76,59727,2,0,L|133:196,1,115,2|0,0:0|0:0,0:0:0:0:
256,192,60112,5,2,0:0:0:0:
256,120,60304,1,0,0:0:0:0:
256,112,60400,1,0,0:0:0:0:
256,104,60496,1,2,0:0:0:0:
256,96,60592,1,0,0:0:0:0:
256,88,60689,1,0,0:0:0:0:
256,24,60881,1,2,0:0:0:0:
256,344,61265,1,0,0:0:0:0:
256,32,61650,5,10,0:0:0:0:
408,64,61842,1,0,0:0:0:0:
400,80,61938,1,0,0:0:0:0:
392,96,62035,1,2,0:0:0:0:
384,112,62131,1,0,0:0:0:0:
376,128,62227,1,0,0:0:0:0:
368,144,62323,1,0,0:0:0:0:
360,160,62419,1,2,0:0:0:0:
352,176,62515,1,0,0:0:0:0:
344,192,62612,1,0,0:0:0:0:
336,208,62708,1,0,0:0:0:0:
328,224,62804,1,2,0:0:0:0:
320,240,62900,1,0,0:0:0:0:
312,256,62996,1,0,0:0:0:0:
304,272,63092,1,0,0:0:0:0:
256,352,63188,5,10,0:0:0:0:
208,272,63381,1,0,0:0:0:0:
200,256,63477,1,0,0:0:0:0:
192,240,63573,1,2,0:0:0:0:
184,224,63669,1,0,0:0:0:0:
176,208,63765,1,0,0:0:0:0:
168,192,63862,1,0,0:0:0:0:
160,176,63958,1,2,0:0:0:0:
152,160,64054,1,0,0:0:0:0:
144,144,64150,1,0,0:0:0:0:
136,128,64246,1,0,0:0:0:0:
128,112,64342,1,2,0:0:0:0:
120,96,64438,1,0,0:0:0:0:
112,80,64535,1,0,0:0:0:0:
256,56,64727,6,0,L|192:56,3,57.5,10|0|0|0,0:0|0:0|0:0|0:0,0:0:0:0:
256,96,65112,6,0,L|320:96,3,57.5,2|0|0|0,0:0|0:0|0:0|0:0,0:0:0:0:
256,128,65496,6,0,L|192:128,3,57.5,10|0|0|0,0:0|0:0|0:0|0:0,0:0:0:0:
256,168,65881,6,0,L|320:168,3,57.5,2|0|0|0,0:0|0:0|0:0|0:0,0:0:0:0:
256,200,66265,5,10,0:0:0:0:
256,208,66362,1,0,0:0:0:0:
256,216,66458,1,0,0:0:0:0:
256,224,66554,1,0,0:0:0:0:
256,232,66650,1,2,0:0:0:0:
256,240,66746,1,0,0:0:0:0:
256,248,66842,1,0,0:0:0:0:
256,256,66938,1,0,0:0:0:0:
256,264,67035,1,10,0:0:0:0:
256,272,67131,1,0,0:0:0:0:
256,280,67227,1,0,0:0:0:0:
256,288,67323,1,0,0:0:0:0:
256,296,67419,2,2,P|368:328|488:312,1,230,10|10,0:0|0:0,0:0:0:0:
480,200,67900,5,8,0:0:0:0:
480,192,67996,1,8,0:0:0:0:
480,184,68092,1,8,0:0:0:0:
480,176,68188,2,10,P|384:144|240:136,1,230,10|2,0:0|0:0,0:0:0:0:
232,144,68669,1,0,0:0:0:0:
216,136,68765,1,0,0:0:0:0:
200,144,68862,1,0,0:0:0:0:
184,136,68958,1,2,0:0:0:0:
168,144,69054,1,0,0:0:0:0:
152,136,69150,1,0,0:0:0:0:
64,144,69342,5,2,0:0:0:0:
48,136,69438,1,0,0:0:0:0:
32,144,69535,1,0,0:0:0:0:
64,272,69727,1,2,0:0:0:0:
120,296,69823,1,0,0:0:0:0:
176,312,69919,1,0,0:0:0:0:
240,320,70015,1,0,0:0:0:0:
304,312,70111,1,2,0:0:0:0:
360,288,70208,1,0,0:0:0:0:
416,264,70304,1,0,0:0:0:0:
144,40,70496,1,2,0:0:0:0:
152,48,70592,1,0,0:0:0:0:
160,56,70688,1,0,0:0:0:0:
448,168,70881,5,10,0:0:0:0:
400,80,71073,5,8,0:0:0:0:
312,136,71265,5,10,0:0:0:0:
264,48,71458,5,8,0:0:0:0:
176,104,71650,5,10,0:0:0:0:
120,16,71842,5,8,0:0:0:0:
32,64,72035,5,8,0:0:0:0:
32,72,72131,1,8,0:0:0:0:
32,80,72227,1,8,0:0:0:0:
32,88,72323,1,8,0:0:0:0:
32,96,72419,1,10,0:0:0:0:
32,104,72515,1,8,0:0:0:0:
32,112,72612,1,8,0:0:0:0:
32,120,72708,1,8,0:0:0:0:
32,128,72804,1,10,0:0:0:0:
32,136,72900,1,8,0:0:0:0:
32,144,72996,1,8,0:0:0:0:
32,152,73092,1,8,0:0:0:0:
32,160,73188,1,10,0:0:0:0:
32,168,73285,1,8,0:0:0:0:
32,176,73381,1,8,0:0:0:0:
32,184,73477,1,8,0:0:0:0:
32,192,73573,1,10,0:0:0:0:
32,200,73669,1,8,0:0:0:0:
32,208,73765,1,8,0:0:0:0:
32,216,73862,1,8,0:0:0:0:
32,224,73958,1,10,0:0:0:0:
256,192,74054,12,0,77035,0:0:0:0:
16,160,85881,6,0,B|24:120|27:160|27:160|32:200|36:160|36:160|40:120|46:160|46:160|48:200|57:160|57:160|56:120|67:160|67:160|72:200|78:161|78:161|80:120|88:160|88:160|96:200|96:160|96:160|232:160,1,460,2|2,0:0|0:0,0:0:0:0:
232,160,86362,1,0,0:0:0:0:
240,160,86458,1,0,0:0:0:0:
248,160,86554,1,0,0:0:0:0:
256,160,86650,1,2,0:0:0:0:
264,160,86746,1,0,0:0:0:0:
272,160,86842,1,0,0:0:0:0:
280,160,86938,1,0,0:0:0:0:
288,160,87035,1,2,0:0:0:0:
184,288,87227,1,2,0:0:0:0:
400,40,87419,1,2,0:0:0:0:
432,272,87612,5,0,0:0:0:0:
416,256,87708,1,0,0:0:0:0:
400,240,87804,1,2,0:0:0:0:
384,224,87900,1,0,0:0:0:0:
368,208,87996,1,0,0:0:0:0:
352,224,88092,1,0,0:0:0:0:
336,240,88188,1,2,0:0:0:0:
320,256,88285,1,0,0:0:0:0:
304,272,88381,1,0,0:0:0:0:
288,256,88477,1,0,0:0:0:0:
272,240,88573,1,2,0:0:0:0:
56,48,88765,1,2,0:0:0:0:
272,240,88958,1,2,0:0:0:0:
48,160,89150,5,0,0:0:0:0:
64,160,89246,1,0,0:0:0:0:
80,160,89342,2,0,L|128:104,1,57.5,2|0,0:0|0:0,0:0:0:0:
112,160,89535,2,0,L|152:200,1,57.5
144,160,89727,2,0,L|192:104,1,57.5,2|0,0:0|0:0,0:0:0:0:
176,160,89920,2,0,L|216:200,1,57.5
208,160,90112,1,2,0:0:0:0:
224,160,90208,1,2,0:0:0:0:
240,160,90304,1,2,0:0:0:0:
256,160,90400,1,2,0:0:0:0:
272,160,90496,1,2,0:0:0:0:
424,320,90688,5,0,0:0:0:0:
416,288,90785,1,0,0:0:0:0:
408,256,90881,1,2,0:0:0:0:
400,224,90977,1,0,0:0:0:0:
392,192,91073,1,0,0:0:0:0:
384,160,91169,1,0,0:0:0:0:
376,128,91265,1,2,0:0:0:0:
368,96,91362,1,0,0:0:0:0:
360,64,91458,1,0,0:0:0:0:
328,72,91554,1,0,0:0:0:0:
296,80,91650,1,2,0:0:0:0:
264,88,91746,1,0,0:0:0:0:
232,96,91842,1,0,0:0:0:0:
200,104,91938,1,0,0:0:0:0:
168,112,92035,1,2,0:0:0:0:
136,120,92131,1,0,0:0:0:0:
104,128,92227,1,0,0:0:0:0:
72,136,92323,1,0,0:0:0:0:
40,144,92419,6,2,L|48:208,1,46
104,208,92804,6,2,L|112:256,1,46
200,264,93188,5,0,0:0:0:0:
216,272,93285,1,0,0:0:0:0:
232,280,93381,1,0,0:0:0:0:
248,288,93477,1,0,0:0:0:0:
264,296,93573,1,0,0:0:0:0:
280,304,93669,1,0,0:0:0:0:
296,312,93765,1,0,0:0:0:0:
312,320,93862,1,0,0:0:0:0:
328,328,93958,6,2,L|376:328,1,46
424,256,94343,6,2,L|472:256,1,46
432,168,94727,5,0,0:0:0:0:
424,152,94824,1,0,0:0:0:0:
416,136,94920,1,0,0:0:0:0:
408,120,95016,1,0,0:0:0:0:
400,104,95112,1,0,0:0:0:0:
392,88,95208,1,0,0:0:0:0:
384,72,95304,1,0,0:0:0:0:
376,56,95401,1,0,0:0:0:0:
368,40,95496,6,2,L|312:40,1,46
304,112,95881,6,2,L|240:112,1,46
224,40,96265,5,0,0:0:0:0:
208,48,96362,1,0,0:0:0:0:
192,56,96458,1,0,0:0:0:0:
176,64,96554,1,0,0:0:0:0:
160,72,96650,1,0,0:0:0:0:
144,80,96746,1,0,0:0:0:0:
128,88,96842,1,0,0:0:0:0:
112,96,96939,1,0,0:0:0:0:
96,104,97035,6,2,L|136:136,1,46
288,136,97420,6,2,L|232:96,1,46
448,64,97804,5,0,0:0:0:0:
440,72,97900,1,0,0:0:0:0:
432,80,97996,1,0,0:0:0:0:
424,88,98092,1,0,0:0:0:0:
416,96,98188,1,0,0:0:0:0:
408,104,98285,1,0,0:0:0:0:
400,112,98381,1,0,0:0:0:0:
392,120,98477,1,0,0:0:0:0:
384,128,98573,6,0,L|336:176,1,46,2|0,0:0|0:0,0:0:0:0:
353,159,98765,2,0,L|313:191,1,46
318,188,98958,2,0,L|262:212,1,46,2|0,0:0|0:0,0:0:0:0:
276,206,99150,2,0,L|204:222,1,46
232,216,99342,2,0,L|176:208,1,46,2|0,0:0|0:0,0:0:0:0:
191,212,99535,2,0,L|144:186,1,46
153,191,99727,2,0,L|113:157,1,46,2|0,0:0|0:0,0:0:0:0:
119,161,99919,2,0,L|92:124,1,46
72,40,100112,5,8,0:0:0:0:
152,80,100304,5,2,0:0:0:0:
160,88,100400,1,2,0:0:0:0:
168,96,100496,1,2,0:0:0:0:
240,40,100688,5,2,0:0:0:0:
232,32,100785,1,2,0:0:0:0:
224,24,100881,1,10,0:0:0:0:
312,112,101073,5,2,0:0:0:0:
320,120,101169,1,2,0:0:0:0:
328,128,101265,1,10,0:0:0:0:
408,80,101458,5,8,0:0:0:0:
400,72,101554,1,8,0:0:0:0:
392,64,101650,1,8,0:0:0:0:
432,320,101842,5,8,0:0:0:0:
184,224,102035,5,8,0:0:0:0:
408,80,102227,5,8,0:0:0:0:
400,96,102323,1,8,0:0:0:0:
392,112,102419,1,10,0:0:0:0:
384,128,102515,1,8,0:0:0:0:
376,144,102612,1,8,0:0:0:0:
368,160,102708,1,8,0:0:0:0:
360,176,102804,1,10,0:0:0:0:
352,192,102900,1,8,0:0:0:0:
344,208,102996,1,8,0:0:0:0:
336,224,103092,1,8,0:0:0:0:
328,240,103188,5,10,0:0:0:0:
320,256,103285,1,8,0:0:0:0:
312,272,103381,1,8,0:0:0:0:
304,288,103477,1,8,0:0:0:0:
296,304,103573,1,10,0:0:0:0:
288,320,103669,1,8,0:0:0:0:
280,336,103765,1,8,0:0:0:0:
264,336,103862,1,8,0:0:0:0:
248,336,103958,1,10,0:0:0:0:
232,336,104054,1,8,0:0:0:0:
216,336,104150,1,8,0:0:0:0:
200,336,104246,1,8,0:0:0:0:
184,336,104342,1,10,0:0:0:0:
168,336,104438,1,8,0:0:0:0:
152,336,104535,1,8,0:0:0:0:
136,336,104631,1,8,0:0:0:0:
120,336,104727,1,2,0:0:0:0:
256,192,104823,12,2,107804,0:0:0:0:
255,1,107996,5,0,0:0:0:0:
263,17,108092,1,0,0:0:0:0:
271,33,108188,1,2,0:0:0:0:
279,49,108284,1,0,0:0:0:0:
287,65,108380,1,0,0:0:0:0:
296,152,108573,2,0,P|296:200|336:216,1,92,2|0,0:0|0:0,0:0:0:0:
352,120,108957,2,0,P|392:144|368:200,1,92,2|0,0:0|0:0,0:0:0:0:
400,272,109342,5,2,0:0:0:0:
312,344,109534,1,0,0:0:0:0:
296,344,109630,1,0,0:0:0:0:
280,344,109727,1,2,0:0:0:0:
264,344,109823,1,0,0:0:0:0:
248,344,109919,1,0,0:0:0:0:
176,296,110111,1,2,0:0:0:0:
176,280,110207,1,8,0:0:0:0:
176,264,110304,1,8,0:0:0:0:
176,248,110400,1,8,0:0:0:0:
176,232,110496,1,8,0:0:0:0:
176,216,110592,1,8,0:0:0:0:
176,200,110688,1,8,0:0:0:0:
184,112,110881,5,0,0:0:0:0:
160,112,110977,1,0,0:0:0:0:
152,88,111073,1,0,0:0:0:0:
168,72,111169,1,0,0:0:0:0:
192,88,111265,1,0,0:0:0:0:
256,192,111458,5,2,0:0:0:0:
336,112,111650,5,0,0:0:0:0:
360,112,111746,1,0,0:0:0:0:
368,88,111842,1,0,0:0:0:0:
352,72,111938,1,0,0:0:0:0:
328,88,112035,1,0,0:0:0:0:
256,192,112227,5,2,0:0:0:0:
184,264,112419,5,0,0:0:0:0:
160,264,112515,1,0,0:0:0:0:
144,288,112611,1,0,0:0:0:0:
168,312,112707,1,0,0:0:0:0:
192,296,112803,1,0,0:0:0:0:
256,192,112996,5,2,0:0:0:0:
328,264,113188,5,0,0:0:0:0:
352,264,113284,1,0,0:0:0:0:
368,296,113380,1,0,0:0:0:0:
344,312,113476,1,0,0:0:0:0:
320,296,113573,1,0,0:0:0:0:
256,192,113765,5,2,0:0:0:0:
96,88,113958,5,0,0:0:0:0:
72,88,114054,1,0,0:0:0:0:
64,64,114150,1,0,0:0:0:0:
80,48,114246,1,0,0:0:0:0:
104,64,114342,1,0,0:0:0:0:
256,192,114535,5,2,0:0:0:0:
416,88,114727,5,0,0:0:0:0:
440,88,114823,1,0,0:0:0:0:
448,64,114919,1,0,0:0:0:0:
432,48,115015,1,0,0:0:0:0:
408,64,115112,1,0,0:0:0:0:
256,192,115304,5,2,0:0:0:0:
104,312,115496,5,0,0:0:0:0:
80,312,115592,1,0,0:0:0:0:
64,336,115688,1,0,0:0:0:0:
88,360,115784,1,0,0:0:0:0:
112,344,115880,1,0,0:0:0:0:
256,192,116073,5,2,0:0:0:0:
408,312,116265,5,0,0:0:0:0:
432,312,116361,1,0,0:0:0:0:
448,344,116457,1,0,0:0:0:0:
424,360,116553,1,0,0:0:0:0:
400,344,116650,1,2,0:0:0:0:
256,192,116842,5,2,0:0:0:0:
432,120,117035,5,0,0:0:0:0:
411,116,117131,1,0,0:0:0:0:
396,107,117227,1,0,0:0:0:0:
385,92,117323,1,0,0:0:0:0:
380,75,117419,1,0,0:0:0:0:
464,32,117612,5,2,0:0:0:0:
432,168,117804,5,0,0:0:0:0:
394,160,117900,1,0,0:0:0:0:
363,140,117996,1,0,0:0:0:0:
343,110,118092,1,0,0:0:0:0:
333,75,118188,1,0,0:0:0:0:
464,32,118381,5,2,0:0:0:0:
432,216,118573,5,0,0:0:0:0:
373,208,118669,1,0,0:0:0:0:
321,178,118765,1,0,0:0:0:0:
291,133,118862,1,0,0:0:0:0:
281,75,118958,1,0,0:0:0:0:
464,32,119150,5,2,0:0:0:0:
432,264,119342,5,0,0:0:0:0:
352,257,119438,1,0,0:0:0:0:
281,219,119535,1,0,0:0:0:0:
239,152,119631,1,0,0:0:0:0:
230,76,119727,1,0,0:0:0:0:
464,32,119919,5,2,0:0:0:0:
230,76,120112,5,0,0:0:0:0:
239,152,120208,1,0,0:0:0:0:
281,219,120304,1,0,0:0:0:0:
352,257,120400,1,0,0:0:0:0:
432,264,120496,1,0,0:0:0:0:
464,32,120689,5,2,0:0:0:0:
281,75,120881,5,0,0:0:0:0:
291,133,120977,1,0,0:0:0:0:
321,178,121073,1,0,0:0:0:0:
373,208,121169,1,0,0:0:0:0:
432,216,121265,1,0,0:0:0:0:
464,32,121458,5,2,0:0:0:0:
333,75,121650,5,0,0:0:0:0:
343,110,121746,1,0,0:0:0:0:
363,140,121842,1,0,0:0:0:0:
394,160,121938,1,0,0:0:0:0:
432,168,122035,1,0,0:0:0:0:
464,32,122227,5,2,0:0:0:0:
380,75,122419,5,0,0:0:0:0:
385,92,122515,1,0,0:0:0:0:
396,107,122612,1,0,0:0:0:0:
411,116,122708,1,0,0:0:0:0:
432,120,122804,1,0,0:0:0:0:
464,32,122996,5,2,0:0:0:0:
464,32,123188,6,0,B|8:176|8:176|418:128|418:128|32:264|32:264|536:208,1,1793.9999178772,2|0,0:0|0:0,0:0:0:0:
504,216,125592,5,0,0:0:0:0:
488,224,125688,1,0,0:0:0:0:
472,232,125785,1,0,0:0:0:0:
456,240,125881,1,0,0:0:0:0:
440,248,125977,1,0,0:0:0:0:
424,256,126073,1,0,0:0:0:0:
408,264,126169,1,0,0:0:0:0:
352,288,126265,5,2,0:0:0:0:
312,208,126457,1,0,0:0:0:0:
320,184,126554,1,0,0:0:0:0:
328,160,126650,1,2,0:0:0:0:
336,136,126746,1,0,0:0:0:0:
344,112,126842,1,0,0:0:0:0:
240,144,127034,2,0,B|276:77|276:77|360:120,1,149.499993156433,2|0,0:0|0:0,0:0:0:0:
138,177,127419,2,0,B|174:110|174:110|258:153,1,149.499993156433,2|0,0:0|0:0,0:0:0:0:
72,264,127804,5,2,0:0:0:0:
168,288,127996,1,0,0:0:0:0:
208,304,128092,1,0,0:0:0:0:
256,312,128188,1,2,0:0:0:0:
304,304,128284,1,0,0:0:0:0:
352,288,128381,1,0,0:0:0:0:
440,256,128574,1,2,0:0:0:0:
64,176,128958,1,0,0:0:0:0:
432,88,129342,5,8,0:0:0:0:
429,104,129438,1,0,0:0:0:0:
425,119,129535,1,0,0:0:0:0:
417,131,129631,1,0,0:0:0:0:
409,143,129727,2,0,L|382:176,3,43.1250016450883,8|0|0|0,0:0|0:0|0:0|0:0,0:0:0:0:
369,184,130112,5,8,0:0:0:0:
356,192,130208,1,0,0:0:0:0:
346,206,130305,1,0,0:0:0:0:
342,220,130401,1,0,0:0:0:0:
338,235,130497,2,0,L|301:260,3,43.1250016450883,8|0|0|0,0:0|0:0|0:0|0:0,0:0:0:0:
285,259,130881,5,8,0:0:0:0:
271,253,130977,1,0,0:0:0:0:
259,243,131074,1,0,0:0:0:0:
249,232,131170,1,0,0:0:0:0:
243,216,131266,2,0,L|243:171,3,43.1250016450883,8|0|0|0,0:0|0:0|0:0|0:0,0:0:0:0:
252,157,131650,5,8,0:0:0:0:
269,148,131746,1,0,0:0:0:0:
283,139,131842,1,0,0:0:0:0:
291,126,131938,1,0,0:0:0:0:
299,112,132035,1,8,0:0:0:0:
299,96,132131,1,8,0:0:0:0:
287,84,132227,1,8,0:0:0:0:
56,0,132419,5,8,0:0:0:0:
64,16,132515,1,0,0:0:0:0:
72,32,132612,1,0,0:0:0:0:
80,48,132708,1,0,0:0:0:0:
88,64,132804,2,0,L|107:106,3,43.1250016450883,8|0|0|0,0:0|0:0|0:0|0:0,0:0:0:0:
112,120,133188,5,8,0:0:0:0:
120,136,133285,1,0,0:0:0:0:
128,152,133381,1,0,0:0:0:0:
136,168,133477,1,0,0:0:0:0:
144,184,133573,1,8,0:0:0:0:
152,200,133669,1,0,0:0:0:0:
160,216,133765,1,0,0:0:0:0:
168,232,133862,1,0,0:0:0:0:
176,248,133958,1,8,0:0:0:0:
184,264,134054,1,0,0:0:0:0:
192,280,134150,1,8,0:0:0:0:
200,296,134246,1,8,0:0:0:0:
208,312,134342,1,8,0:0:0:0:
216,328,134438,1,8,0:0:0:0:
224,344,134535,1,8,0:0:0:0:
232,360,134631,1,8,0:0:0:0:
240,376,134727,1,8,0:0:0:0:
440,360,134919,5,2,0:0:0:0:
440,352,135015,1,2,0:0:0:0:
440,344,135112,2,2,L|256:280,1,172.500006580353,2|8,0:0|0:0,0:0:0:0:
280,264,135688,5,0,0:0:0:0:
280,256,135784,1,0,0:0:0:0:
280,248,135881,2,0,L|443:183,1,172.500006580353,2|2,0:0|0:0,0:0:0:0:
440,168,136458,5,2,0:0:0:0:
440,160,136554,1,2,0:0:0:0:
440,152,136651,2,0,L|256:88,1,172.500006580353,2|2,0:0|0:0,0:0:0:0:
280,72,137227,5,2,0:0:0:0:
280,64,137323,1,2,0:0:0:0:
280,56,137420,2,0,L|448:0,1,172.500006580353,2|2,0:0|0:0,0:0:0:0:
280,56,137996,5,2,0:0:0:0:
280,64,138092,1,2,0:0:0:0:
280,72,138189,2,0,L|105:138,1,172.500006580353,0|8,0:0|0:0,0:0:0:0:
144,88,138765,5,2,0:0:0:0:
88,192,138958,1,2,0:0:0:0:
144,304,139150,1,2,0:0:0:0:
256,344,139342,1,2,0:0:0:0:
368,304,139535,1,2,0:0:0:0:
432,192,139727,1,2,0:0:0:0:
368,88,139919,1,2,0:0:0:0:
256,40,140112,1,8,0:0:0:0:
256,48,140208,1,8,0:0:0:0:
256,56,140304,1,8,0:0:0:0:
256,64,140400,1,8,0:0:0:0:
256,72,140496,1,8,0:0:0:0:
256,80,140592,1,8,0:0:0:0:
256,88,140688,1,8,0:0:0:0:
256,96,140785,1,8,0:0:0:0:
256,104,140881,1,8,0:0:0:0:
256,112,140977,1,8,0:0:0:0:
256,120,141073,1,8,0:0:0:0:
256,128,141169,1,8,0:0:0:0:
256,136,141265,1,8,0:0:0:0:
256,144,141362,1,8,0:0:0:0:
256,152,141458,1,8,0:0:0:0:
256,160,141554,1,2,0:0:0:0:
256,168,141650,5,2,0:0:0:0:
256,176,141746,1,0,0:0:0:0:
256,184,141843,1,0,0:0:0:0:
256,192,141939,1,0,0:0:0:0:
256,200,142035,1,2,0:0:0:0:
256,208,142131,1,0,0:0:0:0:
256,216,142227,1,0,0:0:0:0:
256,224,142323,1,0,0:0:0:0:
256,232,142420,5,2,0:0:0:0:
256,240,142516,1,0,0:0:0:0:
256,248,142613,1,0,0:0:0:0:
256,256,142709,1,0,0:0:0:0:
256,264,142804,1,2,0:0:0:0:
256,272,142900,1,0,0:0:0:0:
256,280,142996,1,0,0:0:0:0:
256,288,143092,1,0,0:0:0:0:
256,296,143189,5,2,0:0:0:0:
256,304,143285,1,0,0:0:0:0:
256,312,143382,1,0,0:0:0:0:
256,320,143478,1,0,0:0:0:0:
256,336,143574,2,0,L|256:400,3,43.1250016450883,2|0|0|0,0:0|0:0|0:0|0:0,0:0:0:0:
296,352,143958,2,0,L|240:384,1,43.1250016450883,2|0,0:0|0:0,0:0:0:0:
334,330,144150,2,0,L|278:362,1,43.1250016450883
371,309,144342,2,2,L|315:341,1,43.1250016450883,2|0,0:0|0:0,0:0:0:0:
403,289,144535,1,2,0:0:0:0:
448,112,144727,5,2,0:0:0:0:
424,136,144823,1,0,0:0:0:0:
400,112,144920,1,0,0:0:0:0:
384,136,145016,1,0,0:0:0:0:
360,112,145112,2,2,L|332:144,3,43.1250016450883,2|0|0|0,0:0|0:0|0:0|0:0,0:0:0:0:
310,180,145496,5,2,0:0:0:0:
286,204,145592,1,0,0:0:0:0:
262,180,145689,1,0,0:0:0:0:
246,204,145785,1,0,0:0:0:0:
222,180,145881,2,0,L|194:212,3,43.1250016450883,2|0|0|0,0:0|0:0|0:0|0:0,0:0:0:0:
176,232,146265,5,2,0:0:0:0:
168,240,146362,1,0,0:0:0:0:
160,248,146458,1,0,0:0:0:0:
152,256,146554,1,0,0:0:0:0:
144,264,146650,1,2,0:0:0:0:
136,272,146746,1,0,0:0:0:0:
128,280,146843,1,0,0:0:0:0:
120,288,146939,1,0,0:0:0:0:
112,296,147035,1,2,0:0:0:0:
56,168,147227,5,2,0:0:0:0:
64,160,147323,1,2,0:0:0:0:
72,152,147419,2,0,P|128:112|232:104,1,172.500006580353,2|2,0:0|0:0,0:0:0:0:
368,264,147996,5,0,0:0:0:0:
432,24,148188,1,2,0:0:0:0:
424,32,148285,1,0,0:0:0:0:
416,40,148381,1,0,0:0:0:0:
368,264,148573,5,2,0:0:0:0:
360,256,148669,1,0,0:0:0:0:
352,248,148765,1,0,0:0:0:0:
344,240,148862,1,0,0:0:0:0:
336,232,148958,1,2,0:0:0:0:
328,224,149054,1,0,0:0:0:0:
320,216,149150,1,0,0:0:0:0:
272,48,149342,1,2,0:0:0:0:
264,56,149439,1,2,0:0:0:0:
256,64,149535,1,2,0:0:0:0:
176,232,149727,5,2,0:0:0:0:
168,224,149823,1,0,0:0:0:0:
160,216,149919,1,0,0:0:0:0:
152,208,150016,1,0,0:0:0:0:
144,200,150112,1,2,0:0:0:0:
136,192,150208,1,0,0:0:0:0:
128,184,150304,1,0,0:0:0:0:
120,80,150496,1,2,0:0:0:0:
112,88,150592,1,2,0:0:0:0:
104,96,150689,1,2,0:0:0:0:
416,128,150881,5,0,0:0:0:0:
80,256,151073,1,0,0:0:0:0:
320,32,151266,1,0,0:0:0:0:
184,344,151458,1,0,0:0:0:0:
80,136,151650,1,0,0:0:0:0:
416,256,151843,1,0,0:0:0:0:
320,344,152035,1,0,0:0:0:0:
192,32,152227,1,0,0:0:0:0:
256,192,152420,5,2,0:0:0:0:
266,165,152516,1,0,0:0:0:0:
295,151,152612,1,0,0:0:0:0:
322,171,152708,1,0,0:0:0:0:
332,192,152804,1,2,0:0:0:0:
331,217,152900,1,0,0:0:0:0:
315,244,152996,1,0,0:0:0:0:
288,264,153093,1,0,0:0:0:0:
260,276,153189,1,2,0:0:0:0:
226,271,153285,1,0,0:0:0:0:
192,251,153381,1,0,0:0:0:0:
170,214,153477,1,0,0:0:0:0:
166,167,153573,1,2,0:0:0:0:
190,125,153670,1,0,0:0:0:0:
223,100,153766,1,0,0:0:0:0:
259,95,153862,1,0,0:0:0:0:
312,104,153958,1,2,0:0:0:0:
256,192,154054,12,2,157035,0:0:0:0:
256,48,166265,5,0,0:0:0:0:
256,192,166650,1,0,0:0:0:0:
256,336,167035,1,0,0:0:0:0:
256,192,167419,1,0,0:0:0:0:
368,88,167804,5,0,0:0:0:0:
256,192,168189,1,0,0:0:0:0:
144,296,168574,1,0,0:0:0:0:
256,192,168958,1,0,0:0:0:0:
416,192,169342,5,0,0:0:0:0:
256,192,169727,1,0,0:0:0:0:
96,192,170112,1,0,0:0:0:0:
256,192,170496,1,0,0:0:0:0:
368,296,170881,5,0,0:0:0:0:
256,192,171266,1,0,0:0:0:0:
144,88,171651,1,0,0:0:0:0:
256,192,172035,1,0,0:0:0:0:
256,336,172419,5,0,0:0:0:0:
256,192,172804,1,0,0:0:0:0:
256,48,173188,1,0,0:0:0:0:
256,192,173573,1,0,0:0:0:0:
144,296,173958,5,0,0:0:0:0:
256,192,174343,1,0,0:0:0:0:
368,88,174728,1,0,0:0:0:0:
256,192,175112,1,0,0:0:0:0:
96,192,175496,5,0,0:0:0:0:
256,192,175881,1,0,0:0:0:0:
416,192,176266,1,0,0:0:0:0:
256,192,176650,1,0,0:0:0:0:
144,88,177035,5,0,0:0:0:0:
256,192,177419,1,0,0:0:0:0:
368,296,177805,1,0,0:0:0:0:
256,88,178188,2,2,B|184:112|184:112|152:192|152:192|184:272|184:272|256:296|256:296|328:272|328:272|368:192,1,460,2|2,0:0|0:0,0:0:0:0:
184,48,178765,5,0,0:0:0:0:
176,64,178862,1,0,0:0:0:0:
168,80,178958,1,2,0:0:0:0:
160,96,179054,1,0,0:0:0:0:
152,112,179150,1,0,0:0:0:0:
144,128,179246,1,0,0:0:0:0:
136,144,179342,1,2,0:0:0:0:
128,160,179438,1,0,0:0:0:0:
120,176,179535,1,0,0:0:0:0:
112,192,179631,1,0,0:0:0:0:
104,208,179727,1,2,0:0:0:0:
96,224,179823,1,0,0:0:0:0:
88,240,179919,2,0,L|69:284,1,43.1250016450883
160,312,180112,5,2,0:0:0:0:
256,304,180304,5,0,0:0:0:0:
264,288,180400,1,0,0:0:0:0:
272,272,180496,1,2,0:0:0:0:
280,256,180592,1,0,0:0:0:0:
288,240,180688,1,0,0:0:0:0:
296,224,180785,1,0,0:0:0:0:
304,208,180881,1,2,0:0:0:0:
312,192,180977,1,0,0:0:0:0:
320,176,181073,1,0,0:0:0:0:
328,160,181169,1,0,0:0:0:0:
336,144,181265,1,2,0:0:0:0:
344,128,181362,1,2,0:0:0:0:
352,112,181458,1,2,0:0:0:0:
280,48,181650,5,2,0:0:0:0:
272,64,181747,1,0,0:0:0:0:
264,80,181843,1,0,0:0:0:0:
256,96,181939,1,0,0:0:0:0:
248,112,182035,1,2,0:0:0:0:
240,128,182131,1,0,0:0:0:0:
232,144,182227,1,0,0:0:0:0:
224,160,182323,1,0,0:0:0:0:
216,176,182420,1,2,0:0:0:0:
208,192,182515,1,0,0:0:0:0:
200,208,182612,1,0,0:0:0:0:
192,224,182708,1,0,0:0:0:0:
184,240,182804,2,0,L|165:284,1,43.1250016450883,2|0,0:0|0:0,0:0:0:0:
112,376,183092,5,0,0:0:0:0:
120,360,183188,1,2,0:0:0:0:
128,344,183284,1,0,0:0:0:0:
136,328,183380,1,0,0:0:0:0:
144,312,183476,1,0,0:0:0:0:
152,296,183573,1,2,0:0:0:0:
160,280,183669,1,0,0:0:0:0:
168,272,183765,1,0,0:0:0:0:
176,256,183862,1,0,0:0:0:0:
184,240,183958,1,2,0:0:0:0:
224,152,184150,1,2,0:0:0:0:
232,136,184246,1,2,0:0:0:0:
240,120,184342,2,2,P|344:256|256:224,1,460,2|8,0:0|0:0,0:0:0:0:
272,240,184823,5,8,0:0:0:0:
256,232,184919,1,8,0:0:0:0:
240,224,185015,1,8,0:0:0:0:
224,216,185112,1,8,0:0:0:0:
208,208,185208,1,8,0:0:0:0:
192,200,185304,1,8,0:0:0:0:
176,192,185400,1,8,0:0:0:0:
200,304,185592,1,8,0:0:0:0:
184,296,185688,1,8,0:0:0:0:
168,288,185785,1,8,0:0:0:0:
152,280,185881,1,8,0:0:0:0:
136,272,185977,1,8,0:0:0:0:
120,264,186073,1,8,0:0:0:0:
104,256,186169,1,8,0:0:0:0:
88,248,186265,5,2,0:0:0:0:
72,240,186362,1,2,0:0:0:0:
56,232,186458,1,2,0:0:0:0:
96,64,186650,5,0,0:0:0:0:
152,40,186746,1,0,0:0:0:0:
208,24,186842,1,0,0:0:0:0:
264,16,186938,1,0,0:0:0:0:
312,24,187035,1,0,0:0:0:0:
368,48,187131,1,0,0:0:0:0:
424,80,187227,1,0,0:0:0:0:
424,272,187419,5,8,0:0:0:0:
416,280,187515,1,8,0:0:0:0:
408,288,187612,1,8,0:0:0:0:
257,353,187804,5,8,0:0:0:0:
226,267,187996,1,8,0:0:0:0:
312,226,188188,1,8,0:0:0:0:
198,178,188381,1,8,0:0:0:0:
346,136,188573,1,8,0:0:0:0:
172,86,188765,1,8,0:0:0:0:
388,46,188958,1,8,0:0:0:0:
143,2,189150,1,8,0:0:0:0:
257,353,189342,5,8,0:0:0:0:
256,344,189438,1,8,0:0:0:0:
256,336,189535,1,8,0:0:0:0:
256,328,189631,1,8,0:0:0:0:
256,320,189727,5,8,0:0:0:0:
255,311,189823,1,8,0:0:0:0:
255,303,189920,1,8,0:0:0:0:
255,295,190016,1,8,0:0:0:0:
256,288,190112,5,8,0:0:0:0:
255,279,190208,1,8,0:0:0:0:
255,271,190305,1,8,0:0:0:0:
255,263,190401,1,8,0:0:0:0:
255,255,190497,5,8,0:0:0:0:
254,246,190593,1,8,0:0:0:0:
254,238,190688,1,8,0:0:0:0:
254,230,190786,1,8,0:0:0:0:
256,224,190881,5,2,0:0:0:0:
255,215,190977,1,0,0:0:0:0:
255,207,191074,1,0,0:0:0:0:
255,199,191170,1,0,0:0:0:0:
255,191,191266,5,2,0:0:0:0:
254,182,191362,1,0,0:0:0:0:
254,174,191459,1,0,0:0:0:0:
254,166,191555,1,0,0:0:0:0:
255,159,191651,5,2,0:0:0:0:
254,150,191747,1,0,0:0:0:0:
254,142,191842,1,0,0:0:0:0:
254,134,191938,1,0,0:0:0:0:
254,126,192036,5,2,0:0:0:0:
253,117,192132,1,0,0:0:0:0:
253,109,192227,1,0,0:0:0:0:
253,101,192323,1,0,0:0:0:0:
256,96,192419,2,0,P|208:48|128:56,1,115,2|0,0:0|0:0,0:0:0:0:
147,49,192612,2,0,P|89:113|115:193,1,115
88,152,192804,2,0,P|120:228|155:256,1,115,2|0,0:0|0:0,0:0:0:0:
154,256,192996,2,0,P|213:286|276:309,1,115
259,304,193188,2,0,P|334:266|395:220,1,115,2|0,0:0|0:0,0:0:0:0:
369,237,193381,2,0,P|416:168|377:53,1,115
424,120,193573,2,0,P|368:56|320:40,1,115,2|0,0:0|0:0,0:0:0:0:
253,96,193765,1,0,0:0:0:0:
184,328,193958,6,0,L|320:328,1,115,2|0,0:0|0:0,0:0:0:0:
328,304,194150,2,0,L|200:304,1,115
184,280,194342,6,0,L|320:280,1,115,2|0,0:0|0:0,0:0:0:0:
328,256,194534,2,0,L|200:256,1,115
184,232,194727,6,0,L|320:232,1,115,2|0,0:0|0:0,0:0:0:0:
328,208,194919,2,0,L|200:208,1,115
184,184,195111,6,0,L|320:184,1,115,2|0,0:0|0:0,0:0:0:0:
328,160,195303,2,0,L|200:160,1,115
184,136,195496,5,2,0:0:0:0:
180,119,195592,1,0,0:0:0:0:
171,105,195688,1,0,0:0:0:0:
160,93,195785,1,0,0:0:0:0:
148,84,195881,1,2,0:0:0:0:
132,76,195977,1,0,0:0:0:0:
115,79,196073,1,0,0:0:0:0:
104,88,196169,1,0,0:0:0:0:
96,104,196265,1,2,0:0:0:0:
93,128,196362,1,0,0:0:0:0:
100,150,196458,1,2,0:0:0:0:
121,168,196554,1,2,0:0:0:0:
160,176,196650,1,2,0:0:0:0:
248,336,196842,5,2,0:0:0:0:
344,176,197035,5,2,0:0:0:0:
424,16,197227,5,8,0:0:0:0:
416,16,197323,1,8,0:0:0:0:
408,16,197419,1,10,0:0:0:0:
400,16,197515,2,8,L|344:16,1,43.1250016450883
352,16,197708,1,8,0:0:0:0:
256,80,197900,5,8,0:0:0:0:
248,80,197996,1,8,0:0:0:0:
240,80,198092,1,8,0:0:0:0:
232,80,198188,1,8,0:0:0:0:
224,80,198285,1,8,0:0:0:0:
216,80,198381,1,8,0:0:0:0:
208,80,198477,1,8,0:0:0:0:
200,80,198573,6,2,L|144:80,1,43.1250016450883
152,80,198766,1,2,0:0:0:0:
80,128,198958,5,0,0:0:0:0:
88,144,199054,1,0,0:0:0:0:
96,160,199150,1,0,0:0:0:0:
104,176,199246,1,0,0:0:0:0:
112,192,199342,1,0,0:0:0:0:
120,208,199438,1,0,0:0:0:0:
128,224,199535,1,0,0:0:0:0:
216,288,199727,6,8,L|272:288,2,43.1250016450883
376,56,200112,5,8,0:0:0:0:
240,192,200304,1,8,0:0:0:0:
376,248,200496,5,8,0:0:0:0:
240,376,200688,1,8,0:0:0:0:
376,320,200881,5,8,0:0:0:0:
240,192,201073,1,8,0:0:0:0:
376,128,201265,5,8,0:0:0:0:
240,0,201458,1,8,0:0:0:0:
96,64,201650,5,2,0:0:0:0:
96,88,201746,1,0,0:0:0:0:
96,112,201842,1,0,0:0:0:0:
96,136,201938,1,0,0:0:0:0:
98,164,202035,1,2,0:0:0:0:
100,189,202131,1,0,0:0:0:0:
106,217,202227,1,0,0:0:0:0:
121,242,202323,1,0,0:0:0:0:
151,270,202419,1,2,0:0:0:0:
192,287,202515,1,0,0:0:0:0:
242,294,202612,1,0,0:0:0:0:
290,296,202708,1,0,0:0:0:0:
340,291,202804,1,2,0:0:0:0:
390,274,202900,1,0,0:0:0:0:
442,248,202996,1,0,0:0:0:0:
490,212,203092,1,0,0:0:0:0:
512,152,203188,2,0,B|504:192|504:216|448:272|368:288|352:312|272:296|232:304|200:312|176:280|112:272|88:224|96:184|88:16,1,690,2|2,0:0|0:0,0:0:0:0:
