osu file format v12

[General]
AudioFilename: Benibana no Otome Uta.mp3
AudioLeadIn: 0
PreviewTime: 60378
Countdown: 0
SampleSet: Soft
StackLeniency: 0.7
Mode: 0
LetterboxInBreaks: 0

[Editor]
DistanceSpacing: 1.1
BeatDivisor: 4
GridSize: 4

[Metadata]
Title:Benibana no Otome Uta
TitleUnicode:紅花ノ乙女唄
Artist:Hanazawa Kana, Toyosaki Aki & Horie Yui
ArtistUnicode:花澤香菜, 豊崎愛生 & 堀江由衣
Creator:thou bad
Version:Easy
Source:Otome Youkai Zakuro
Tags:Wafuu
BeatmapID:230560
BeatmapSetID:41649

[Difficulty]
HPDrainRate:2
CircleSize:3
OverallDifficulty:2
ApproachRate:3
SliderMultiplier:0.8
SliderTickRate:1

[Events]
//Background and Video events
0,0,"BG~.jpg",0,0
//Break Periods
2,53107,55099
2,105599,107591
//Storyboard Layer 0 (Background)
//Storyboard Layer 1 (Fail)
//Storyboard Layer 2 (Pass)
//Storyboard Layer 3 (Foreground)
//Storyboard Sound Samples
//Background Colour Transformations
3,100,163,162,255

[TimingPoints]
379,468.75,4,2,1,50,1,0
3191,-100,4,2,2,40,0,0
11629,-100,4,2,1,50,0,0
13504,-100,4,2,2,40,0,0
14441,-100,4,2,1,50,0,0
19129,-100,4,2,2,15,0,0
20066,-100,4,2,1,40,0,0
22879,-100,4,2,2,20,0,0
23816,-100,4,2,1,50,0,0
25691,-100,4,2,2,15,0,0
26629,-100,4,2,1,40,0,0
28504,-100,4,2,2,30,0,0
29441,-100,4,2,2,25,0,0
30379,-100,4,2,2,20,0,0
30496,-100,4,2,1,50,0,0
33191,-100,4,2,2,30,0,0
34129,-100,4,2,1,50,0,0
36004,-100,4,2,2,30,0,0
37404,468.75,4,2,2,20,1,0
37620,468.75,4,2,2,20,1,0
37885,468.75,4,2,2,20,1,0
38822,-100,4,2,2,30,0,0
41635,-100,4,2,2,20,0,0
42083,465.116279069767,4,2,1,50,1,0
42998,465.116279069767,4,2,1,50,1,0
43266,468.75,4,2,2,20,1,0
43510,468.75,4,2,2,20,1,0
49252,-100,4,2,2,40,0,0
51947,-100,4,2,1,50,0,0
52873,468.75,4,2,2,25,1,0
56623,-100,4,2,1,5,0,0
60379,468.75,4,2,1,50,1,0
63191,-100,4,2,2,40,0,0
64129,-100,4,2,1,50,0,0
67879,-100,4,2,2,20,0,0
68327,468.75,4,2,1,40,1,0
71629,468.75,4,2,2,20,1,0
72566,-100,4,2,1,50,0,0
73504,-100,4,2,2,40,0,0
75379,-100,4,2,1,50,0,0
77254,-100,4,2,2,40,0,0
79129,-100,4,2,2,20,0,0
80535,-100,4,2,1,50,0,0
81004,-100,4,2,2,40,0,0
82879,-100,4,2,1,50,0,0
84754,-100,4,2,2,40,0,0
86615,468.75,4,2,2,20,1,0
87083,-100,4,2,2,30,0,0
90365,-100,4,2,2,20,0,0
90833,-100,4,2,1,50,0,0
92240,-100,4,2,2,30,0,0
93646,-100,4,2,2,40,0,0
97865,-100,4,2,2,20,0,0
97982,-100,4,2,2,40,0,0
101615,-100,4,2,2,25,0,0
101732,-100,4,2,2,40,0,0
104427,-100,4,2,1,50,0,0
105365,-100,4,2,2,25,0,0
109115,-100,4,2,1,50,0,0
110990,-100,4,2,2,40,0,0
111927,-100,4,2,1,50,0,0
116146,-100,4,2,2,30,0,0
116615,-100,4,2,2,25,0,0
116732,-100,4,2,1,40,0,0
120365,-100,4,2,2,25,0,0
120482,-100,4,2,2,40,0,0
124115,-100,4,2,1,50,0,0
125990,-100,4,2,2,40,0,0
127865,-100,4,2,1,50,0,0
129740,-100,4,2,2,40,0,0
131615,-100,4,2,1,50,0,0
133490,-100,4,2,2,30,0,0
134427,-100,4,2,2,40,0,0
135365,-100,4,2,2,20,0,0
135482,-100,4,2,2,30,0,0
139115,-100,4,2,2,20,0,0
139583,-100,4,2,1,50,0,0
140990,-100,4,2,2,30,0,0
142396,-100,4,2,2,40,0,0
142865,-100,4,2,2,25,0,0
142982,-100,4,2,2,30,0,0
146615,-100,4,2,2,25,0,0
146732,-100,4,2,2,40,0,0
150365,-100,4,2,2,20,0,0
150482,-100,4,2,2,40,0,0
154115,-100,4,2,2,20,0,0
154232,-100,4,2,2,40,0,0
157865,-100,4,2,2,20,0,0
157982,-100,4,2,2,40,0,0
161146,-100,4,2,2,25,0,0
161263,-100,4,2,2,40,0,0
162083,-100,4,2,1,5,0,0
165365,-100,4,2,2,10,0,0

[Colours]
Combo1 : 170,85,255
Combo2 : 255,128,255
Combo3 : 255,255,255
Combo4 : 0,128,255

[HitObjects]
256,152,2254,2,0,B|248:172|264:208|256:232,1,80,2|2,0:0|0:0,0:0:0:0:
187,286,3191,6,0,P|256:321|325:286,1,160
392,228,4597,2,0,P|424:248|468:252,2,80
334,159,6004,6,0,B|268:136|256:76|256:76|244:136|178:159,1,240,2|0,0:0|0:0,0:0:0:0:
120,228,7879,1,2,0:0:0:0:
168,304,8347,2,0,P|131:317|90:313,2,80
252,336,9754,6,0,P|367:333|409:225,1,240,2|0,0:0|0:0,0:0:0:0:
364,156,11629,6,0,P|248:158|206:266,1,240,2|0,0:0|0:0,0:0:0:0:
160,336,13504,2,0,P|200:348|244:336,2,80,0|0|2,0:0|0:0|0:0,0:0:0:0:
173,159,15379,6,0,B|115:126|95:68|95:68|154:84|210:52,1,240,2|0,0:0|0:0,0:0:0:0:
302,52,17254,2,0,B|358:84|416:68|416:68|396:125|339:158,1,240,2|0,0:0|0:0,0:0:0:0:
256,140,19129,5,4,0:0:0:0:
104,228,20066,1,2,0:0:0:0:
256,316,21004,1,0,0:0:0:0:
408,228,21941,1,0,0:0:0:0:
256,140,22879,6,0,P|224:69|148:56,1,160,6|2,0:0|0:0,0:0:0:0:
167,142,24285,1,0,0:0:0:0:
79,144,24754,2,0,P|110:214|186:227,1,160,2|4,0:0|0:0,0:0:0:0:
228,212,25925,1,4,0:0:0:0:
344,148,26629,6,0,P|418:161|450:232,1,160,2|2,0:0|0:0,0:0:0:0:
424,316,28035,1,0,0:0:0:0:
336,300,28504,2,0,L|264:340,1,80
252,252,29441,2,0,L|180:292,1,80
96,300,30379,6,0,P|52:192|96:84,1,240,6|0,0:0|0:0,0:0:0:0:
181,105,32254,2,0,P|256:129|331:105,1,160
364,76,33425,1,0,0:0:0:0:
428,192,34129,6,0,P|419:270|366:329,1,160,2|2,0:0|0:0,0:0:0:0:
284,360,35535,1,0,0:0:0:0:
196,344,36004,2,0,P|156:330|128:294,1,80
208,256,36941,2,0,P|247:242|275:206,1,79.13
196,168,37885,6,0,P|220:93|284:46,1,160,6|0,0:0|0:0,0:0:0:0:
352,104,39291,1,0,0:0:0:0:
436,76,39760,2,0,P|464:107|471:143,1,80,2|2,0:0|0:0,0:0:0:0:
464,232,40697,2,0,P|450:272|423:296,1,80,2|0,0:0|0:0,0:0:0:0:
338,322,41635,1,6,0:0:0:0:
256,300,42083,6,0,B|216:244|296:204|256:148,1,157.4
271,55,43510,2,0,P|212:63|172:107,1,120
162,148,44447,2,0,P|151:183|121:211,1,80,0|2,0:0|0:0,0:0:0:0:
36,240,45385,5,2,0:0:0:0:
184,336,46322,1,0,0:0:0:0:
332,240,47260,1,0,0:0:0:0:
480,336,48197,1,0,0:0:0:0:
332,240,49135,6,0,B|284:232|256:256|256:256|228:232|180:240,2,160,6|2|2,0:0|0:0|0:0,0:0:0:0:
344,152,51478,2,0,P|325:116|300:84,1,80,0|2,0:0|0:0,0:0:0:0:
211,84,52416,6,0,P|186:116|168:152,1,78,2|4,0:0|0:0,0:0:0:0:
256,192,56623,12,0,59904,0:0:0:0:
144,144,60379,6,0,P|256:108|368:144,1,240,2|2,0:0|0:0,0:0:0:0:
416,220,62254,2,0,P|419:261|398:302,2,80,2|0|2,0:0|0:0|0:0,0:0:0:0:
268,320,64129,6,0,P|165:327|212:246,1,240,2|0,0:0|0:0,0:0:0:0:
268,180,66004,2,0,P|312:98|210:106,1,240,2|0,0:0|0:0,0:0:0:0:
180,192,67879,5,4,0:0:0:0:
256,344,68795,1,2,0:0:0:0:
332,192,69733,1,0,0:0:0:0:
256,40,70670,1,0,0:0:0:0:
181,203,71629,6,0,P|256:227|331:203,1,160,6|2,0:0|0:0,0:0:0:0:
392,140,73035,1,0,0:0:0:0:
331,76,73504,2,0,P|256:52|181:76,1,160,2|0,0:0|0:0,0:0:0:0:
120,140,74910,1,0,0:0:0:0:
104,228,75379,6,0,B|164:232|190:191|190:191|248:224,1,160,2|2,0:0|0:0,0:0:0:0:
320,268,76785,1,0,0:0:0:0:
400,308,77254,2,0,P|407:267|398:228,1,80
368,148,78191,2,0,P|354:109|326:79,1,80
276,152,79129,6,0,P|168:108|60:152,1,240,6|0,0:0|0:0,0:0:0:0:
20,232,81004,2,0,L|69:295,1,80,2|0,0:0|0:0,0:0:0:0:
116,220,81941,2,0,L|165:283,1,80
252,296,82879,6,0,B|312:316|364:272|364:272|416:316|476:296,1,240,2|0,0:0|0:0,0:0:0:0:
436,216,84754,2,0,P|444:175|436:135,1,80
356,172,85691,2,0,P|343:132|316:101,1,80
256,44,86615,1,6,0:0:0:0:
193,103,87083,6,0,P|169:132|156:172,1,80
84,224,88021,2,0,P|112:248|152:261,1,80,0|2,0:0|0:0,0:0:0:0:
204,333,88958,2,0,P|228:304|241:264,1,80,2|2,0:0|0:0,0:0:0:0:
313,212,89896,2,0,P|284:187|244:174,1,80,0|6,0:0|0:0,0:0:0:0:
192,104,90833,6,0,P|258:61|336:65,1,160,2|0,0:0|0:0,0:0:0:0:
420,100,92240,2,0,P|425:161|461:212,1,120,2|0,0:0|0:0,0:0:0:0:
488,240,93177,2,0,P|496:279|489:319,1,80
408,280,94115,6,0,P|333:304|258:280,1,160,2|0,0:0|0:0,0:0:0:0:
196,220,95521,1,0,0:0:0:0:
120,176,95990,2,0,P|112:135|120:95,1,80,2|0,0:0|0:0,0:0:0:0:
200,132,96927,2,0,P|213:92|240:61,1,80
320,28,97865,6,0,B|334:69|318:106|318:106|350:131|392:132,1,160,6|0,0:0|0:0,0:0:0:0:
480,120,99271,1,0,0:0:0:0:
448,200,99740,6,0,B|433:241|449:278|449:278|417:303|376:304,1,160,2|0,0:0|0:0,0:0:0:0:
288,292,101146,1,0,0:0:0:0:
256,212,101615,6,0,B|232:172|256:136|280:92|256:52,2,160,6|2|2,0:0|0:0|0:0,0:0:0:0:
343,225,103958,2,0,P|329:260|299:290,1,80,0|2,0:0|0:0,0:0:0:0:
212,290,104896,6,0,P|182:260|168:225,1,80,2|4,0:0|0:0,0:0:0:0:
176,76,109115,6,0,B|231:132|322:107|322:107|292:140|290:182,1,240,2|0,0:0|0:0,0:0:0:0:
346,249,110990,2,0,P|368:218|379:177,2,80,0|0|2,0:0|0:0|0:0,0:0:0:0:
184,320,112865,6,0,P|120:229|188:137,1,240
276,128,114740,2,0,P|313:131|352:149,1,80
368,236,115677,2,0,P|330:232|291:214,1,80,2|0,0:0|0:0,0:0:0:0:
208,188,116615,6,0,P|150:242|71:254,2,160,4|2|0,0:0|0:0|0:0,0:0:0:0:
256,114,118958,1,0,0:0:0:0:
296,36,119427,2,0,P|324:60|345:97,1,80
432,88,120365,6,0,B|440:144|388:176|388:176|420:224,1,160,4|2,0:0|0:0,0:0:0:0:
436,308,121771,1,0,0:0:0:0:
352,280,122240,2,0,L|276:248,1,80,2|0,0:0|0:0,0:0:0:0:
256,336,123177,2,0,L|180:368,1,80
116,308,124115,6,0,B|160:192|72:192|115:74,1,240,2|0,0:0|0:0,0:0:0:0:
192,32,125990,2,0,P|216:59|232:99,1,80,2|0,0:0|0:0,0:0:0:0:
320,108,126927,2,0,P|308:142|281:176,1,80,0|0,0:0|0:0,0:0:0:0:
192,180,127865,6,0,P|191:291|300:327,1,240,2|0,0:0|0:0,0:0:0:0:
360,264,129740,1,2,0:0:0:0:
448,272,130208,2,0,P|436:306|409:340,2,80
460,184,131615,6,0,L|412:120,1,80,2|0,0:0|0:0,0:0:0:0:
336,164,132552,2,0,L|269:120,1,80,2|0,0:0|0:0,0:0:0:0:
180,128,133490,2,0,P|195:167|220:195,1,80,0|0,0:0|0:0,0:0:0:0:
144,240,134427,2,0,P|172:271|204:289,1,80,0|0,0:0|0:0,0:0:0:0:
292,288,135365,6,0,P|355:241|434:241,2,160,6|0|2,0:0|0:0|0:0,0:0:0:0:
204,288,137708,2,0,P|171:268|143:235,1,80,2|2,0:0|0:0,0:0:0:0:
144,147,138646,2,0,P|171:115|204:96,1,80,0|6,0:0|0:0,0:0:0:0:
292,80,139583,5,0,0:0:0:0:
317,163,140051,1,0,0:0:0:0:
376,228,140520,1,0,0:0:0:0:
456,262,140990,2,0,P|415:305|356:312,1,120,2|0,0:0|0:0,0:0:0:0:
314,306,141927,2,0,P|276:304|235:316,1,80,0|2,0:0|0:0,0:0:0:0:
156,352,142865,5,6,0:0:0:0:
46,216,143802,1,0,0:0:0:0:
181,107,144740,1,0,0:0:0:0:
291,242,145678,1,0,0:0:0:0:
156,352,146615,6,0,B|146:300|176:264|176:264|171:223|150:192,2,160,6|2|2,0:0|0:0|0:0,0:0:0:0:
240,324,148958,1,0,0:0:0:0:
320,288,149427,2,0,L|400:308,1,80,2|0,0:0|0:0,0:0:0:0:
460,244,150365,6,0,P|498:148|406:167,1,240,6|0,0:0|0:0,0:0:0:0:
348,228,152240,2,0,P|308:239|270:237,1,80,2|0,0:0|0:0,0:0:0:0:
299,153,153177,2,0,P|257:149|222:134,1,80,0|2,0:0|0:0,0:0:0:0:
148,84,154115,6,0,P|104:192|148:300,1,240,6|0,0:0|0:0,0:0:0:0:
232,272,155990,1,2,0:0:0:0:
300,328,156458,1,0,0:0:0:0:
316,240,156927,2,0,P|309:198|292:165,1,80,0|0,0:0|0:0,0:0:0:0:
222,111,157865,6,0,P|207:149|206:186,1,80,6|0,0:0|0:0,0:0:0:0:
232,272,158802,1,2,0:0:0:0:
300,328,159271,1,0,0:0:0:0:
388,340,159740,6,0,P|428:336|462:320,1,80,2|0,0:0|0:0,0:0:0:0:
404,256,160677,2,0,P|437:232|458:201,2,80,2|4|0,0:0|0:0|0:0,0:0:0:0:
256,192,162083,12,4,165365,0:0:0:0:
