osu file format v12

[General]
AudioFilename: ED.mp3
AudioLeadIn: 0
PreviewTime: 53193
Countdown: 1
SampleSet: Soft
StackLeniency: 1
Mode: 0
LetterboxInBreaks: 0
WidescreenStoryboard: 1

[Editor]
DistanceSpacing: 1.5
BeatDivisor: 4
GridSize: 8
TimelineZoom: 1

[Metadata]
Title:Minna no Namee wo Irete Kudasai
TitleUnicode:ミンナノナメエヲイレテクダサイ
Artist:Hanazawa Kana, Itou Shizuka, Toyosaki Aki
ArtistUnicode:花澤香菜、伊藤静、豊崎愛生
Creator:ts8zs
Version:Ts8zStyle
Source:D-fragments!
Tags:D-Frag! Diifuragu! ディーふらぐ! ed ending
BeatmapID:367342
BeatmapSetID:148586

[Difficulty]
HPDrainRate:6
CircleSize:4
OverallDifficulty:7
ApproachRate:9
SliderMultiplier:1.6
SliderTickRate:1

[Events]
//Background and Video events
0,0,"yande.re 173448 sample.jpg",0,0
//Break Periods
//Storyboard Layer 0 (Background)
//Storyboard Layer 1 (Fail)
//Storyboard Layer 2 (Pass)
//Storyboard Layer 3 (Foreground)
//Storyboard Sound Samples
//Background Colour Transformations
3,100,163,162,255

[TimingPoints]
140,315.794459912525,4,1,1,40,1,0
11824,-200,4,1,1,40,0,0
13719,-100,4,1,1,40,0,0
42456,-133.333333333333,4,2,1,40,0,0
43088,-200,4,2,1,40,0,0
46877,-100,4,1,1,40,0,0
51930,-100,4,1,1,50,0,1
73404,-100,4,1,1,40,0,0
84457,-100,4,1,1,40,0,1
87299,-100,4,2,1,40,0,0

[HitObjects]
256,192,1403,5,8,0:0:0:0:
200,256,1561,1,0,0:0:0:0:
304,280,1718,2,0,P|336:256|352:208,1,80
128,200,2034,2,0,P|133:239|157:270,1,80
320,64,2350,2,0,P|283:48|244:53,1,80
256,192,2666,5,8,0:0:0:0:
280,320,2824,1,0,0:0:0:0:
416,176,2982,2,0,P|411:136|377:98,1,80
200,312,3297,2,0,P|236:327|275:321,1,80
215,112,3613,2,0,P|183:136|168:172,1,80
256,192,3929,5,8,0:0:0:0:
368,312,4561,1,8,0:0:0:0:
488,192,5193,1,8,0:0:0:0:
368,80,5824,1,8,0:0:0:0:
256,192,6455,5,8,0:0:0:0:
184,56,6613,1,0,0:0:0:0:
368,64,6771,2,0,P|400:88|416:136,1,80
128,192,7087,2,0,P|133:153|157:122,1,80
304,264,7403,2,0,P|267:280|228:275,1,80
256,192,7719,5,8,0:0:0:0:
283,111,7876,1,0,0:0:0:0:
345,186,8034,2,0,P|340:226|306:264,1,80
208,104,8350,2,0,P|244:89|283:94,1,80
168,312,8666,2,0,P|136:288|120:252,1,80
256,192,8982,5,8,0:0:0:0:
360,48,9613,1,8,0:0:0:0:
184,32,10245,1,8,0:0:0:0:
264,96,10719,5,8,0:0:0:0:
176,144,11350,5,0,0:0:0:0:
176,144,11429,1,0,0:0:0:0:
176,144,11508,1,8,0:0:0:0:
304,24,11666,1,8,0:0:0:0:
256,224,11824,2,8,L|256:304,1,80
176,144,12613,5,0,0:0:0:0:
176,144,12692,1,0,0:0:0:0:
176,144,12771,1,8,0:0:0:0:
304,24,12929,1,8,0:0:0:0:
256,224,13087,2,8,L|256:304,1,80
88,184,13719,6,0,P|80:144|88:104,1,80
88,104,13956,1,0,0:0:0:0:
88,104,14034,2,0,L|201:91,1,80,8|0,0:0|0:0,0:0:0:0:
352,96,14350,1,0,0:0:0:0:
256,192,14508,2,0,L|232:272,1,80,0|8,0:0|0:0,0:0:0:0:
224,296,14982,5,0,0:0:0:0:
216,120,15140,1,0,0:0:0:0:
216,120,15219,1,0,0:0:0:0:
216,120,15298,1,8,0:0:0:0:
392,168,15456,1,8,0:0:0:0:
312,112,15613,1,8,0:0:0:0:
354,249,15771,2,0,P|431:252|480:192,1,160,8|0,0:0|0:0,0:0:0:0:
479,192,16166,1,0,0:0:0:0:
479,192,16245,1,0,0:0:0:0:
392,168,16561,5,8,0:0:0:0:
336,56,16719,1,8,0:0:0:0:
472,64,16877,1,8,0:0:0:0:
304,144,17192,6,0,P|256:104|256:8,1,160,8|0,0:0|0:0,0:0:0:0:
304,144,17666,5,0,0:0:0:0:
312,152,17745,1,0,0:0:0:0:
320,160,17824,2,8,L|272:232,1,80
352,288,18140,2,0,L|304:360,1,80,8|0,0:0|0:0,0:0:0:0:
184,264,18456,2,0,P|168:216|184:160,1,80,8|0,0:0|0:0,0:0:0:0:
440,64,18771,5,0,0:0:0:0:
400,152,18929,1,0,0:0:0:0:
400,152,19008,1,0,0:0:0:0:
400,152,19087,1,8,0:0:0:0:
192,120,19403,5,0,0:0:0:0:
320,88,19561,1,0,0:0:0:0:
440,64,19719,2,0,P|496:128|488:208,1,160,8|0,0:0|0:0,0:0:0:0:
320,88,20192,5,0,0:0:0:0:
320,88,20271,1,0,0:0:0:0:
320,88,20350,1,8,0:0:0:0:
440,64,20508,1,8,0:0:0:0:
400,152,20666,1,8,0:0:0:0:
280,176,20824,2,0,P|224:112|232:32,1,160,8|0,0:0|0:0,0:0:0:0:
227,41,21219,1,0,0:0:0:0:
227,41,21298,1,0,0:0:0:0:
400,152,21456,5,0,0:0:0:0:
400,152,21535,1,0,0:0:0:0:
400,152,21614,2,0,P|401:191|389:229,1,80
456,288,21929,2,0,P|483:213|485:134,2,160
400,152,22719,5,0,0:0:0:0:
400,152,22798,1,0,0:0:0:0:
400,152,22877,2,0,P|401:191|389:229,1,80
456,288,23192,2,0,P|483:213|485:134,2,160
280,248,23982,6,0,L|176:216,1,80,0|8,0:0|0:0,0:0:0:0:
400,152,24298,1,0,0:0:0:0:
456,288,24456,1,0,0:0:0:0:
232,208,24614,6,0,L|128:176,1,80,0|8,0:0|0:0,0:0:0:0:
368,88,24929,1,0,0:0:0:0:
424,224,25087,1,0,0:0:0:0:
192,176,25245,6,0,L|88:144,1,80,0|8,0:0|0:0,0:0:0:0:
344,16,25561,1,0,0:0:0:0:
400,152,25719,1,0,0:0:0:0:
160,136,25877,6,0,L|8:88,1,160
8,88,26271,1,0,0:0:0:0:
8,88,26350,1,0,0:0:0:0:
160,136,26508,5,0,0:0:0:0:
168,144,26587,1,0,0:0:0:0:
176,152,26666,2,0,L|248:112,1,80,8|0,0:0|0:0,0:0:0:0:
280,200,26982,1,8,0:0:0:0:
88,40,27298,1,8,0:0:0:0:
32,192,27614,1,0,0:0:0:0:
160,136,27772,5,0,0:0:0:0:
168,144,27850,1,0,0:0:0:0:
176,152,27929,2,0,L|248:112,1,80,8|0,0:0|0:0,0:0:0:0:
280,200,28245,1,8,0:0:0:0:
88,40,28561,1,8,0:0:0:0:
31,192,28877,6,0,P|13:226|14:266,1,80
48,360,29193,1,8,0:0:0:0:
160,112,29350,1,0,0:0:0:0:
104,248,29508,6,0,P|105:288|130:326,1,80
200,376,29824,1,8,0:0:0:0:
160,112,29982,1,0,0:0:0:0:
192,272,30140,6,0,P|213:306|253:326,1,80
352,344,30456,1,8,0:0:0:0:
160,112,30614,1,0,0:0:0:0:
272,240,30772,6,0,P|307:259|351:257,1,80,0|0,0:0|0:0,0:0:0:0:
472,200,31245,6,0,L|513:207,2,40
288,296,31719,5,4,0:0:0:0:
320,144,32035,1,0,0:0:0:0:
152,216,32351,2,0,L|240:216,1,80
432,216,32824,1,0,0:0:0:0:
288,296,33140,2,0,P|248:312|208:312,1,80
40,256,33614,1,0,0:0:0:0:
32,272,33930,1,0,0:0:0:0:
112,328,34245,5,4,0:0:0:0:
160,336,34403,1,0,0:0:0:0:
208,344,34561,1,0,0:0:0:0:
160,240,34877,2,0,P|144:184|160:136,1,80
192,48,35351,1,0,0:0:0:0:
272,152,35666,5,0,0:0:0:0:
80,104,35824,1,0,0:0:0:0:
80,104,36140,5,0,0:0:0:0:
384,88,36456,1,0,0:0:0:0:
376,208,36772,5,4,0:0:0:0:
280,56,37087,1,0,0:0:0:0:
384,88,37403,2,0,L|463:80,1,80
376,208,37877,1,0,0:0:0:0:
280,56,38193,5,0,0:0:0:0:
232,184,38351,1,0,0:0:0:0:
232,184,38666,5,0,0:0:0:0:
480,168,38982,1,0,0:0:0:0:
480,168,39456,5,4,0:0:0:0:
320,88,39693,1,0,0:0:0:0:
336,272,39930,1,4,0:0:0:0:
400,128,40166,1,0,0:0:0:0:
328,184,40403,1,4,0:0:0:0:
408,224,40719,5,4,0:0:0:0:
320,88,40956,1,0,0:0:0:0:
480,88,41193,1,4,0:0:0:0:
360,160,41430,1,0,0:0:0:0:
400,88,41666,1,4,0:0:0:0:
440,160,42456,6,0,P|472:192|360:280,1,240.000009155274,0|0,0:0|0:0,0:0:0:0:
288,200,43403,5,0,0:0:0:0:
280,96,43719,2,0,P|312:56|344:40,1,80,0|0,0:0|0:0,0:0:0:0:
360,128,44193,2,0,P|407:109|443:111,1,80,2|0,0:0|0:0,0:0:0:0:
416,192,44667,2,0,P|466:199|496:219,1,80,2|2,0:0|0:0,0:0:0:0:
392,312,45298,5,0,0:0:0:0:
360,328,45456,1,0,0:0:0:0:
328,336,45614,2,0,P|288:336|248:320,1,80,2|0,0:0|0:0,0:0:0:0:
224,224,46245,2,0,P|264:224|304:240,1,80,2|2,0:0|0:0,0:0:0:0:
160,288,46877,6,0,P|136:224|176:144,1,160,8|0,0:0|0:0,0:0:0:0:
352,96,47351,2,0,P|376:160|336:240,1,160,8|0,0:0|0:0,0:0:0:0:
288,160,47824,5,0,0:0:0:0:
352,96,47982,1,0,0:0:0:0:
416,32,48140,2,0,L|496:32,1,80
464,208,48456,2,0,L|384:208,1,80
180,203,48772,1,0,0:0:0:0:
256,176,48930,2,0,P|260:215|244:251,2,80
188,123,49403,5,8,0:0:0:0:
116,155,49561,1,0,0:0:0:0:
108,227,49719,1,0,0:0:0:0:
168,280,49877,2,0,P|248:296|328:280,1,160,8|8,0:0|0:0,0:0:0:0:
424,264,50351,5,0,0:0:0:0:
424,264,50430,1,0,0:0:0:0:
424,264,50509,1,0,0:0:0:0:
424,264,50588,1,0,0:0:0:0:
424,264,50667,6,0,P|448:224|448:192,1,80
392,128,50982,2,0,P|368:168|368:200,1,80
424,264,51298,2,0,P|448:224|448:192,1,80
392,128,51614,2,0,P|368:168|368:200,1,80
424,264,51930,5,8,0:0:0:0:
496,136,52088,1,8,0:0:0:0:
360,64,52246,1,8,0:0:0:0:
288,200,52403,1,12,0:0:0:0:
288,200,52719,5,0,0:0:0:0:
288,200,52798,1,0,0:0:0:0:
288,200,52877,2,0,L|264:240,3,40
208,240,53193,6,0,P|199:201|207:162,1,80,4|0,0:0|0:0,0:0:0:0:
360,248,53509,2,0,P|330:274|292:287,1,80
296,111,53825,2,0,P|333:124|363:150,1,80,0|0,0:0|0:0,0:0:0:0:
208,240,54140,6,0,P|199:201|207:162,1,80
360,248,54456,2,0,P|330:274|292:287,1,80
296,112,54772,2,0,P|325:138|363:150,1,80
208,240,55088,6,0,P|199:201|207:162,1,80
360,248,55404,2,0,P|330:274|292:287,1,80
296,112,55719,2,0,P|325:138|363:150,1,80
368,56,56035,5,0,0:0:0:0:
296,112,56193,1,0,0:0:0:0:
448,200,56351,1,0,0:0:0:0:
456,112,56509,1,0,0:0:0:0:
290,209,56667,2,0,L|360:248,1,80
376,152,56983,5,0,0:0:0:0:
296,112,57140,1,0,0:0:0:0:
208,104,57298,1,0,0:0:0:0:
120,120,57456,1,0,0:0:0:0:
208,104,57614,2,0,P|216:56|200:8,1,80,8|0,0:0|0:0,0:0:0:0:
72,224,57930,2,0,P|64:272|80:320,1,80,8|0,0:0|0:0,0:0:0:0:
152,264,58246,6,0,P|224:256|320:288,1,160,8|0,0:0|0:0,0:0:0:0:
408,304,58719,2,0,P|400:264|408:224,1,80
488,176,59035,2,0,P|496:216|488:256,1,80
312,336,59351,2,0,L|152:320,1,160,8|0,0:0|0:0,0:0:0:0:
112,232,59825,1,0,0:0:0:0:
88,144,59983,2,0,P|164:157|200:225,1,160,8|8,0:0|0:0,0:0:0:0:
24,200,60456,6,0,P|8:152|16:104,1,80
10,123,60693,1,0,0:0:0:0:
10,123,60772,2,0,L|88:144,1,80,8|0,0:0|0:0,0:0:0:0:
256,80,61088,2,0,L|178:59,1,80,8|0,0:0|0:0,0:0:0:0:
208,168,61404,2,0,L|285:188,1,80,8|0,0:0|0:0,0:0:0:0:
454,125,61719,2,0,L|376:104,1,80,8|0,0:0|0:0,0:0:0:0:
406,213,62035,6,0,L|483:233,1,80,8|0,0:0|0:0,0:0:0:0:
336,336,62351,2,0,L|258:315,1,80,8|0,0:0|0:0,0:0:0:0:
208,168,62667,2,0,L|285:188,1,80,8|0,0:0|0:0,0:0:0:0:
138,291,62983,2,0,L|60:270,1,80,8|0,0:0|0:0,0:0:0:0:
104,112,63298,6,0,P|112:80|136:40,1,80,4|0,0:0|0:0,0:0:0:0:
152,192,63614,2,0,P|120:201|73:200,1,80
200,112,63930,2,0,P|223:134|246:175,1,80
104,112,64246,6,0,P|112:80|136:40,1,80
152,192,64562,2,0,P|120:201|73:200,1,80
200,112,64877,2,0,P|218:147|246:175,1,80
104,112,65193,6,0,P|112:80|136:40,1,80
152,192,65509,2,0,P|120:201|73:200,1,80
200,112,65825,2,0,P|218:147|246:175,1,80
344,232,66141,5,0,0:0:0:0:
328,112,66298,1,0,0:0:0:0:
248,176,66456,1,0,0:0:0:0:
256,280,66614,1,0,0:0:0:0:
344,344,66772,2,0,P|400:328|440:288,1,80
472,192,67088,5,0,0:0:0:0:
392,64,67246,1,0,0:0:0:0:
480,64,67404,1,0,0:0:0:0:
392,192,67562,1,0,0:0:0:0:
432,128,67720,5,8,0:0:0:0:
200,112,68035,1,8,0:0:0:0:
264,32,68351,6,0,P|296:96|264:192,1,160,8|0,0:0|0:0,0:0:0:0:
128,288,68825,1,0,0:0:0:0:
192,200,68983,1,0,0:0:0:0:
240,296,69141,1,0,0:0:0:0:
128,288,69298,1,0,0:0:0:0:
80,192,69456,2,0,P|80:136|160:64,1,160,8|0,0:0|0:0,0:0:0:0:
168,160,69930,1,0,0:0:0:0:
160,384,70088,2,8,P|83:376|35:315,1,160
128,288,70562,1,0,0:0:0:0:
368,336,70720,5,0,0:0:0:0:
368,336,70799,1,0,0:0:0:0:
368,336,70877,2,0,L|464:304,1,80,8|0,0:0|0:0,0:0:0:0:
472,160,71193,2,0,L|376:192,1,80,8|0,0:0|0:0,0:0:0:0:
224,272,71509,2,0,L|320:240,1,80,8|0,0:0|0:0,0:0:0:0:
360,120,71825,2,0,L|264:152,1,80,8|0,0:0|0:0,0:0:0:0:
144,184,72141,5,4,0:0:0:0:
232,32,72456,1,0,0:0:0:0:
368,200,72772,1,0,0:0:0:0:
280,352,73088,1,0,0:0:0:0:
256,192,73404,5,8,0:0:0:0:
200,256,73562,1,0,0:0:0:0:
304,280,73720,2,0,P|336:256|352:208,1,80
128,200,74035,2,0,P|133:239|157:270,1,80
320,64,74351,2,0,P|283:48|244:53,1,80
256,192,74667,5,8,0:0:0:0:
280,320,74825,1,0,0:0:0:0:
416,176,74983,2,0,P|411:136|377:98,1,80
200,312,75298,2,0,P|236:327|275:321,1,80
215,112,75614,2,0,P|183:136|168:172,1,80
256,192,75930,5,8,0:0:0:0:
368,80,76562,1,8,0:0:0:0:
488,192,77193,1,8,0:0:0:0:
368,312,77825,1,8,0:0:0:0:
256,192,78456,5,8,0:0:0:0:
184,56,78614,1,0,0:0:0:0:
368,64,78772,2,0,P|400:88|416:136,1,80
128,192,79088,2,0,P|133:153|157:122,1,80
304,264,79404,2,0,P|267:280|228:275,1,80
256,192,79720,5,8,0:0:0:0:
283,111,79877,1,0,0:0:0:0:
345,186,80035,2,0,P|340:226|306:264,1,80
208,104,80351,2,0,P|244:89|283:94,1,80
168,312,80667,2,0,P|136:288|120:252,1,80
256,192,80983,5,8,0:0:0:0:
360,48,81614,1,8,0:0:0:0:
184,32,82246,1,8,0:0:0:0:
264,96,82720,5,8,0:0:0:0:
176,144,83036,6,0,P|168:208|192:256,1,120
200,264,83351,1,8,0:0:0:0:
128,272,83667,6,0,L|208:272,1,80,0|8,0:0|0:0,0:0:0:0:
136,280,84141,6,0,L|216:280,1,80,0|8,0:0|0:0,0:0:0:0:
224,288,84457,1,8,0:0:0:0:
256,192,84615,12,2,87299,0:0:0:0:
