osu file format v10

[General]
AudioFilename: Weed Circulation.mp3
AudioLeadIn: 500
PreviewTime: 58046
Countdown: 0
SampleSet: Soft
StackLeniency: 0.7
Mode: 0
LetterboxInBreaks: 0

[Editor]
Bookmarks: 26046,42046
DistanceSpacing: 1
BeatDivisor: 4
GridSize: 4

[Metadata]
Title:Weed Circulation
TitleUnicode:Weed Circulation
Artist:Hanazawa Kana ft. Snoop Dogg
ArtistUnicode:Hanazawa Kana ft. Snoop Dogg
Creator:Milkshake
Version:WeedGhost
Source:
Tags:SapphireGhost Stefan those thenutritiousguy Bakemonogatari rap mash-up
BeatmapID:179950
BeatmapSetID:59936

[Difficulty]
HPDrainRate:6
CircleSize:4
OverallDifficulty:7
ApproachRate:7
SliderMultiplier:1.92
SliderTickRate:2

[Events]
//Background and Video events
0,0,"New Canvas.png"
Video,0,"weed circulation.avi"
//Break Periods
//Storyboard Layer 0 (Background)
//Storyboard Layer 1 (Fail)
//Storyboard Layer 2 (Pass)
//Storyboard Layer 3 (Foreground)
//Storyboard Sound Samples
//Background Colour Transformations
3,100,163,162,255

[TimingPoints]
2059,500,4,2,0,69,1,0
27309,-83.3333333333333,4,1,0,69,0,0
27809,-100,4,2,0,69,0,0
29309,-83.3333333333333,4,1,0,69,0,0
29809,-100,4,2,0,69,0,0
31309,-83.3333333333333,4,1,0,69,0,0
31809,-100,4,2,0,69,0,0
33309,-83.3333333333333,4,1,0,69,0,0
33809,-100,4,2,0,69,0,0
35309,-83.3333333333333,4,1,0,69,0,0
35809,-100,4,2,0,69,0,0
37309,-83.3333333333333,4,1,0,69,0,0
37809,-100,4,2,0,69,0,0
39309,-83.3333333333333,4,1,0,69,0,0
39809,-100,4,2,0,69,0,0
41309,-83.3333333333333,4,1,0,69,0,0
41809,-100,4,2,0,69,0,0
58059,-100,4,1,0,69,0,1
65309,-100,4,2,0,69,0,1
66059,-100,4,1,0,69,0,1
74059,-100,4,2,0,69,0,0
88059,535.714285714286,4,2,0,69,1,0

[Colours]
Combo1 : 0,150,0
Combo2 : 255,170,130
Combo3 : 147,201,255
Combo4 : 255,179,255
Combo5 : 254,225,171
Combo6 : 0,50,0
Combo7 : 0,200,0
Combo8 : 0,100,0

[HitObjects]
148,124,1809,1,2,0:0:0
148,124,1934,1,0,0:0:0
148,124,2059,2,0,B|188:192|148:260,2,144,0|0|8,0:0|0:0|0:0,0:0:0
256,192,3059,2,0,B|216:260|256:328,1,144,2|0,0:0|0:0,0:0:0
368,237,3809,5,2,0:0:0
368,237,3934,1,0,0:0:0
368,237,4059,2,0,B|401:252|443:244|468:209|468:171,2,144,0|0|8,0:0|0:0|0:0,0:0:0
256,192,5059,2,0,B|236:164|248:124|256:124|264:124|276:84|256:56,1,144,2|0,0:0|0:0,0:0:0
128,124,5809,5,2,0:0:0
128,124,5934,1,0,0:0:0
128,124,6059,2,0,B|168:192|128:260,1,144
108,288,6559,2,0,B|157:264|195:304,1,96,8|0,0:0|0:0,0:0:0
256,232,7059,2,0,B|330:258|389:206,1,144,2|0,0:0|0:0,0:0:0
416,228,7559,2,0,B|392:178|432:140,1,96,8|0,0:0|0:0,0:0:0
392,52,8059,5,2,0:0:0
301,164,8434,2,0,B|256:136|211:164,1,96,2|0,0:0|0:0,0:0:0
184,184,8809,2,0,B|184:88,1,96
100,36,9309,2,0,B|100:132,1,96,0|8,0:0|0:0,0:0:0
100,344,10059,70,0,B|112:312|140:277|185:279|216:291,1,144,2|0,0:0|0:0,0:0:0
300,344,10684,1,2,0:0:0
300,344,10809,1,0,0:0:0
380,292,11059,2,0,B|420:223|380:155,1,144,2|0,0:0|0:0,0:0:0
256,84,11809,1,0,0:0:0
280,60,11934,1,0,0:0:0
304,36,12059,6,0,B|160:36,1,144,2|0,0:0|0:0,0:0:0
76,84,12684,1,2,0:0:0
100,104,12809,2,0,B|128:149|100:194,1,96,0|2,0:0|0:0,0:0:0
212,288,13434,2,0,B|172:219|212:151,1,144,0|2,0:0|0:0,0:0:0
300,192,14059,6,0,B|347:214|349:267,1,96,0|2,0:0|0:0,0:0:0
324,291,14434,2,0,B|376:231|454:248,1,144,0|2,0:0|0:0,0:0:0
476,156,15059,1,0,0:0:0
396,84,15309,1,2,0:0:0
372,108,15434,2,0,B|340:120|295:122|267:87|255:55,1,144,0|2,0:0|0:0,0:0:0
164,84,16059,5,0,0:0:0
180,112,16184,2,0,B|208:157|180:202,1,96,2|0,0:0|0:0,0:0:0
164,232,16559,2,0,B|256:252,1,96,0|2,0:0|0:0,0:0:0
352,232,17059,2,0,B|444:252,2,96,0|8|8,0:0|0:0|0:0,0:0:0
211,152,18059,70,0,B|199:73|262:24,1,144,2|0,0:0|0:0,0:0:0
328,132,18684,1,2,0:0:0
301,152,18809,2,0,B|256:180|211:152,1,96,0|2,0:0|0:0,0:0:0
140,276,19434,2,0,B|171:263|216:261|244:296|256:328,1,144,0|2,0:0|0:0,0:0:0
364,288,20059,6,0,B|366:233|413:211,1,96,0|2,0:0|0:0,0:0:0
440,192,20434,2,0,B|386:200|355:158,1,96,0|2,0:0|0:0,0:0:0
328,132,20809,1,0,0:0:0
328,132,21059,2,0,B|184:132,2,144,2|0|2,0:0|0:0|0:0,0:0:0
304,40,22059,5,0,0:0:0
208,40,22309,1,2,0:0:0
208,40,22434,2,0,B|176:29|131:30|105:67|95:99,1,144,0|2,0:0|0:0,0:0:0
80,192,23059,1,0,0:0:0
176,212,23309,1,2,0:0:0
176,212,23434,2,0,B|209:213|250:231|260:275|257:309,1,144,0|2,0:0|0:0,0:0:0
344,264,24059,5,0,0:0:0
368,240,24184,2,0,B|404:201|385:151,1,96,2|0,0:0|0:0,0:0:0
368,120,24559,2,0,B|464:120,1,96,0|2,0:0|0:0,0:0:0
416,36,25059,2,0,B|320:36,2,96,0|8|8,0:0|0:0|0:0,0:0:0
304,184,26059,70,0,B|259:212|214:184,1,96,4|0,0:0|0:0,0:0:0
188,160,26434,1,0,0:0:0
160,136,26559,2,0,B|64:136,1,96,2|0,0:0|0:0,0:0:0
0,208,27059,1,0,0:0:0
32,320,27309,54,0,B|92:297|138:340,1,115.199996484375,0|0,0:0|0:0,0:0:0
224,296,27809,69,0,0:0:0
256,204,28059,2,0,B|334:215|382:153,1,144,2|0,0:0|0:0,0:0:0
408,172,28559,2,0,B|394:120|434:85,2,96,0|2|0,0:0|0:0|0:0,0:0:0
452,280,29309,54,0,B|426:338|363:342,1,115.199996484375,0|0,0:0|0:0,0:0:0
280,296,29809,69,0,0:0:0
256,204,30059,1,0,0:0:0
223,211,30184,1,2,0:0:0
197,233,30309,1,0,0:0:0
184,264,30434,1,0,0:0:0
187,298,30559,2,0,B|92:297,1,96,2|0,0:0|0:0,0:0:0
20,232,31059,1,0,0:0:0
92,140,31309,54,0,B|134:93|112:33,1,115.199996484375,0|0,0:0|0:0,0:0:0
208,48,31809,69,0,0:0:0
232,72,31934,1,0,0:0:0
255,95,32059,2,0,B|272:124|307:153|350:142|378:124,1,144,2|0,0:0|0:0,0:0:0
404,104,32559,2,0,B|376:149|404:194,1,96,0|2,0:0|0:0,0:0:0
464,268,33059,1,0,0:0:0
363,320,33309,54,0,B|316:277|256:299,1,115.199996484375,0|0,0:0|0:0,0:0:0
164,268,33809,6,0,B|178:320|138:355,2,96,0|2|0,0:0|0:0|0:0,0:0:0
156,232,34434,1,0,0:0:0
148,196,34559,2,0,B|128:96,1,96,0|2,0:0|0:0,0:0:0
208,48,35059,1,0,0:0:0
308,104,35309,54,0,B|313:167|371:192,1,115.199996484375,0|0,0:0|0:0,0:0:0
464,224,35809,70,0,B|501:185|482:135,2,96,2|0|0,0:0|0:0|0:0,0:0:0
436,336,36559,1,2,0:0:0
416,308,36684,2,0,B|377:271|327:290,1,96,0|2,0:0|0:0,0:0:0
296,304,37059,1,0,0:0:0
188,264,37309,54,0,B|128:287|82:244,1,115.199996484375,0|0,0:0|0:0,0:0:0
36,160,37809,69,2,0:0:0
100,88,38059,2,0,B|174:62|233:114,1,144,0|2,0:0|0:0,0:0:0
256,140,38559,2,0,B|277:91|330:89,1,96,0|2,0:0|0:0,0:0:0
427,89,39059,1,0,0:0:0
476,192,39309,54,0,B|499:252|456:298,1,115.199996484375,0|0,0:0|0:0,0:0:0
388,364,39809,69,2,0:0:0
300,328,40059,2,0,B|156:328,1,144
128,348,40559,2,0,B|156:303|128:258,1,96,2|0,0:0|0:0,0:0:0
100,164,41059,1,0,0:0:0
150,60,41309,54,0,B|210:37|256:80,1,115.199996484375,0|0,0:0|0:0,0:0:0
412,192,42059,6,0,B|360:204|348:255,1,96,2|0,0:0|0:0,0:0:0
417,323,42559,2,0,B|468:310|480:259,1,96,0|0,0:0|0:0,0:0:0
398,177,43059,2,0,B|346:189|334:240,1,96,2|0,0:0|0:0,0:0:0
256,176,43559,6,0,B|204:163|192:112,1,96,2|0,0:0|0:0,0:0:0
261,45,44059,2,0,B|312:57|324:108,1,96,0|0,0:0|0:0,0:0:0
242,191,44559,2,0,B|190:178|178:127,1,96,2|0,0:0|0:0,0:0:0
108,192,45059,1,2,0:0:0
108,192,45309,1,0,0:0:0
179,257,45559,1,2,0:0:0
179,257,45809,1,0,0:0:0
248,324,46059,5,2,0:0:0
248,324,46184,1,0,0:0:0
340,292,46434,2,0,B|385:320|430:292,1,96,0|2,0:0|0:0,0:0:0
456,272,46809,2,0,B|428:227|456:182,1,96,0|2,0:0|0:0,0:0:0
476,156,47184,1,0,0:0:0
376,76,47434,2,0,B|404:121|376:166,1,96,0|2,0:0|0:0,0:0:0
356,192,47809,1,0,0:0:0
272,144,48059,6,0,B|128:144,1,144,0|2,0:0|0:0,0:0:0
32,144,48684,1,2,0:0:0
32,144,48809,1,0,0:0:0
80,228,49059,2,0,B|32:312,2,96,0|8|8,0:0|0:0|0:0,0:0:0
256,312,50059,70,0,B|308:300|320:249,1,96,2|0,0:0|0:0,0:0:0
251,181,50559,2,0,B|200:194|188:245,1,96,0|0,0:0|0:0,0:0:0
270,327,51059,2,0,B|322:315|334:264,1,96,2|0,0:0|0:0,0:0:0
360,172,51559,22,0,B|412:180|442:137,1,96,2|0,0:0|0:0,0:0:0
405,48,52059,2,0,B|352:40|322:83,1,96,0|0,0:0|0:0,0:0:0
368,191,52559,2,0,B|420:199|450:156,1,96,2|0,0:0|0:0,0:0:0
512,232,53059,1,2,0:0:0
512,232,53309,1,0,0:0:0
452,304,53559,1,2,0:0:0
452,304,53809,1,0,0:0:0
360,272,54059,5,2,0:0:0
360,272,54184,1,0,0:0:0
268,304,54434,2,0,B|172:304,1,96,0|2,0:0|0:0,0:0:0
188,336,54809,2,0,B|92:336,1,96,0|2,0:0|0:0,0:0:0
60,336,55184,1,0,0:0:0
20,248,55434,2,0,B|48:203|20:158,1,96,0|2,0:0|0:0,0:0:0
0,132,55809,1,0,0:0:0
60,48,56059,69,0,0:0:0
60,48,56184,2,0,B|112:39|142:82,1,96,2|0,0:0|0:0,0:0:0
168,108,56559,2,0,B|218:126|255:90,1,96,0|2,0:0|0:0,0:0:0
340,44,57059,1,0,0:0:0
380,132,57309,2,0,B|380:228,1,96,0|8,0:0|0:0,0:0:0
172,316,58059,54,0,B|200:352|256:372|312:352|340:316,3,192,6|8|0|8,0:0|0:0|0:0|0:0,0:0:0
380,228,59809,1,0,0:0:0
292,192,60059,6,0,B|255:153|274:103,1,96,2|0,0:0|0:0,0:0:0
180,152,60559,1,8,0:0:0
180,56,60809,2,0,B|140:33|81:35|36:75|24:118,1,192,2|0,0:0|0:0,0:0:0
88,192,61559,2,0,B|120:236|88:280,1,96,8|0,0:0|0:0,0:0:0
156,368,62059,6,0,B|207:277|310:267,1,192,2|8,0:0|0:0,0:0:0
372,192,62809,1,0,0:0:0
280,160,63059,2,0,B|231:138|229:85,1,96,2|0,0:0|0:0,0:0:0
144,40,63559,1,8,0:0:0
112,132,63809,1,0,0:0:0
168,212,64059,6,0,B|115:213|93:262,2,96,2|0|8,0:0|0:0|0:0,0:0:0
256,262,64809,2,0,B|359:252|410:161,1,192,2|10,0:0|0:0,0:0:0
456,76,65559,21,10,0:0:0
256,52,66059,38,0,B|212:30|155:27|116:69|100:114,3,192,6|8|0|8,0:0|0:0|0:0|0:0,0:0:0
160,192,67809,1,0,0:0:0
100,268,68059,6,0,B|100:322|48:339,2,96,2|0|8,0:0|0:0|0:0,0:0:0
184,312,68809,2,0,B|235:221|338:211,1,192,2|0,0:0|0:0,0:0:0
300,124,69559,2,0,B|256:156|212:124,1,96,8|0,0:0|0:0,0:0:0
148,52,70059,5,2,0:0:0
364,52,70559,1,8,0:0:0
496,192,71059,5,2,0:0:0
424,344,71559,1,8,0:0:0
256,368,72059,70,2,B|220:272|72:348|32:156|176:68|256:164|256:164|336:68|480:156|436:342|293:277|296:344,1,768,2|4,0:0|0:0,0:0:0
464,368,74434,86,0,B|432:286|511:249,1,144,2|0,0:0|0:0,0:0:0
400,192,75059,2,0,B|454:184|464:130,2,96,2|8|8,0:0|0:0|0:0,0:0:0
324,132,75809,5,2,0:0:0
324,132,75934,1,0,0:0:0
324,132,76059,2,0,B|256:92|188:132,2,144,0|0|2,0:0|0:0|0:0,0:0:0
302,228,77059,2,0,B|256:248|210:228,2,96,0|8|8,0:0|0:0|0:0,0:0:0
348,312,77809,69,2,0:0:0
384,312,77934,1,0,0:0:0
420,312,78059,2,0,B|488:272|487:194,1,144,0|2,0:0|0:0,0:0:0
456,208,78559,2,0,B|457:157|421:122,1,96,0|2,0:0|0:0,0:0:0
324,56,79059,2,0,B|255:16|188:56,1,144,0|2,0:0|0:0,0:0:0
216,77,79559,2,0,B|171:100|159:149,1,96,0|2,0:0|0:0,0:0:0
188,244,80059,6,0,B|256:204|323:244,1,144,0|2,0:0|0:0,0:0:0
352,336,80684,1,2,0:0:0
352,336,80809,1,0,0:0:0
436,288,81059,2,0,B|412:239|452:201,2,96,0|8|8,0:0|0:0|0:0,0:0:0
324,244,81809,5,2,0:0:0
324,244,81934,1,0,0:0:0
324,244,82059,2,0,B|255:204|188:244,1,144,0|2,0:0|0:0,0:0:0
156,260,82559,2,0,B|111:288|66:260,1,96,0|2,0:0|0:0,0:0:0
110,179,83059,2,0,B|65:151|20:180,2,96,0|8|8,0:0|0:0|0:0,0:0:0
156,96,83809,5,2,0:0:0
156,96,83934,1,0,0:0:0
156,96,84059,2,0,B|234:84|282:146,1,144,0|2,0:0|0:0,0:0:0
300,176,84559,2,0,B|352:96,1,96,0|2,0:0|0:0,0:0:0
432,148,85059,2,0,B|484:68,2,96,0|8|8,0:0|0:0|0:0,0:0:0
484,232,85809,69,2,0:0:0
464,264,85934,1,0,0:0:0
444,296,86059,2,0,B|375:335|308:295,1,144,0|2,0:0|0:0,0:0:0
284,272,86559,2,0,B|232:284|220:335,1,96,0|2,0:0|0:0,0:0:0
148,272,87059,2,0,B|187:203|147:136,1,144,0|2,0:0|0:0,0:0:0
132,104,87559,2,0,B|220:68,1,96,0|2,0:0|0:0,0:0:0
256,192,88059,12,2,89130,0:0:0
