osu file format v10

[General]
AudioFilename: Weed Circulation.mp3
AudioLeadIn: 500
PreviewTime: 58046
Countdown: 0
SampleSet: Soft
StackLeniency: 0.7
Mode: 0
LetterboxInBreaks: 0

[Editor]
Bookmarks: 42061,78546
DistanceSpacing: 1.2
BeatDivisor: 4
GridSize: 4

[Metadata]
Title:Weed Circulation
TitleUnicode:Weed Circulation
Artist:Hanazawa Kana ft. Snoop Dogg
ArtistUnicode:Hanazawa Kana ft. Snoop Dogg
Creator:Milkshake
Version:Smoke weed everyday
Source:
Tags:SapphireGhost Stefan those thenutritiousguy Bakemonogatari rap mash-up
BeatmapID:179425
BeatmapSetID:59936

[Difficulty]
HPDrainRate:7
CircleSize:4
OverallDifficulty:7
ApproachRate:8
SliderMultiplier:1.9
SliderTickRate:2

[Events]
//Background and Video events
0,0,"New Canvas.png"
Video,0,"weed circulation.avi"
//Break Periods
//Storyboard Layer 0 (Background)
//Storyboard Layer 1 (Fail)
//Storyboard Layer 2 (Pass)
//Storyboard Layer 3 (Foreground)
//Storyboard Sound Samples
//Background Colour Transformations
3,100,163,162,255

[TimingPoints]
2059,500,4,2,0,55,1,0
25309,-153.846153846153,4,2,0,55,0,0
25684,-100,4,2,0,55,0,0
58059,-100,4,2,0,55,0,1
74059,-100,4,2,0,55,0,0
88059,535.714285714286,4,2,0,55,1,0
89013,-100,4,2,0,20,0,0

[Colours]
Combo1 : 254,225,171
Combo2 : 255,170,130
Combo3 : 147,201,255
Combo4 : 255,179,255

[HitObjects]
80,120,1809,1,0,0:0:0
112,88,1934,1,0,0:0:0
152,84,2059,2,0,B|228:84|228:188|304:188,1,190,0|2,0:0|0:0,0:0:0
384,112,2809,1,0,0:0:0
384,112,2934,1,0,0:0:0
384,112,3059,2,0,B|436:188|380:272,1,142.5
376,280,3559,1,2,0:0:0
264,268,3809,5,0,0:0:0
188,328,4059,2,0,B|108:328|108:220|36:220,1,190,0|2,0:0|0:0,0:0:0
172,156,4809,1,0,0:0:0
172,156,4934,1,0,0:0:0
172,156,5059,2,0,B|248:132|288:72,1,142.5
316,32,5559,2,0,B|324:88|364:112,1,95,2|0,0:0|0:0,0:0:0
452,164,6059,6,0,B|496:256|420:320,1,142.5
428,311,6559,1,2,0:0:0
414,324,6684,1,0,0:0:0
400,337,6809,1,0,0:0:0
320,284,7059,6,0,B|228:328|164:252,1,142.5
173,260,7559,1,2,0:0:0
160,246,7684,1,0,0:0:0
147,232,7809,1,0,0:0:0
108,144,8059,6,0,B|164:144|232:88,1,95
232,84,8434,1,2,0:0:0
344,64,8684,1,2,0:0:0
344,64,8809,2,0,B|404:48|460:100,1,95,0|2,0:0|0:0,0:0:0
388,163,9309,1,0,0:0:0
455,230,9559,1,8,0:0:0
284,312,10059,6,0,B|200:276|108:320,1,142.5,4|0,0:0|0:0,0:0:0
100,320,10559,1,8,0:0:0
100,208,10809,1,0,0:0:0
206,165,11059,2,0,B|258:165,4,47.5,2|0|0|0|8,0:0|0:0|0:0|0:0|0:0,0:0:0
180,76,11809,1,0,0:0:0
200,84,11934,1,0,0:0:0
224,92,12059,6,0,B|312:120|400:100,1,142.5,2|0,0:0|0:0,0:0:0
412,104,12559,2,0,B|424:48|480:28,1,95,8|0,0:0|0:0,0:0:0
500,124,13059,2,0,B|492:180|428:208,2,95,2|0|8,0:0|0:0|0:0,0:0:0
372,232,13809,1,0,0:0:0
300,296,14059,6,0,B|264:240|172:240|136:296,1,190,2|8,0:0|0:0,0:0:0
60,348,14809,1,0,0:0:0
60,348,14934,1,0,0:0:0
60,348,15059,2,0,B|28:280|80:228,1,95,2|0,0:0|0:0,0:0:0
52,212,15434,1,0,0:0:0
40,172,15559,2,0,B|152:112,1,95,8|0,0:0|0:0,0:0:0
204,84,16059,6,0,B|232:132|312:132,1,95,2|0,0:0|0:0,0:0:0
328,112,16434,1,0,0:0:0
376,136,16559,2,0,B|448:216,1,95,8|0,0:0|0:0,0:0:0
452,300,17059,5,2,0:0:0
416,332,17184,1,0,0:0:0
372,348,17309,1,8,0:0:0
324,348,17434,1,0,0:0:0
276,340,17559,2,0,B|200:292|256:192,1,142.5,8|0,0:0|0:0,0:0:0
280,184,18059,5,4,0:0:0
184,172,18309,1,0,0:0:0
100,128,18559,1,8,0:0:0
40,52,18809,1,0,0:0:0
100,128,19059,6,0,B|144:172,1,47.5,2|0,0:0|0:0,0:0:0
120,208,19309,2,0,B|104:272,1,47.5
92,296,19559,2,0,B|176:272|264:336,1,142.5,8|0,0:0|0:0,0:0:0
268,340,20059,5,2,0:0:0
312,352,20184,1,0,0:0:0
360,352,20309,1,0,0:0:0
408,340,20434,1,0,0:0:0
448,316,20559,2,0,B|504:256|460:156,1,142.5,8|0,0:0|0:0,0:0:0
464,136,21059,6,0,B|516:168,2,47.5,2|0|0,0:0|0:0|0:0,0:0:0
424,160,21434,1,0,0:0:0
384,184,21559,2,0,B|256:104,1,142.5,8|0,0:0|0:0,0:0:0
216,116,22059,6,0,B|164:136|88:108,1,95,2|0,0:0|0:0,0:0:0
160,240,22559,2,0,B|180:288|152:344,1,95,8|0,0:0|0:0,0:0:0
296,268,23059,6,0,B|348:248|424:276,1,95,2|0,0:0|0:0,0:0:0
352,144,23559,2,0,B|332:96|360:40,1,95,8|0,0:0|0:0,0:0:0
432,104,24059,5,2,0:0:0
432,104,24184,1,0,0:0:0
432,104,24309,1,0,0:0:0
480,184,24559,1,2,0:0:0
476,280,24809,1,0,0:0:0
424,360,25059,1,2,0:0:0
296,220,25309,6,0,B|208:220,1,61.7499971733095,8|8,0:0|0:0,0:0:0
60,328,25809,1,0,0:0:0
60,328,25934,1,0,0:0:0
60,328,26059,6,0,B|92:292|72:204,1,95,4|0,0:0|0:0,0:0:0
164,288,26434,1,0,0:0:0
164,288,26559,2,0,B|200:324|268:320,1,95,8|0,0:0|0:0,0:0:0
176,176,27059,1,2,0:0:0
208,88,27309,2,0,B|240:32|328:28,1,95,0|8,0:0|0:0,0:0:0
424,116,27809,5,0,0:0:0
448,156,27934,1,0,0:0:0
472,200,28059,2,0,B|380:208|364:320,1,142.5,2|0,0:0|0:0,0:0:0
372,336,28559,2,0,B|280:296,1,95,8|0,0:0|0:0,0:0:0
92,298,29059,2,0,B|180:336,2,95,2|0|8,0:0|0:0|0:0,0:0:0
56,212,29809,5,0,0:0:0
56,212,30059,2,0,B|160:212|220:104,1,190,2|8,0:0|0:0,0:0:0
244,28,30809,1,0,0:0:0
284,52,30934,1,0,0:0:0
324,76,31059,2,0,B|432:132,1,95,2|0,0:0|0:0,0:0:0
332,176,31559,2,0,B|440:232,1,95,8|0,0:0|0:0,0:0:0
416,220,32059,5,2,0:0:0
468,300,32309,1,0,0:0:0
468,300,32434,1,0,0:0:0
468,300,32559,1,2,0:0:0
312,332,32809,1,0,0:0:0
312,332,32934,1,0,0:0:0
312,332,33059,2,0,B|240:300|240:232,2,95,2|0|8,0:0|0:0|0:0,0:0:0
340,240,33809,1,0,0:0:0
432,224,34059,6,0,B|472:128|392:36,1,190,2|8,0:0|0:0,0:0:0
352,128,34809,1,0,0:0:0
352,128,34934,1,0,0:0:0
352,128,35059,2,0,B|288:168|228:168,1,95,2|0,0:0|0:0,0:0:0
168,156,35559,2,0,B|220:248,1,95,8|0,0:0|0:0,0:0:0
240,332,36059,6,0,B|176:304|108:352,1,95,2|0,0:0|0:0,0:0:0
100,248,36559,2,0,B|20:248|20:108|112:108,1,190,8|2,0:0|0:0,0:0:0
156,176,37309,1,0,0:0:0
192,208,37434,1,0,0:0:0
232,236,37559,2,0,B|284:252|328:236,1,95,8|0,0:0|0:0,0:0:0
284,152,38059,6,0,B|336:64,1,95,2|0,0:0|0:0,0:0:0
392,144,38559,2,0,B|504:96,1,95,8|0,0:0|0:0,0:0:0
484,196,39059,1,2,0:0:0
476,292,39309,1,0,0:0:0
408,359,39559,1,8,0:0:0
320,292,39809,1,0,0:0:0
320,292,39934,5,0,0:0:0
320,292,40059,2,0,B|252:244|152:288,1,142.5,2|0,0:0|0:0,0:0:0
56,312,40559,2,0,B|136:288|160:208,1,142.5,2|0,0:0|0:0,0:0:0
168,184,41059,1,2,0:0:0
168,148,41184,1,0,0:0:0
156,112,41309,2,0,B|136:68|88:48,1,95,0|8,0:0|0:0,0:0:0
296,124,42059,6,0,B|344:152|416:116,1,95,4|0,0:0|0:0,0:0:0
480,108,42559,2,0,B|492:168|424:204,2,95,2|0|2,0:0|0:0|0:0,0:0:0
388,128,43309,1,0,0:0:0
352,200,43559,2,0,B|296:184|224:212,1,95,2|0,0:0|0:0,0:0:0
164,220,44059,2,0,B|132:276|180:332,2,95,2|0|2,0:0|0:0|0:0,0:0:0
104,144,44809,1,0,0:0:0
176,80,45059,6,0,B|272:48|400:88,1,190,2|8,0:0|0:0,0:0:0
436,156,45809,1,0,0:0:0
448,260,46059,2,0,B|432:316|364:348,2,95,2|0|8,0:0|0:0|0:0,0:0:0
348,268,46809,1,0,0:0:0
348,268,46934,1,0,0:0:0
348,268,47059,2,0,B|292:296|232:288,2,95,2|0|8,0:0|0:0|0:0,0:0:0
272,208,47809,1,0,0:0:0
176,100,48059,6,0,B|176:208|92:280,1,190,2|8,0:0|0:0,0:0:0
60,184,48809,1,0,0:0:0
60,184,48934,1,0,0:0:0
60,184,49059,2,0,B|92:152|92:92,2,95,2|8|8,0:0|0:0|0:0,0:0:0
204,308,50059,6,0,B|264:264|336:296,1,95,4|0,0:0|0:0,0:0:0
388,288,50559,2,0,B|456:280|488:252,2,95,2|0|2,0:0|0:0|0:0,0:0:0
296,120,51559,5,2,0:0:0
162,45,51809,1,0,0:0:0
225,185,52059,1,2,0:0:0
255,33,52309,1,0,0:0:0
143,138,52559,1,2,0:0:0
348,300,53059,6,0,B|296:340|236:324,1,95,2|0,0:0|0:0,0:0:0
172,296,53559,2,0,B|120:272|60:300,1,95,8|0,0:0|0:0,0:0:0
194,192,54059,6,0,B|276:180|304:148,1,95,2|0,0:0|0:0,0:0:0
324,136,54434,1,0,0:0:0
364,108,54559,2,0,B|408:80|480:100,1,95,8|0,0:0|0:0,0:0:0
396,272,55059,6,0,B|348:292|292:272,1,95,2|0,0:0|0:0,0:0:0
120,128,55559,2,0,B|168:108|224:128,1,95,8|0,0:0|0:0,0:0:0
256,192,56059,12,8,57309,0:0:0
256,192,57559,5,8,0:0:0
228,92,58059,6,0,B|308:124|400:72,1,142.5,4|0,0:0|0:0,0:0:0
404,56,58559,2,0,B|456:148,1,95,8|0,0:0|0:0,0:0:0
376,212,59059,2,0,B|444:328,2,95,2|0|8,0:0|0:0|0:0,0:0:0
308,280,59809,5,0,0:0:0
308,280,59934,1,0,0:0:0
308,280,60059,2,0,B|252:296|200:280,1,95,2|0,0:0|0:0,0:0:0
224,204,60559,2,0,B|180:196|136:168,1,95,8|0,0:0|0:0,0:0:0
200,116,61059,2,0,B|308:160|412:84,1,190,2|8,0:0|0:0,0:0:0
484,60,61809,1,0,0:0:0
500,104,61934,1,0,0:0:0
500,152,62059,6,0,B|488:208|456:240,1,95,2|0,0:0|0:0,0:0:0
392,304,62559,2,0,B|348:348|280:348,1,95,8|0,0:0|0:0,0:0:0
181,230,63059,1,2,0:0:0
272,260,63309,1,0,0:0:0
327,183,63559,1,8,0:0:0
272,104,63809,1,0,0:0:0
181,135,64059,6,0,B|112:136|48:84,1,142.5,2|0,0:0|0:0,0:0:0
20,48,64559,2,0,B|60:100|12:176,1,95,8|0,0:0|0:0,0:0:0
124,232,65059,1,2,0:0:0
264,80,65309,5,2,0:0:0
308,60,65434,1,0,0:0:0
356,60,65559,1,2,0:0:0
400,80,65684,1,0,0:0:0
428,120,65809,1,0,0:0:0
436,168,65934,1,0,0:0:0
424,212,66059,6,0,B|392:288|308:308,1,142.5,4|0,0:0|0:0,0:0:0
280,308,66559,1,8,0:0:0
212,240,66809,1,0,0:0:0
144,307,67059,2,0,B|96:284|72:236,2,95,2|0|8,0:0|0:0|0:0,0:0:0
212,240,67809,1,0,0:0:0
212,240,68059,6,0,B|264:160,2,95,4|0|8,0:0|0:0|0:0,0:0:0
144,172,68809,1,0,0:0:0
144,172,68934,1,0,0:0:0
144,172,69059,2,0,B|88:152|36:172,1,95,2|8,0:0|0:0,0:0:0
184,64,69559,2,0,B|228:96|316:64,1,95,8|0,0:0|0:0,0:0:0
312,104,69934,1,0,0:0:0
340,144,70059,6,0,B|340:80|416:24|492:56,1,190,2|8,0:0|0:0,0:0:0
444,160,70809,1,0,0:0:0
488,244,71059,2,0,B|488:296|424:344,1,95,2|0,0:0|0:0,0:0:0
380,260,71559,1,8,0:0:0
264,256,71809,1,0,0:0:0
264,256,72059,6,0,B|224:316|164:324,1,95,2|0,0:0|0:0,0:0:0
148,328,72434,1,2,0:0:0
68,276,72684,1,0,0:0:0
68,276,72809,1,2,0:0:0
68,181,73059,2,0,B|68:77,2,95,2|8|8,0:0|0:0|0:0,0:0:0
180,144,73809,5,0,0:0:0
220,172,73934,1,0,0:0:0
260,196,74059,2,0,B|336:212|404:196,2,142.5,4|0|2,0:0|0:0|0:0,0:0:0
248,292,75059,2,0,B|188:272|136:304,1,95,8|0,0:0|0:0,0:0:0
112,316,75434,1,8,0:0:0
76,180,75809,5,0,0:0:0
100,140,75934,1,0,0:0:0
140,116,76059,2,0,B|204:76|300:100,2,142.5,2|0|2,0:0|0:0|0:0,0:0:0
228,176,77059,1,8,0:0:0
312,276,77309,1,0,0:0:0
312,276,77434,1,8,0:0:0
488,180,77809,2,0,B|460:228,1,47.5
488,180,78059,6,0,B|416:160|356:80,1,142.5,2|0,0:0|0:0,0:0:0
352,80,78559,1,8,0:0:0
331,59,78684,1,0,0:0:0
310,38,78809,1,0,0:0:0
232,124,79059,2,0,B|148:124|80:200,2,142.5,2|2|8,0:0|0:0|0:0,0:0:0
268,244,80059,6,0,B|344:264|400:232,1,95,2|0,0:0|0:0,0:0:0
361,199,80434,1,0,0:0:0
361,151,80559,2,0,B|469:151,1,95,8|0,0:0|0:0,0:0:0
344,64,81059,2,0,B|248:64,2,95,2|8|8,0:0|0:0|0:0,0:0:0
224,152,81809,1,0,0:0:0
190,185,81934,1,0,0:0:0
156,218,82059,6,0,B|56:294,1,95,2|0,0:0|0:0,0:0:0
168,312,82559,2,0,B|224:300|276:316,1,95,8|0,0:0|0:0,0:0:0
356,316,83059,2,0,B|416:248|404:156,1,142.5,2|0,0:0|0:0,0:0:0
400,144,83559,1,8,0:0:0
324,36,83809,1,0,0:0:0
324,36,83934,1,0,0:0:0
324,36,84059,6,0,B|256:92|164:92,1,142.5,2|0,0:0|0:0,0:0:0
96,56,84559,2,0,B|128:100|92:148,1,95,8|0,0:0|0:0,0:0:0
27,211,85059,1,2,0:0:0
27,306,85309,1,8,0:0:0
68,328,85434,1,0,0:0:0
108,352,85559,1,8,0:0:0
176,288,85809,6,0,B|220:256,1,47.5
252,288,86059,2,0,B|320:320|412:300,1,142.5,2|0,0:0|0:0,0:0:0
440,292,86559,1,8,0:0:0
512,218,86809,1,0,0:0:0
400,128,87059,6,0,B|440:104|492:112,1,95,2|0,0:0|0:0,0:0:0
356,204,87559,2,0,B|337:253|281:277,1,95,8|0,0:0|0:0,0:0:0
184,288,88059,5,2,0:0:0
116,220,88326,1,0,0:0:0
116,220,88460,1,2,0:0:0
168,140,88728,1,0,0:0:0
168,140,88862,1,2,0:0:0
272,260,89130,5,4,0:0:0
