osu file format v10

[General]
AudioFilename: Weed Circulation.mp3
AudioLeadIn: 500
PreviewTime: 58046
Countdown: 0
SampleSet: Soft
StackLeniency: 0.7
Mode: 0
LetterboxInBreaks: 0

[Editor]
Bookmarks: 42061
DistanceSpacing: 0.9
BeatDivisor: 4
GridSize: 4

[Metadata]
Title:Weed Circulation
TitleUnicode:Weed Circulation
Artist:Hanazawa Kana ft. Snoop Dogg
ArtistUnicode:Hanazawa Kana ft. Snoop Dogg
Creator:Milkshake
Version:Just once a week
Source:
Tags:SapphireGhost Stefan those thenutritiousguy Bakemonogatari rap mash-up
BeatmapID:179480
BeatmapSetID:59936

[Difficulty]
HPDrainRate:4
CircleSize:3
OverallDifficulty:4
ApproachRate:5
SliderMultiplier:1.6
SliderTickRate:2

[Events]
//Background and Video events
0,0,"New Canvas.png"
Video,0,"weed circulation.avi"
//Break Periods
//Storyboard Layer 0 (Background)
//Storyboard Layer 1 (Fail)
//Storyboard Layer 2 (Pass)
//Storyboard Layer 3 (Foreground)
//Storyboard Sound Samples
//Background Colour Transformations
3,100,163,162,255

[TimingPoints]
2059,500,4,2,0,55,1,0
58059,-100,4,2,0,55,0,1
74059,-100,4,2,0,55,0,0
88059,535.714285714286,4,2,0,55,1,0
88934,-100,4,2,0,20,0,0

[Colours]
Combo1 : 254,225,171
Combo2 : 255,170,130
Combo3 : 147,201,255
Combo4 : 255,179,255

[HitObjects]
48,108,2059,2,0,B|120:56|232:112,1,160,2|0,0:0|0:0,0:0:0
196,244,3059,2,0,B|276:288|360:232,1,160,2|0,0:0|0:0,0:0:0
228,160,4059,6,0,B|296:15,1,160,2|0,0:0|0:0,0:0:0
396,120,5059,2,0,B|308:296,1,160,2|0,0:0|0:0,0:0:0
188,312,6059,6,0,B|104:264|132:148,1,160,2|0,0:0|0:0,0:0:0
272,180,7059,2,0,B|452:180,1,160,2|0,0:0|0:0,0:0:0
348,296,8059,5,2,0:0:0
204,296,8559,1,2,0:0:0
305,194,9059,1,2,0:0:0
377,194,9309,2,8,B|457:194,1,80
364,304,10059,6,0,B|268:288|188:316,1,160,4|8,0:0|0:0,0:0:0
88,228,11059,2,0,B|48:144,2,80,2|0|8,0:0|0:0|0:0,0:0:0
188,124,12059,2,0,B|236:32,2,80,2|0|8,0:0|0:0|0:0,0:0:0
328,160,13059,2,0,B|428:160,2,80,2|0|8,0:0|0:0|0:0,0:0:0
384,292,14059,6,0,B|288:244|204:272,1,160,2|8,0:0|0:0,0:0:0
116,176,15059,2,0,B|268:96,1,160,2|8,0:0|0:0,0:0:0
404,164,16059,5,2,0:0:0
343,294,16559,1,8,0:0:0
199,294,17059,1,2,0:0:0
199,294,17309,1,8,0:0:0
199,294,17559,1,8,0:0:0
216,168,18059,6,0,B|264:244|360:260,1,160,4|8,0:0|0:0,0:0:0
440,344,19059,2,0,B|250:343,1,160,2|8,0:0|0:0,0:0:0
160,304,20059,6,0,B|224:284|256:240,1,80,2|0,0:0|0:3,0:0:0
256,208,20559,2,0,B|284:272|332:280,1,80,8|0,0:0|0:0,0:0:0
367,255,21059,2,0,B|456:256,2,80,2|0|8,0:0|0:0|0:0,0:0:0
360,128,22059,6,0,B|308:204|212:204,1,160,2|8,0:0|0:0,0:0:0
104,232,23059,2,0,B|172:232|172:340|88:340,2,160,2|8|2,0:0|0:0|0:0,0:0:0
160,120,24559,2,0,B|220:53,1,80,8|0,0:0|0:0,0:0:0
272,96,25059,2,0,B|364:64,2,80,2|8|8,0:0|0:0|0:0,0:0:0
324,232,26059,6,0,B|248:184|160:184,2,160,4|8|2,0:0|0:0|0:0,0:0:0
384,272,27309,1,0,0:0:0
384,272,27559,1,8,0:0:0
320,144,28059,6,0,B|212:100|212:100|196:60,2,160,2|8|2,0:0|0:0|0:0,0:0:0
320,216,29309,1,0,0:0:0
320,216,29559,1,8,0:0:0
176,216,30059,6,0,B|144:272|84:280|84:280|60:332,2,160,2|8|2,0:0|0:0|0:0,0:0:0
124,164,31309,2,0,B|192:104,1,80,0|8,0:0|0:0,0:0:0
285,9,32059,5,2,0:0:0
386,110,32559,1,8,0:0:0
386,110,32809,1,2,0:0:0
386,254,33309,1,2,0:0:0
386,254,33559,1,8,0:0:0
244,244,34059,6,0,B|172:292|84:256,1,160,2|8,0:0|0:0,0:0:0
91,114,35059,2,0,B|136:40,2,80,2|0|8,0:0|0:0|0:0,0:0:0
234,114,36059,5,2,0:0:0
373,79,36559,1,8,0:0:0
474,180,37059,1,2,0:0:0
474,180,37309,2,0,B|382:180,1,80,0|8,0:0|0:0,0:0:0
292,281,38059,6,0,B|220:341,1,80,2|0,0:0|0:0,0:0:0
176,284,38559,2,0,B|80:296,1,80,8|0,0:0|0:0,0:0:0
88,224,39059,2,0,B|16:172,2,80,2|0|8,0:0|0:0|0:0,0:0:0
228,260,40059,5,2,0:0:0
356,324,40559,2,0,B|444:364|524:308,2,160,8|2|8,0:0|0:0|0:0,0:0:0
288,196,42059,6,0,B|364:160|452:200,2,160,2|2|2,0:0|0:0|0:0,0:0:0
180,292,43559,2,0,B|84:292,1,80,2|0,0:0|0:0,0:0:0
80,360,44059,2,0,B|-8:360,2,80,2|0|2,0:0|0:0|0:0,0:0:0
208,292,45059,1,2,0:0:0
344,336,45559,1,8,0:0:0
404,204,46059,6,0,B|312:164|268:76,1,160,2|8,0:0|0:0,0:0:0
144,88,47059,2,0,B|56:140,2,80,2|0|8,0:0|0:0|0:0,0:0:0
20,160,48059,5,2,0:0:0
121,261,48559,1,8,0:0:0
222,159,49059,1,2,0:0:0
294,159,49309,2,0,B|384:160,1,80,8|8,0:0|0:0,0:0:0
348,300,50059,6,0,B|284:328|284:328|259:303|180:288,2,160,2|2|2,0:0|0:0|0:0,0:0:0
368,156,51559,5,2,0:0:0
307,136,51809,1,0,0:0:0
307,72,52059,1,2,0:0:0
368,52,52309,1,0,0:0:0
405,104,52559,1,2,0:0:0
324,224,53059,2,0,B|264:264|156:240,1,160,2|8,0:0|0:0,0:0:0
68,140,54059,6,0,B|4:104|3:20,2,120,2|0|8,0:0|0:0|0:0,0:0:0
140,144,55059,2,0,B|200:164|200:164|264:136,2,120,2|0|8,0:0|0:0|0:0,0:0:0
256,192,56059,12,8,57559,0:0:0
212,228,58059,6,0,B|156:308|52:320,1,160,4|8,0:0|0:0,0:0:0
224,336,59059,2,0,B|296:280|412:320,1,160,2|8,0:0|0:0,0:0:0
478,207,60059,1,2,0:0:0
376,105,60559,2,0,B|288:105,1,80,8|0,0:0|0:0,0:0:0
272,172,61059,2,0,B|168:172,2,80,2|8|8,0:0|0:0|0:0,0:0:0
228,308,62059,6,0,B|76:220,1,160,2|8,0:0|0:0,0:0:0
204,140,63059,2,0,B|296:140|368:76,2,160,2|8|2,0:0|0:0|0:0,0:0:0
200,212,64309,2,0,B|108:212,2,80,0|8|0,0:0|0:0|0:0,0:0:0
301,313,65309,2,0,B|393:313,1,80,2|8,0:0|0:0,0:0:0
348,172,66059,6,0,B|316:128|340:92|340:92|320:52|360:8,1,160,2|8,0:0|0:0,0:0:0
450,124,67059,2,0,B|470:168|470:168|466:236|398:260,1,160,2|8,0:0|0:0,0:0:0
284,324,68059,2,0,B|208:300|116:320,2,160,2|8|2,0:0|0:0|0:0,0:0:0
352,352,69309,1,8,0:0:0
352,352,69559,1,8,0:0:0
279,227,70059,6,0,B|221:157,1,80,2|0,0:0|0:0,0:0:0
264,88,70559,2,0,B|324:160,1,80,8|0,0:0|0:0,0:0:0
364,96,71059,2,0,B|428:168|528:132,2,160,2|8|2,0:0|0:0|0:0,0:0:0
261,198,72559,1,8,0:0:0
159,96,73059,1,2,0:0:0
239,96,73309,1,8,0:0:0
319,96,73559,1,8,0:0:0
372,228,74059,6,0,B|436:228|436:336|372:336,2,160,4|8|2,0:0|0:0|0:0,0:0:0
227,228,75559,1,8,0:0:0
83,228,76059,2,0,B|19:228|19:336|83:336,2,160,2|8|2,0:0|0:0|0:0,0:0:0
185,125,77559,1,8,0:0:0
286,226,78059,6,0,B|365:259|445:219,1,160,2|8,0:0|0:0,0:0:0
324,140,79059,2,0,B|268:140|268:12|348:12,1,160,2|8,0:0|0:0,0:0:0
426,118,80059,6,0,B|470:198|426:294,2,160,2|8|2,0:0|0:0|0:0,0:0:0
352,152,81309,1,8,0:0:0
352,152,81559,1,8,0:0:0
231,168,82059,6,0,B|139:170|75:130,1,160,2|8,0:0|0:0,0:0:0
160,248,83059,2,0,B|244:268|324:232,1,160,2|8,0:0|0:0,0:0:0
418,133,84059,6,0,B|474:209|422:301,1,160,2|8,0:0|0:0,0:0:0
328,182,85059,2,0,B|140:182,1,160,2|8,0:0|0:0,0:0:0
66,80,86059,6,0,B|162:80,1,80,2|0,0:0|0:0,0:0:0
196,130,86559,2,0,B|296:130,1,80,8|0,0:0|0:0,0:0:0
326,180,87059,2,0,B|418:180,2,80,2|0|8,0:0|0:0|0:0,0:0:0
224,281,88059,6,0,B|160:265|128:208,2,120,0|0|2,0:0|0:0|0:0,0:0:0
296,281,89130,1,4,0:0:0
