osu file format v14

[General]
AudioFilename: happy endings.mp3
AudioLeadIn: 0
PreviewTime: 59513
Countdown: 0
SampleSet: Normal
StackLeniency: 0.7
Mode: 1
LetterboxInBreaks: 0
WidescreenStoryboard: 0

[Editor]
Bookmarks: 89513
DistanceSpacing: 0.5
BeatDivisor: 4
GridSize: 32
TimelineZoom: 1

[Metadata]
Title:happy endings
TitleUnicode:happy endings
Artist:Hanazawa Kana
ArtistUnicode:花澤香菜
Creator:Nardoxyribonucleic
Version:Meet's Oni
Source:絶園のテンペスト
Tags:Taiko Zetsuen no Tempest Ending Snowy Heart meetmeetdee
BeatmapID:244078
BeatmapSetID:80333

[Difficulty]
HPDrainRate:5
CircleSize:4
OverallDifficulty:5
ApproachRate:7
SliderMultiplier:1.4
SliderTickRate:1

[Events]
//Background and Video events
0,0,"bg.jpg",0,0
//Break Periods
2,181560,187844
//Storyboard Layer 0 (Background)
//Storyboard Layer 1 (Fail)
//Storyboard Layer 2 (Pass)
//Storyboard Layer 3 (Foreground)
//Storyboard Sound Samples

[TimingPoints]
437,461.538461538462,4,1,0,85,1,0
59513,-100,4,1,0,85,0,1
89052,-100,4,1,0,85,0,0
137052,-100,4,1,0,85,0,1
166590,-100,4,1,0,85,0,0
214590,-100,4,1,0,85,0,1
240437,-100,4,1,0,85,0,0
255206,-100,4,1,0,50,0,0
256360,-100,4,1,0,35,0,0
257513,-100,4,1,0,20,0,0

[Colours]
Combo1 : 0,255,255
Combo2 : 255,0,0

[HitObjects]
256,192,2283,5,4,0:0:0:0:
256,192,2744,1,2,0:0:0:0:
256,192,3206,1,0,0:0:0:0:
256,192,3437,1,2,0:0:0:0:
256,192,3667,1,0,0:0:0:0:
256,192,3898,1,2,0:0:0:0:
256,192,4360,1,2,0:0:0:0:
256,192,4590,1,0,0:0:0:0:
256,192,4821,1,2,0:0:0:0:
256,192,5052,1,0,0:0:0:0:
256,192,5167,1,0,0:0:0:0:
256,192,5283,1,2,0:0:0:0:
256,192,5513,1,2,0:0:0:0:
256,192,5744,1,2,0:0:0:0:
256,192,5975,1,0,0:0:0:0:
256,192,6437,1,2,0:0:0:0:
256,192,6898,1,0,0:0:0:0:
256,192,7129,1,2,0:0:0:0:
256,192,7360,1,0,0:0:0:0:
256,192,7590,1,2,0:0:0:0:
256,192,8052,1,0,0:0:0:0:
256,192,8283,1,2,0:0:0:0:
256,192,8398,1,2,0:0:0:0:
256,192,8513,1,0,0:0:0:0:
256,192,8744,1,2,0:0:0:0:
256,192,8975,1,0,0:0:0:0:
256,192,9206,1,2,0:0:0:0:
256,192,9667,1,4,0:0:0:0:
256,192,10129,1,2,0:0:0:0:
256,192,10590,1,0,0:0:0:0:
256,192,10821,1,2,0:0:0:0:
256,192,11052,1,0,0:0:0:0:
256,192,11283,1,2,0:0:0:0:
256,192,11398,1,2,0:0:0:0:
256,192,11513,1,2,0:0:0:0:
256,192,11744,1,2,0:0:0:0:
256,192,11975,1,0,0:0:0:0:
256,192,12206,1,2,0:0:0:0:
256,192,12437,1,0,0:0:0:0:
256,192,12552,1,0,0:0:0:0:
256,192,12667,1,2,0:0:0:0:
256,192,12898,1,2,0:0:0:0:
256,192,13013,1,2,0:0:0:0:
256,192,13129,1,2,0:0:0:0:
256,192,13244,1,2,0:0:0:0:
256,192,13360,1,0,0:0:0:0:
256,192,13821,1,2,0:0:0:0:
256,192,14283,1,0,0:0:0:0:
256,192,14513,1,2,0:0:0:0:
256,192,14744,1,0,0:0:0:0:
256,192,14975,1,2,0:0:0:0:
256,192,15090,1,2,0:0:0:0:
256,192,15206,1,2,0:0:0:0:
256,192,16360,1,0,0:0:0:0:
256,192,16475,1,0,0:0:0:0:
256,192,16590,1,2,0:0:0:0:
256,192,16821,1,2,0:0:0:0:
256,192,17052,1,4,0:0:0:0:
256,192,17513,1,2,0:0:0:0:
256,192,17744,1,0,0:0:0:0:
256,192,17975,1,0,0:0:0:0:
256,192,18206,1,0,0:0:0:0:
256,192,18321,1,0,0:0:0:0:
256,192,18437,5,2,0:0:0:0:
256,192,18667,1,0,0:0:0:0:
256,192,18898,1,2,0:0:0:0:
256,192,19129,1,2,0:0:0:0:
256,192,19244,1,0,0:0:0:0:
256,192,19360,5,0,0:0:0:0:
256,192,19590,1,2,0:0:0:0:
256,192,19821,5,0,0:0:0:0:
256,192,20052,1,0,0:0:0:0:
256,192,20283,5,2,0:0:0:0:
256,192,20513,1,2,0:0:0:0:
256,192,20975,1,0,0:0:0:0:
256,192,21206,5,2,0:0:0:0:
256,192,21437,1,0,0:0:0:0:
256,192,21667,5,2,0:0:0:0:
256,192,21783,1,2,0:0:0:0:
256,192,21898,1,0,0:0:0:0:
256,192,22013,5,0,0:0:0:0:
256,192,22129,1,2,0:0:0:0:
256,192,22360,1,2,0:0:0:0:
256,192,22590,5,0,0:0:0:0:
256,192,22821,1,2,0:0:0:0:
256,192,22937,1,0,0:0:0:0:
256,192,23052,5,0,0:0:0:0:
256,192,23283,1,2,0:0:0:0:
256,192,23513,1,0,0:0:0:0:
256,192,23744,5,0,0:0:0:0:
256,192,23860,1,0,0:0:0:0:
256,192,23975,1,2,0:0:0:0:
256,192,24206,1,2,0:0:0:0:
256,192,24437,5,0,0:0:0:0:
256,192,24898,5,2,0:0:0:0:
256,192,25129,5,0,0:0:0:0:
256,192,25590,5,0,0:0:0:0:
256,192,25821,1,0,0:0:0:0:
256,192,26052,5,2,0:0:0:0:
256,192,26283,1,0,0:0:0:0:
256,192,26513,5,0,0:0:0:0:
256,192,26629,1,0,0:0:0:0:
256,192,26744,1,2,0:0:0:0:
256,192,26975,5,0,0:0:0:0:
256,192,27437,1,0,0:0:0:0:
256,192,27667,1,2,0:0:0:0:
256,192,27898,5,0,0:0:0:0:
256,192,28013,1,0,0:0:0:0:
256,192,28129,1,2,0:0:0:0:
256,192,28360,5,2,0:0:0:0:
256,192,28590,1,0,0:0:0:0:
256,192,28821,5,2,0:0:0:0:
256,192,29052,1,2,0:0:0:0:
256,192,29167,1,2,0:0:0:0:
256,192,29283,5,0,0:0:0:0:
256,192,29513,1,2,0:0:0:0:
256,192,29744,5,0,0:0:0:0:
256,192,29975,1,0,0:0:0:0:
256,192,30090,5,0,0:0:0:0:
256,192,30321,1,2,0:0:0:0:
256,192,30437,1,0,0:0:0:0:
256,192,30667,5,2,0:0:0:0:
256,192,30898,1,0,0:0:0:0:
256,192,31013,1,0,0:0:0:0:
256,192,31129,1,2,0:0:0:0:
256,192,31244,5,0,0:0:0:0:
256,192,31360,1,2,0:0:0:0:
256,192,31590,5,0,0:0:0:0:
256,192,31821,1,6,0:0:0:0:
256,192,32052,5,0,0:0:0:0:
256,192,32167,1,0,0:0:0:0:
256,192,32283,1,2,0:0:0:0:
256,192,32513,5,2,0:0:0:0:
256,192,32975,5,0,0:0:0:0:
256,192,33206,1,2,0:0:0:0:
256,192,33437,5,2,0:0:0:0:
256,192,33667,1,0,0:0:0:0:
256,192,33898,5,2,0:0:0:0:
256,192,34013,1,0,0:0:0:0:
256,192,34129,1,2,0:0:0:0:
256,192,34360,1,0,0:0:0:0:
256,192,34590,1,0,0:0:0:0:
256,192,34821,5,0,0:0:0:0:
256,192,35052,1,2,0:0:0:0:
256,192,35283,5,2,0:0:0:0:
256,192,35744,5,2,0:0:0:0:
256,192,35975,1,0,0:0:0:0:
256,192,36206,5,0,0:0:0:0:
256,192,36437,1,2,0:0:0:0:
256,192,36552,1,2,0:0:0:0:
256,192,36667,1,0,0:0:0:0:
256,192,36783,1,0,0:0:0:0:
256,192,36898,1,2,0:0:0:0:
256,192,37129,1,0,0:0:0:0:
256,192,37360,5,2,0:0:0:0:
256,192,37590,1,0,0:0:0:0:
256,192,37706,1,0,0:0:0:0:
256,192,37821,5,2,0:0:0:0:
256,192,38052,1,2,0:0:0:0:
256,192,38283,1,0,0:0:0:0:
256,192,38513,5,0,0:0:0:0:
256,192,38629,1,0,0:0:0:0:
256,192,38744,1,2,0:0:0:0:
256,192,38975,1,2,0:0:0:0:
256,192,39206,1,0,0:0:0:0:
256,192,39667,5,2,0:0:0:0:
256,192,39898,1,0,0:0:0:0:
256,192,40360,5,0,0:0:0:0:
256,192,40590,5,2,0:0:0:0:
256,192,40821,1,0,0:0:0:0:
256,192,41052,5,2,0:0:0:0:
256,192,41283,1,2,0:0:0:0:
256,192,41398,1,2,0:0:0:0:
256,192,41513,5,2,0:0:0:0:
256,192,41744,1,0,0:0:0:0:
256,192,41975,5,0,0:0:0:0:
256,192,42090,5,0,0:0:0:0:
256,192,42206,1,0,0:0:0:0:
256,192,42437,1,2,0:0:0:0:
256,192,42898,5,4,0:0:0:0:
256,192,43129,1,2,0:0:0:0:
256,192,43244,5,2,0:0:0:0:
256,192,43360,1,2,0:0:0:0:
256,192,43475,1,2,0:0:0:0:
256,192,43590,1,0,0:0:0:0:
256,192,43821,5,2,0:0:0:0:
256,192,44052,1,2,0:0:0:0:
256,192,44283,5,0,0:0:0:0:
256,192,44398,1,0,0:0:0:0:
256,192,44513,1,2,0:0:0:0:
256,192,44744,5,4,0:0:0:0:
256,192,44975,1,2,0:0:0:0:
256,192,45206,5,2,0:0:0:0:
256,192,45321,1,2,0:0:0:0:
256,192,45437,1,2,0:0:0:0:
256,192,45667,5,2,0:0:0:0:
256,192,45898,1,0,0:0:0:0:
256,192,46129,5,0,0:0:0:0:
256,192,46360,1,0,0:0:0:0:
256,192,46475,1,0,0:0:0:0:
256,192,46590,5,2,0:0:0:0:
256,192,46821,1,2,0:0:0:0:
256,192,47052,5,0,0:0:0:0:
256,192,47167,1,0,0:0:0:0:
256,192,47283,1,2,0:0:0:0:
256,192,47398,1,0,0:0:0:0:
256,192,47513,5,2,0:0:0:0:
256,192,47744,1,2,0:0:0:0:
256,192,47975,5,0,0:0:0:0:
256,192,48206,1,0,0:0:0:0:
256,192,48321,1,0,0:0:0:0:
256,192,48437,5,0,0:0:0:0:
256,192,48667,1,2,0:0:0:0:
256,192,48898,5,0,0:0:0:0:
256,192,49360,5,2,0:0:0:0:
256,192,49590,1,0,0:0:0:0:
256,192,49821,5,2,0:0:0:0:
256,192,50052,1,0,0:0:0:0:
256,192,50167,1,0,0:0:0:0:
256,192,50283,5,0,0:0:0:0:
256,192,50513,1,0,0:0:0:0:
256,192,50744,5,2,0:0:0:0:
256,192,50975,1,2,0:0:0:0:
256,192,51090,1,0,0:0:0:0:
256,192,51206,1,0,0:0:0:0:
256,192,51437,5,0,0:0:0:0:
256,192,51552,1,0,0:0:0:0:
256,192,51667,1,2,0:0:0:0:
256,192,51783,1,0,0:0:0:0:
256,192,51898,5,0,0:0:0:0:
256,192,52129,5,4,0:0:0:0:
256,192,52590,5,2,0:0:0:0:
256,192,53052,5,0,0:0:0:0:
256,192,53167,1,0,0:0:0:0:
256,192,53283,1,2,0:0:0:0:
256,192,53513,5,0,0:0:0:0:
256,192,53744,1,2,0:0:0:0:
256,192,53975,5,0,0:0:0:0:
256,192,54206,1,2,0:0:0:0:
256,192,54437,5,2,0:0:0:0:
256,192,54667,1,2,0:0:0:0:
256,192,54783,1,0,0:0:0:0:
256,192,54898,1,2,0:0:0:0:
256,192,55129,5,2,0:0:0:0:
256,192,55360,5,0,0:0:0:0:
256,192,55590,1,2,0:0:0:0:
256,192,55706,1,2,0:0:0:0:
256,192,55821,5,0,0:0:0:0:
256,192,56283,5,2,0:0:0:0:
256,192,56398,1,2,0:0:0:0:
256,192,56513,1,2,0:0:0:0:
256,192,56629,1,2,0:0:0:0:
256,192,56744,1,0,0:0:0:0:
256,192,56860,1,0,0:0:0:0:
256,192,56975,5,2,0:0:0:0:
256,192,57090,1,2,0:0:0:0:
256,192,57206,1,0,0:0:0:0:
256,192,57321,1,2,0:0:0:0:
256,192,57437,5,2,0:0:0:0:
256,192,57552,1,2,0:0:0:0:
256,192,57667,5,0,0:0:0:0:
256,192,58129,5,6,0:0:0:0:
256,192,58590,5,0,0:0:0:0:
256,192,58821,1,0,0:0:0:0:
256,192,59052,5,2,0:0:0:0:
256,192,59167,1,2,0:0:0:0:
256,192,59283,1,0,0:0:0:0:
256,192,59513,5,4,0:0:0:0:
256,192,59744,1,0,0:0:0:0:
256,192,59975,5,2,0:0:0:0:
256,192,60206,1,2,0:0:0:0:
256,192,60321,1,2,0:0:0:0:
256,192,60437,5,0,0:0:0:0:
256,192,60667,1,2,0:0:0:0:
256,192,60898,5,0,0:0:0:0:
256,192,61013,5,0,0:0:0:0:
256,192,61129,1,2,0:0:0:0:
256,192,61244,1,2,0:0:0:0:
256,192,61360,1,0,0:0:0:0:
256,192,61590,1,2,0:0:0:0:
256,192,61821,5,2,0:0:0:0:
256,192,62052,1,0,0:0:0:0:
256,192,62283,5,2,0:0:0:0:
256,192,62513,1,2,0:0:0:0:
256,192,62629,1,2,0:0:0:0:
256,192,62744,5,0,0:0:0:0:
256,192,62975,1,2,0:0:0:0:
256,192,63206,5,0,0:0:0:0:
256,192,63667,1,2,0:0:0:0:
256,192,64129,5,2,0:0:0:0:
256,192,64244,1,0,0:0:0:0:
256,192,64360,1,0,0:0:0:0:
256,192,64590,1,0,0:0:0:0:
256,192,64821,1,2,0:0:0:0:
256,192,65052,5,0,0:0:0:0:
256,192,65167,1,0,0:0:0:0:
256,192,65283,1,2,0:0:0:0:
256,192,65513,5,0,0:0:0:0:
256,192,65629,1,0,0:0:0:0:
256,192,65744,1,0,0:0:0:0:
256,192,65975,5,0,0:0:0:0:
256,192,66206,1,2,0:0:0:0:
256,192,66437,5,0,0:0:0:0:
256,192,66552,1,0,0:0:0:0:
256,192,66667,1,0,0:0:0:0:
256,192,66898,1,2,0:0:0:0:
256,192,67129,5,0,0:0:0:0:
256,192,67360,5,2,0:0:0:0:
256,192,67590,1,0,0:0:0:0:
256,192,67706,1,0,0:0:0:0:
256,192,67821,5,2,0:0:0:0:
256,192,68283,1,2,0:0:0:0:
256,192,68513,5,2,0:0:0:0:
256,192,68744,5,0,0:0:0:0:
256,192,68975,1,0,0:0:0:0:
256,192,69090,1,0,0:0:0:0:
256,192,69206,5,2,0:0:0:0:
256,192,69667,5,2,0:0:0:0:
256,192,69783,1,2,0:0:0:0:
256,192,69898,1,2,0:0:0:0:
256,192,70129,5,2,0:0:0:0:
256,192,70360,1,0,0:0:0:0:
256,192,70590,5,0,0:0:0:0:
256,192,70821,1,2,0:0:0:0:
256,192,71052,5,2,0:0:0:0:
256,192,71513,5,0,0:0:0:0:
256,192,71629,1,0,0:0:0:0:
256,192,71744,1,2,0:0:0:0:
256,192,71860,5,0,0:0:0:0:
256,192,71975,1,2,0:0:0:0:
256,192,72206,1,2,0:0:0:0:
256,192,72437,5,0,0:0:0:0:
256,192,72552,5,2,0:0:0:0:
256,192,72667,1,0,0:0:0:0:
256,192,72898,1,2,0:0:0:0:
256,192,73129,1,0,0:0:0:0:
256,192,73360,5,2,0:0:0:0:
256,192,73475,1,2,0:0:0:0:
256,192,73590,1,2,0:0:0:0:
256,192,73706,1,2,0:0:0:0:
256,192,73821,1,2,0:0:0:0:
256,192,74052,1,2,0:0:0:0:
256,192,74283,5,4,0:0:0:0:
256,192,74513,1,0,0:0:0:0:
256,192,74744,5,2,0:0:0:0:
256,192,74975,1,2,0:0:0:0:
256,192,75090,1,2,0:0:0:0:
256,192,75206,5,0,0:0:0:0:
256,192,75437,1,2,0:0:0:0:
256,192,75667,1,2,0:0:0:0:
256,192,75898,1,0,0:0:0:0:
256,192,76013,5,0,0:0:0:0:
256,192,76129,1,2,0:0:0:0:
256,192,76244,1,2,0:0:0:0:
256,192,76360,1,0,0:0:0:0:
256,192,76590,5,2,0:0:0:0:
256,192,76821,1,0,0:0:0:0:
256,192,77052,1,2,0:0:0:0:
256,192,77167,1,2,0:0:0:0:
256,192,77283,1,0,0:0:0:0:
256,192,77513,5,2,0:0:0:0:
256,192,77975,5,0,0:0:0:0:
256,192,78206,1,0,0:0:0:0:
256,192,78321,1,0,0:0:0:0:
256,192,78437,5,2,0:0:0:0:
256,192,78667,1,2,0:0:0:0:
256,192,78898,5,0,0:0:0:0:
256,192,79013,1,0,0:0:0:0:
256,192,79129,1,2,0:0:0:0:
256,192,79360,5,2,0:0:0:0:
256,192,79590,1,2,0:0:0:0:
256,192,79706,1,0,0:0:0:0:
256,192,79821,5,2,0:0:0:0:
256,192,79937,1,2,0:0:0:0:
256,192,80052,1,0,0:0:0:0:
256,192,80167,1,0,0:0:0:0:
256,192,80283,5,2,0:0:0:0:
256,192,80513,1,2,0:0:0:0:
256,192,80744,5,0,0:0:0:0:
256,192,80975,1,0,0:0:0:0:
256,192,81206,5,2,0:0:0:0:
256,192,81321,1,2,0:0:0:0:
256,192,81437,1,0,0:0:0:0:
256,192,81667,1,2,0:0:0:0:
256,192,81898,5,2,0:0:0:0:
256,192,82129,5,0,0:0:0:0:
256,192,82360,1,2,0:0:0:0:
256,192,82475,1,0,0:0:0:0:
256,192,82590,5,2,0:0:0:0:
256,192,83052,1,2,0:0:0:0:
256,192,83283,5,2,0:0:0:0:
256,192,83513,1,0,0:0:0:0:
256,192,83744,5,2,0:0:0:0:
256,192,83860,1,0,0:0:0:0:
256,192,83975,1,2,0:0:0:0:
256,192,84437,5,6,0:0:0:0:
256,192,84898,5,6,0:0:0:0:
256,192,85360,5,0,0:0:0:0:
256,192,85590,1,0,0:0:0:0:
256,192,85706,1,0,0:0:0:0:
256,192,85821,5,2,0:0:0:0:
256,192,86052,1,2,0:0:0:0:
256,192,86283,5,0,0:0:0:0:
256,192,86513,1,0,0:0:0:0:
256,192,86629,1,0,0:0:0:0:
256,192,86744,1,2,0:0:0:0:
256,192,86975,5,2,0:0:0:0:
256,192,87206,1,0,0:0:0:0:
256,192,87437,5,0,0:0:0:0:
256,192,87552,1,0,0:0:0:0:
256,192,87667,1,2,0:0:0:0:
256,192,88129,5,2,0:0:0:0:
256,192,88590,1,2,0:0:0:0:
256,192,89052,5,4,0:0:0:0:
256,192,89513,1,2,0:0:0:0:
256,192,89975,1,0,0:0:0:0:
256,192,90206,1,2,0:0:0:0:
256,192,90436,1,0,0:0:0:0:
256,192,90667,1,2,0:0:0:0:
256,192,91129,1,2,0:0:0:0:
256,192,91359,1,0,0:0:0:0:
256,192,91590,1,2,0:0:0:0:
256,192,91821,1,0,0:0:0:0:
256,192,91936,1,0,0:0:0:0:
256,192,92052,1,2,0:0:0:0:
256,192,92282,1,2,0:0:0:0:
256,192,92513,1,2,0:0:0:0:
256,192,92744,1,0,0:0:0:0:
256,192,93206,1,2,0:0:0:0:
256,192,93667,1,0,0:0:0:0:
256,192,93898,1,2,0:0:0:0:
256,192,94129,1,0,0:0:0:0:
256,192,94359,1,2,0:0:0:0:
256,192,94475,1,2,0:0:0:0:
256,192,94590,1,2,0:0:0:0:
256,192,95744,5,2,0:0:0:0:
256,192,95975,1,0,0:0:0:0:
256,192,96206,1,2,0:0:0:0:
256,192,96321,1,2,0:0:0:0:
256,192,96437,5,0,0:0:0:0:
256,192,96667,1,0,0:0:0:0:
256,192,96898,5,2,0:0:0:0:
256,192,97129,1,0,0:0:0:0:
256,192,97360,5,0,0:0:0:0:
256,192,97590,1,2,0:0:0:0:
256,192,97821,5,2,0:0:0:0:
256,192,97937,1,0,0:0:0:0:
256,192,98052,1,0,0:0:0:0:
256,192,98167,1,0,0:0:0:0:
256,192,98283,5,2,0:0:0:0:
256,192,98513,1,0,0:0:0:0:
256,192,98744,5,2,0:0:0:0:
256,192,98975,1,0,0:0:0:0:
256,192,99437,1,0,0:0:0:0:
256,192,99667,5,0,0:0:0:0:
256,192,99898,1,2,0:0:0:0:
256,192,100013,5,0,0:0:0:0:
256,192,100129,1,2,0:0:0:0:
256,192,100360,1,2,0:0:0:0:
256,192,100590,1,0,0:0:0:0:
256,192,100821,1,0,0:0:0:0:
256,192,101052,5,0,0:0:0:0:
256,192,101167,1,0,0:0:0:0:
256,192,101283,1,2,0:0:0:0:
256,192,101398,1,2,0:0:0:0:
256,192,101513,5,0,0:0:0:0:
256,192,101744,1,2,0:0:0:0:
256,192,101975,5,0,0:0:0:0:
256,192,102206,1,2,0:0:0:0:
256,192,102437,5,0,0:0:0:0:
256,192,102552,1,0,0:0:0:0:
256,192,102667,1,2,0:0:0:0:
256,192,102898,1,0,0:0:0:0:
256,192,103129,5,2,0:0:0:0:
256,192,103244,1,2,0:0:0:0:
256,192,103360,1,2,0:0:0:0:
256,192,103590,1,2,0:0:0:0:
256,192,103821,5,0,0:0:0:0:
256,192,104283,5,2,0:0:0:0:
256,192,104513,5,0,0:0:0:0:
256,192,104975,5,0,0:0:0:0:
256,192,105206,1,0,0:0:0:0:
256,192,105437,5,2,0:0:0:0:
256,192,105667,1,0,0:0:0:0:
256,192,105898,5,0,0:0:0:0:
256,192,106013,1,0,0:0:0:0:
256,192,106129,1,2,0:0:0:0:
256,192,106360,5,0,0:0:0:0:
256,192,106821,5,0,0:0:0:0:
256,192,106937,1,2,0:0:0:0:
256,192,107052,1,0,0:0:0:0:
256,192,107283,5,2,0:0:0:0:
256,192,107513,1,2,0:0:0:0:
256,192,107744,5,0,0:0:0:0:
256,192,107860,1,0,0:0:0:0:
256,192,107975,1,2,0:0:0:0:
256,192,108206,5,0,0:0:0:0:
256,192,108437,1,2,0:0:0:0:
256,192,108552,1,2,0:0:0:0:
256,192,108667,5,0,0:0:0:0:
256,192,108898,1,2,0:0:0:0:
256,192,109129,5,0,0:0:0:0:
256,192,109360,1,0,0:0:0:0:
256,192,109475,1,0,0:0:0:0:
256,192,109706,5,2,0:0:0:0:
256,192,109821,1,0,0:0:0:0:
256,192,110052,1,0,0:0:0:0:
256,192,110283,1,0,0:0:0:0:
256,192,110398,1,0,0:0:0:0:
256,192,110513,5,2,0:0:0:0:
256,192,110744,1,0,0:0:0:0:
256,192,110975,5,2,0:0:0:0:
256,192,111206,1,2,0:0:0:0:
256,192,111437,5,2,0:0:0:0:
256,192,111552,1,0,0:0:0:0:
256,192,111667,1,2,0:0:0:0:
256,192,111898,5,2,0:0:0:0:
256,192,112360,5,0,0:0:0:0:
256,192,112590,1,2,0:0:0:0:
256,192,112706,1,2,0:0:0:0:
256,192,112821,5,0,0:0:0:0:
256,192,112937,1,0,0:0:0:0:
256,192,113052,1,0,0:0:0:0:
256,192,113283,5,0,0:0:0:0:
256,192,113398,1,0,0:0:0:0:
256,192,113513,1,2,0:0:0:0:
256,192,113744,5,0,0:0:0:0:
256,192,114206,5,0,0:0:0:0:
256,192,114437,1,2,0:0:0:0:
256,192,114667,5,2,0:0:0:0:
256,192,114783,5,0,0:0:0:0:
256,192,114898,1,0,0:0:0:0:
256,192,115129,1,2,0:0:0:0:
256,192,115360,1,0,0:0:0:0:
256,192,115590,5,2,0:0:0:0:
256,192,115821,1,2,0:0:0:0:
256,192,115937,1,2,0:0:0:0:
256,192,116052,5,0,0:0:0:0:
256,192,116167,1,0,0:0:0:0:
256,192,116283,1,2,0:0:0:0:
256,192,116513,1,0,0:0:0:0:
256,192,116744,5,2,0:0:0:0:
256,192,116975,1,2,0:0:0:0:
256,192,117206,5,0,0:0:0:0:
256,192,117437,1,2,0:0:0:0:
256,192,117898,5,0,0:0:0:0:
256,192,118129,1,0,0:0:0:0:
256,192,118360,1,2,0:0:0:0:
256,192,118590,5,0,0:0:0:0:
256,192,119052,5,2,0:0:0:0:
256,192,119283,1,0,0:0:0:0:
256,192,119744,5,0,0:0:0:0:
256,192,119975,5,2,0:0:0:0:
256,192,120206,1,0,0:0:0:0:
256,192,120437,5,2,0:0:0:0:
256,192,120667,1,2,0:0:0:0:
256,192,120783,1,2,0:0:0:0:
256,192,120898,5,2,0:0:0:0:
256,192,121129,1,0,0:0:0:0:
256,192,121244,5,2,0:0:0:0:
256,192,121360,1,0,0:0:0:0:
256,192,121590,1,0,0:0:0:0:
256,192,121821,5,2,0:0:0:0:
256,192,122283,5,4,0:0:0:0:
256,192,122513,1,2,0:0:0:0:
256,192,122629,5,2,0:0:0:0:
256,192,122744,1,2,0:0:0:0:
256,192,122860,1,2,0:0:0:0:
256,192,122975,1,0,0:0:0:0:
256,192,123206,5,2,0:0:0:0:
256,192,123437,1,2,0:0:0:0:
256,192,123667,5,0,0:0:0:0:
256,192,123783,1,0,0:0:0:0:
256,192,123898,1,2,0:0:0:0:
256,192,124129,5,4,0:0:0:0:
256,192,124360,1,0,0:0:0:0:
256,192,124590,5,2,0:0:0:0:
256,192,124821,1,0,0:0:0:0:
256,192,125052,5,2,0:0:0:0:
256,192,125167,1,2,0:0:0:0:
256,192,125283,1,0,0:0:0:0:
256,192,125513,5,2,0:0:0:0:
256,192,125744,1,0,0:0:0:0:
256,192,125860,1,2,0:0:0:0:
256,192,125975,5,0,0:0:0:0:
256,192,126090,1,0,0:0:0:0:
256,192,126206,1,2,0:0:0:0:
256,192,126437,5,0,0:0:0:0:
256,192,126667,1,2,0:0:0:0:
256,192,126783,1,0,0:0:0:0:
256,192,126898,5,2,0:0:0:0:
256,192,127013,1,0,0:0:0:0:
256,192,127129,1,2,0:0:0:0:
256,192,127360,5,0,0:0:0:0:
256,192,127590,1,0,0:0:0:0:
256,192,127706,1,0,0:0:0:0:
256,192,127821,5,0,0:0:0:0:
256,192,128052,1,2,0:0:0:0:
256,192,128283,1,2,0:0:0:0:
256,192,128744,5,0,0:0:0:0:
256,192,128975,1,2,0:0:0:0:
256,192,129206,5,0,0:0:0:0:
256,192,129437,1,2,0:0:0:0:
256,192,129552,1,2,0:0:0:0:
256,192,129667,1,2,0:0:0:0:
256,192,129898,1,0,0:0:0:0:
256,192,130013,1,0,0:0:0:0:
256,192,130129,5,2,0:0:0:0:
256,192,130360,1,2,0:0:0:0:
256,192,130475,1,2,0:0:0:0:
256,192,130590,1,0,0:0:0:0:
256,192,130821,5,0,0:0:0:0:
256,192,130937,1,0,0:0:0:0:
256,192,131052,1,2,0:0:0:0:
256,192,131167,1,0,0:0:0:0:
256,192,131283,5,0,0:0:0:0:
256,192,131513,5,4,0:0:0:0:
256,192,131975,5,2,0:0:0:0:
256,192,132437,5,0,0:0:0:0:
256,192,132552,1,0,0:0:0:0:
256,192,132667,1,2,0:0:0:0:
256,192,132898,5,0,0:0:0:0:
256,192,133129,1,2,0:0:0:0:
256,192,133360,5,0,0:0:0:0:
256,192,133590,1,2,0:0:0:0:
256,192,133821,5,2,0:0:0:0:
256,192,134052,1,0,0:0:0:0:
256,192,134167,1,0,0:0:0:0:
256,192,134283,1,2,0:0:0:0:
256,192,134398,1,2,0:0:0:0:
256,192,134513,5,2,0:0:0:0:
256,192,134744,5,2,0:0:0:0:
256,192,134860,1,2,0:0:0:0:
256,192,134975,1,2,0:0:0:0:
256,192,135090,5,2,0:0:0:0:
256,192,135206,1,0,0:0:0:0:
256,192,135667,5,2,0:0:0:0:
256,192,135783,1,2,0:0:0:0:
256,192,135898,1,0,0:0:0:0:
256,192,136013,1,0,0:0:0:0:
256,192,136129,5,2,0:0:0:0:
256,192,136244,1,2,0:0:0:0:
256,192,136360,1,2,0:0:0:0:
256,192,136475,1,2,0:0:0:0:
256,192,136590,5,0,0:0:0:0:
256,192,136706,1,0,0:0:0:0:
256,192,136821,1,0,0:0:0:0:
256,192,136937,1,0,0:0:0:0:
256,192,137052,5,2,0:0:0:0:
256,192,137283,1,0,0:0:0:0:
256,192,137513,5,2,0:0:0:0:
256,192,137744,1,2,0:0:0:0:
256,192,137860,1,2,0:0:0:0:
256,192,137975,5,0,0:0:0:0:
256,192,138206,1,2,0:0:0:0:
256,192,138437,5,0,0:0:0:0:
256,192,138667,1,2,0:0:0:0:
256,192,138783,1,2,0:0:0:0:
256,192,138898,1,0,0:0:0:0:
256,192,139129,1,2,0:0:0:0:
256,192,139360,5,0,0:0:0:0:
256,192,139590,1,0,0:0:0:0:
256,192,139821,5,2,0:0:0:0:
256,192,140052,1,0,0:0:0:0:
256,192,140167,1,0,0:0:0:0:
256,192,140283,5,2,0:0:0:0:
256,192,140513,1,2,0:0:0:0:
256,192,140744,5,0,0:0:0:0:
256,192,141206,5,2,0:0:0:0:
256,192,141667,5,2,0:0:0:0:
256,192,141783,1,2,0:0:0:0:
256,192,141898,1,0,0:0:0:0:
256,192,142129,5,0,0:0:0:0:
256,192,142360,1,0,0:0:0:0:
256,192,142475,5,0,0:0:0:0:
256,192,142590,1,2,0:0:0:0:
256,192,142821,1,2,0:0:0:0:
256,192,143052,5,0,0:0:0:0:
256,192,143283,1,0,0:0:0:0:
256,192,143513,5,0,0:0:0:0:
256,192,143629,1,0,0:0:0:0:
256,192,143744,1,2,0:0:0:0:
256,192,143975,5,0,0:0:0:0:
256,192,144090,1,0,0:0:0:0:
256,192,144206,1,0,0:0:0:0:
256,192,144437,1,2,0:0:0:0:
256,192,144667,5,0,0:0:0:0:
256,192,144898,5,2,0:0:0:0:
256,192,145129,1,0,0:0:0:0:
256,192,145244,1,0,0:0:0:0:
256,192,145360,5,2,0:0:0:0:
256,192,145821,1,2,0:0:0:0:
256,192,146052,5,2,0:0:0:0:
256,192,146283,5,0,0:0:0:0:
256,192,146513,1,0,0:0:0:0:
256,192,146629,1,0,0:0:0:0:
256,192,146744,5,2,0:0:0:0:
256,192,147206,5,2,0:0:0:0:
256,192,147321,1,2,0:0:0:0:
256,192,147437,1,2,0:0:0:0:
256,192,147667,5,2,0:0:0:0:
256,192,147898,1,0,0:0:0:0:
256,192,148013,1,0,0:0:0:0:
256,192,148129,5,0,0:0:0:0:
256,192,148360,1,2,0:0:0:0:
256,192,148590,5,2,0:0:0:0:
256,192,149052,5,0,0:0:0:0:
256,192,149283,1,0,0:0:0:0:
256,192,149513,5,2,0:0:0:0:
256,192,149744,1,2,0:0:0:0:
256,192,149975,5,0,0:0:0:0:
256,192,150090,1,0,0:0:0:0:
256,192,150206,1,2,0:0:0:0:
256,192,150437,5,2,0:0:0:0:
256,192,150552,1,0,0:0:0:0:
256,192,150667,1,2,0:0:0:0:
256,192,150898,5,2,0:0:0:0:
256,192,151129,1,0,0:0:0:0:
256,192,151244,1,0,0:0:0:0:
256,192,151360,1,2,0:0:0:0:
256,192,151475,1,2,0:0:0:0:
256,192,151590,5,2,0:0:0:0:
256,192,151706,1,2,0:0:0:0:
256,192,151821,1,0,0:0:0:0:
256,192,152052,1,0,0:0:0:0:
256,192,152283,5,2,0:0:0:0:
256,192,152744,5,0,0:0:0:0:
256,192,152975,1,2,0:0:0:0:
256,192,153437,5,0,0:0:0:0:
256,192,153552,5,0,0:0:0:0:
256,192,153667,1,2,0:0:0:0:
256,192,153898,1,0,0:0:0:0:
256,192,154129,5,0,0:0:0:0:
256,192,154360,1,0,0:0:0:0:
256,192,154475,5,0,0:0:0:0:
256,192,154590,1,2,0:0:0:0:
256,192,154706,1,2,0:0:0:0:
256,192,154821,1,0,0:0:0:0:
256,192,154937,1,0,0:0:0:0:
256,192,155052,5,2,0:0:0:0:
256,192,155283,1,2,0:0:0:0:
256,192,155513,5,0,0:0:0:0:
256,192,155629,1,2,0:0:0:0:
256,192,155744,1,0,0:0:0:0:
256,192,155975,5,2,0:0:0:0:
256,192,156206,1,2,0:0:0:0:
256,192,156437,5,0,0:0:0:0:
256,192,156552,1,0,0:0:0:0:
256,192,156667,1,2,0:0:0:0:
256,192,156898,5,2,0:0:0:0:
256,192,157013,1,2,0:0:0:0:
256,192,157129,1,0,0:0:0:0:
256,192,157244,5,0,0:0:0:0:
256,192,157360,1,2,0:0:0:0:
256,192,157475,1,2,0:0:0:0:
256,192,157590,1,0,0:0:0:0:
256,192,157821,5,0,0:0:0:0:
256,192,158052,1,2,0:0:0:0:
256,192,158283,5,2,0:0:0:0:
256,192,158398,1,2,0:0:0:0:
256,192,158513,1,2,0:0:0:0:
256,192,158629,1,2,0:0:0:0:
256,192,158744,5,2,0:0:0:0:
256,192,158975,1,0,0:0:0:0:
256,192,159206,1,2,0:0:0:0:
256,192,159437,5,2,0:0:0:0:
256,192,159667,5,0,0:0:0:0:
256,192,159898,1,2,0:0:0:0:
256,192,160013,1,0,0:0:0:0:
256,192,160129,5,2,0:0:0:0:
256,192,160590,1,2,0:0:0:0:
256,192,160821,5,2,0:0:0:0:
256,192,161052,5,0,0:0:0:0:
256,192,161283,1,2,0:0:0:0:
256,192,161398,1,0,0:0:0:0:
256,192,161513,1,2,0:0:0:0:
256,192,161975,5,2,0:0:0:0:
256,192,162206,1,0,0:0:0:0:
256,192,162437,5,2,0:0:0:0:
256,192,162898,5,0,0:0:0:0:
256,192,163013,1,0,0:0:0:0:
256,192,163129,1,0,0:0:0:0:
256,192,163360,5,2,0:0:0:0:
256,192,163590,1,2,0:0:0:0:
256,192,163821,5,0,0:0:0:0:
256,192,164052,1,0,0:0:0:0:
256,192,164167,1,0,0:0:0:0:
256,192,164283,1,2,0:0:0:0:
256,192,164513,5,2,0:0:0:0:
256,192,164744,1,0,0:0:0:0:
256,192,164975,5,2,0:0:0:0:
256,192,165090,1,2,0:0:0:0:
256,192,165206,1,2,0:0:0:0:
256,192,165552,1,2,0:0:0:0:
256,192,165667,5,2,0:0:0:0:
256,192,165898,1,0,0:0:0:0:
256,192,166129,5,2,0:0:0:0:
256,192,166360,1,2,0:0:0:0:
256,192,166590,5,4,0:0:0:0:
256,192,167052,5,2,0:0:0:0:
256,192,167513,5,0,0:0:0:0:
256,192,167744,1,0,0:0:0:0:
256,192,167975,5,2,0:0:0:0:
256,192,168206,1,0,0:0:0:0:
256,192,168667,5,0,0:0:0:0:
256,192,168898,5,2,0:0:0:0:
256,192,169129,1,0,0:0:0:0:
256,192,169244,5,0,0:0:0:0:
256,192,169360,1,2,0:0:0:0:
256,192,169590,1,2,0:0:0:0:
256,192,169821,5,2,0:0:0:0:
256,192,169937,1,0,0:0:0:0:
256,192,170052,1,2,0:0:0:0:
256,192,170283,5,0,0:0:0:0:
256,192,170398,1,2,0:0:0:0:
256,192,170629,5,0,0:0:0:0:
256,192,170744,1,2,0:0:0:0:
256,192,170860,1,0,0:0:0:0:
256,192,171090,1,2,0:0:0:0:
256,192,171321,5,0,0:0:0:0:
256,192,171437,1,2,0:0:0:0:
256,192,171667,5,2,0:0:0:0:
256,192,171783,1,0,0:0:0:0:
256,192,171898,1,2,0:0:0:0:
256,192,172129,1,0,0:0:0:0:
256,192,172360,5,2,0:0:0:0:
256,192,172590,1,2,0:0:0:0:
256,192,172706,1,0,0:0:0:0:
256,192,172821,5,0,0:0:0:0:
256,192,172937,5,0,0:0:0:0:
256,192,173052,1,2,0:0:0:0:
256,192,173283,1,2,0:0:0:0:
256,192,173513,5,0,0:0:0:0:
256,192,173975,5,2,0:0:0:0:
256,192,174090,1,2,0:0:0:0:
256,192,174321,1,0,0:0:0:0:
256,192,174437,5,2,0:0:0:0:
256,192,174667,1,0,0:0:0:0:
256,192,174783,5,0,0:0:0:0:
256,192,174898,1,2,0:0:0:0:
256,192,175013,1,0,0:0:0:0:
256,192,175244,5,0,0:0:0:0:
256,192,175360,1,2,0:0:0:0:
256,192,175590,1,0,0:0:0:0:
256,192,175821,5,0,0:0:0:0:
256,192,175937,1,0,0:0:0:0:
256,192,176167,5,0,0:0:0:0:
256,192,176283,1,2,0:0:0:0:
256,192,176398,1,0,0:0:0:0:
256,192,176513,1,2,0:0:0:0:
256,192,176744,5,2,0:0:0:0:
256,192,176975,1,2,0:0:0:0:
256,192,177206,5,2,0:0:0:0:
256,192,177321,1,2,0:0:0:0:
256,192,177437,1,0,0:0:0:0:
256,192,177667,5,0,0:0:0:0:
256,192,177783,1,0,0:0:0:0:
256,192,177898,1,2,0:0:0:0:
256,192,178129,5,2,0:0:0:0:
256,192,178360,1,0,0:0:0:0:
256,192,178590,5,2,0:0:0:0:
256,192,178706,1,0,0:0:0:0:
256,192,178821,1,2,0:0:0:0:
256,192,179052,5,2,0:0:0:0:
256,192,179283,1,0,0:0:0:0:
256,192,179398,1,0,0:0:0:0:
256,192,179513,1,2,0:0:0:0:
256,192,179744,5,2,0:0:0:0:
256,192,179975,1,2,0:0:0:0:
256,192,180090,1,2,0:0:0:0:
256,192,180206,5,0,0:0:0:0:
256,192,180437,1,2,0:0:0:0:
256,192,180898,5,2,0:0:0:0:
256,192,181360,5,4,0:0:0:0:
256,192,188744,5,2,0:0:0:0:
256,192,189206,1,2,0:0:0:0:
256,192,189437,1,0,0:0:0:0:
256,192,189667,1,2,0:0:0:0:
256,192,190129,1,2,0:0:0:0:
256,192,190360,1,0,0:0:0:0:
256,192,190590,1,2,0:0:0:0:
256,192,190706,1,2,0:0:0:0:
256,192,190821,1,0,0:0:0:0:
256,192,190937,1,0,0:0:0:0:
256,192,191052,1,0,0:0:0:0:
256,192,191283,1,2,0:0:0:0:
256,192,191513,1,0,0:0:0:0:
256,192,191975,1,0,0:0:0:0:
256,192,192206,1,2,0:0:0:0:
256,192,192437,1,2,0:0:0:0:
256,192,192552,1,2,0:0:0:0:
256,192,192667,1,0,0:0:0:0:
256,192,192898,1,0,0:0:0:0:
256,192,193129,1,2,0:0:0:0:
256,192,193360,1,0,0:0:0:0:
256,192,193475,1,0,0:0:0:0:
256,192,193706,1,0,0:0:0:0:
256,192,193821,1,2,0:0:0:0:
256,192,194052,1,0,0:0:0:0:
256,192,194167,1,0,0:0:0:0:
256,192,194283,1,0,0:0:0:0:
256,192,194398,1,0,0:0:0:0:
256,192,194513,1,2,0:0:0:0:
256,192,194629,1,2,0:0:0:0:
256,192,194744,1,2,0:0:0:0:
256,192,194860,1,2,0:0:0:0:
256,192,194975,1,0,0:0:0:0:
256,192,195090,1,0,0:0:0:0:
256,192,195206,1,2,0:0:0:0:
256,192,195437,5,2,0:0:0:0:
256,192,195667,1,2,0:0:0:0:
256,192,195783,1,0,0:0:0:0:
256,192,195898,1,0,0:0:0:0:
256,192,196129,1,6,0:0:0:0:
256,192,196360,1,0,0:0:0:0:
256,192,196475,1,2,0:0:0:0:
256,192,196590,1,2,0:0:0:0:
256,192,196821,1,2,0:0:0:0:
256,192,197283,1,0,0:0:0:0:
256,192,197513,1,2,0:0:0:0:
256,192,197744,1,0,0:0:0:0:
256,192,197975,1,2,0:0:0:0:
256,192,198090,1,2,0:0:0:0:
256,192,198206,1,2,0:0:0:0:
256,192,198437,1,2,0:0:0:0:
256,192,198667,1,0,0:0:0:0:
256,192,198898,1,0,0:0:0:0:
256,192,199013,1,2,0:0:0:0:
256,192,199129,1,0,0:0:0:0:
256,192,199360,1,0,0:0:0:0:
256,192,199590,1,2,0:0:0:0:
256,192,199821,1,6,0:0:0:0:
256,192,200283,1,2,0:0:0:0:
256,192,200513,1,2,0:0:0:0:
256,192,200744,1,0,0:0:0:0:
256,192,200860,1,0,0:0:0:0:
256,192,200975,1,2,0:0:0:0:
256,192,201206,1,0,0:0:0:0:
256,192,201437,1,2,0:0:0:0:
256,192,201667,1,2,0:0:0:0:
256,192,201783,1,0,0:0:0:0:
256,192,201898,1,2,0:0:0:0:
256,192,202013,1,2,0:0:0:0:
256,192,202129,1,0,0:0:0:0:
256,192,202244,1,0,0:0:0:0:
256,192,202360,1,2,0:0:0:0:
256,192,202590,1,2,0:0:0:0:
256,192,202821,1,0,0:0:0:0:
256,192,203283,1,0,0:0:0:0:
256,192,203398,1,0,0:0:0:0:
256,192,203513,1,2,0:0:0:0:
256,192,203975,1,2,0:0:0:0:
256,192,204206,1,0,0:0:0:0:
256,192,204437,1,0,0:0:0:0:
256,192,204667,1,2,0:0:0:0:
256,192,204898,1,0,0:0:0:0:
256,192,205129,1,0,0:0:0:0:
256,192,205360,1,0,0:0:0:0:
256,192,205475,1,0,0:0:0:0:
256,192,205590,1,2,0:0:0:0:
256,192,205821,1,0,0:0:0:0:
256,192,206052,1,0,0:0:0:0:
256,192,206283,1,2,0:0:0:0:
256,192,206398,1,2,0:0:0:0:
256,192,206513,1,2,0:0:0:0:
256,192,206629,1,2,0:0:0:0:
256,192,206744,1,0,0:0:0:0:
256,192,206975,1,2,0:0:0:0:
256,192,207090,1,2,0:0:0:0:
256,192,207206,1,2,0:0:0:0:
256,192,207321,1,2,0:0:0:0:
256,192,207437,1,0,0:0:0:0:
256,192,207552,1,0,0:0:0:0:
256,192,207667,1,0,0:0:0:0:
256,192,207783,1,0,0:0:0:0:
256,192,207898,1,2,0:0:0:0:
256,192,208013,1,2,0:0:0:0:
256,192,208129,1,0,0:0:0:0:
256,192,208244,1,0,0:0:0:0:
256,192,208360,1,2,0:0:0:0:
256,192,208475,1,2,0:0:0:0:
256,192,208590,1,0,0:0:0:0:
256,192,208706,1,0,0:0:0:0:
256,192,208821,1,0,0:0:0:0:
256,192,208937,1,0,0:0:0:0:
256,192,209052,1,0,0:0:0:0:
256,192,209513,1,6,0:0:0:0:
256,192,209975,1,2,0:0:0:0:
256,192,210206,1,2,0:0:0:0:
256,192,210437,1,0,0:0:0:0:
256,192,210667,1,0,0:0:0:0:
256,192,210898,1,4,0:0:0:0:
256,192,211129,1,4,0:0:0:0:
256,192,211360,1,6,0:0:0:0:
256,192,211821,1,2,0:0:0:0:
256,192,212052,1,2,0:0:0:0:
256,192,212513,1,2,0:0:0:0:
256,192,212975,1,6,0:0:0:0:
256,192,213437,5,2,0:0:0:0:
256,192,213667,1,0,0:0:0:0:
256,192,213898,1,0,0:0:0:0:
256,192,214129,1,2,0:0:0:0:
256,192,214244,1,2,0:0:0:0:
256,192,214360,1,2,0:0:0:0:
256,192,214590,5,4,0:0:0:0:
256,192,214821,1,0,0:0:0:0:
256,192,215052,1,2,0:0:0:0:
256,192,215283,1,0,0:0:0:0:
256,192,215513,1,2,0:0:0:0:
256,192,215629,1,2,0:0:0:0:
256,192,215744,1,0,0:0:0:0:
256,192,215975,1,0,0:0:0:0:
256,192,216206,1,2,0:0:0:0:
256,192,216437,1,0,0:0:0:0:
256,192,216552,1,0,0:0:0:0:
256,192,216667,1,2,0:0:0:0:
256,192,216898,1,0,0:0:0:0:
256,192,217013,1,0,0:0:0:0:
256,192,217129,1,2,0:0:0:0:
256,192,217244,1,2,0:0:0:0:
256,192,217360,1,0,0:0:0:0:
256,192,217590,1,2,0:0:0:0:
256,192,217821,1,0,0:0:0:0:
256,192,217937,1,0,0:0:0:0:
256,192,218052,1,0,0:0:0:0:
256,192,218283,1,2,0:0:0:0:
256,192,218513,1,0,0:0:0:0:
256,192,218744,1,2,0:0:0:0:
256,192,218975,1,0,0:0:0:0:
192,96,219090,1,0,0:0:0:0:
256,192,219206,1,2,0:0:0:0:
256,192,219667,1,2,0:0:0:0:
256,192,219898,1,2,0:0:0:0:
256,192,220129,1,0,0:0:0:0:
256,192,220360,1,0,0:0:0:0:
256,192,220475,1,0,0:0:0:0:
256,192,220590,1,2,0:0:0:0:
256,192,221052,1,2,0:0:0:0:
256,192,221167,1,0,0:0:0:0:
256,192,221283,1,0,0:0:0:0:
256,192,221513,1,0,0:0:0:0:
256,192,221744,1,2,0:0:0:0:
256,192,221975,1,0,0:0:0:0:
256,192,222206,1,2,0:0:0:0:
256,192,222321,1,2,0:0:0:0:
256,192,222437,1,0,0:0:0:0:
256,192,222667,1,0,0:0:0:0:
256,192,222898,1,2,0:0:0:0:
256,192,223129,1,2,0:0:0:0:
256,192,223244,1,2,0:0:0:0:
256,192,223360,1,2,0:0:0:0:
256,192,223590,1,0,0:0:0:0:
256,192,223706,1,2,0:0:0:0:
256,192,223821,1,0,0:0:0:0:
256,192,224052,1,0,0:0:0:0:
256,192,224283,1,2,0:0:0:0:
256,192,224513,1,0,0:0:0:0:
256,192,224629,1,0,0:0:0:0:
256,192,224744,1,2,0:0:0:0:
256,192,224975,1,2,0:0:0:0:
256,192,225206,1,0,0:0:0:0:
256,192,225321,1,0,0:0:0:0:
256,192,225437,1,2,0:0:0:0:
256,192,225667,1,4,0:0:0:0:
256,192,225898,1,0,0:0:0:0:
256,192,226129,1,2,0:0:0:0:
256,192,226360,1,2,0:0:0:0:
256,192,226475,1,2,0:0:0:0:
256,192,226590,1,0,0:0:0:0:
256,192,226821,1,2,0:0:0:0:
256,192,227052,1,0,0:0:0:0:
256,192,227167,1,2,0:0:0:0:
256,192,227283,1,0,0:0:0:0:
256,192,227398,1,0,0:0:0:0:
256,192,227513,1,2,0:0:0:0:
256,192,227744,1,0,0:0:0:0:
256,192,227975,1,2,0:0:0:0:
256,192,228206,1,0,0:0:0:0:
256,192,228321,1,0,0:0:0:0:
256,192,228437,1,2,0:0:0:0:
256,192,228667,1,0,0:0:0:0:
256,192,228898,1,2,0:0:0:0:
256,192,229360,1,2,0:0:0:0:
256,192,229590,1,2,0:0:0:0:
256,192,229706,1,2,0:0:0:0:
256,192,229821,1,0,0:0:0:0:
256,192,230052,1,2,0:0:0:0:
256,192,230283,1,0,0:0:0:0:
256,192,230398,1,0,0:0:0:0:
256,192,230513,1,2,0:0:0:0:
256,192,230744,1,2,0:0:0:0:
256,192,230975,1,0,0:0:0:0:
256,192,231090,1,0,0:0:0:0:
256,192,231206,1,0,0:0:0:0:
256,192,231321,1,0,0:0:0:0:
256,192,231437,1,2,0:0:0:0:
256,192,231667,1,0,0:0:0:0:
256,192,231898,1,2,0:0:0:0:
256,192,232013,1,2,0:0:0:0:
256,192,232129,1,0,0:0:0:0:
256,192,232244,1,0,0:0:0:0:
256,192,232360,1,2,0:0:0:0:
256,192,232475,1,2,0:0:0:0:
256,192,232590,1,0,0:0:0:0:
256,192,232821,1,0,0:0:0:0:
256,192,233052,1,2,0:0:0:0:
256,192,233283,1,2,0:0:0:0:
256,192,233513,1,0,0:0:0:0:
256,192,233744,1,2,0:0:0:0:
256,192,233860,1,0,0:0:0:0:
256,192,233975,1,2,0:0:0:0:
256,192,234437,1,2,0:0:0:0:
256,192,234667,1,2,0:0:0:0:
256,192,234898,1,0,0:0:0:0:
256,192,235129,1,2,0:0:0:0:
256,192,235244,1,0,0:0:0:0:
256,192,235360,1,2,0:0:0:0:
256,192,235821,1,2,0:0:0:0:
256,192,236052,1,0,0:0:0:0:
256,192,236167,1,0,0:0:0:0:
256,192,236283,1,2,0:0:0:0:
256,192,236744,1,0,0:0:0:0:
256,192,236975,1,0,0:0:0:0:
256,192,237206,1,2,0:0:0:0:
256,192,237437,1,2,0:0:0:0:
256,192,237552,1,0,0:0:0:0:
256,192,237667,1,2,0:0:0:0:
256,192,237898,1,0,0:0:0:0:
256,192,238129,1,2,0:0:0:0:
256,192,238360,1,2,0:0:0:0:
256,192,238590,1,0,0:0:0:0:
256,192,238821,1,0,0:0:0:0:
256,192,238937,1,0,0:0:0:0:
256,192,239052,1,2,0:0:0:0:
256,192,239398,1,2,0:0:0:0:
256,192,239513,1,2,0:0:0:0:
256,192,239744,1,0,0:0:0:0:
256,192,239860,1,0,0:0:0:0:
256,192,239975,1,2,0:0:0:0:
256,192,240206,1,2,0:0:0:0:
256,192,240437,5,4,0:0:0:0:
256,192,240898,1,2,0:0:0:0:
256,192,241360,1,0,0:0:0:0:
256,192,241590,1,2,0:0:0:0:
256,192,241821,1,0,0:0:0:0:
256,192,242052,1,2,0:0:0:0:
256,192,242513,1,2,0:0:0:0:
256,192,242744,1,0,0:0:0:0:
256,192,242975,1,2,0:0:0:0:
256,192,243206,1,2,0:0:0:0:
256,192,243321,1,0,0:0:0:0:
256,192,243437,1,2,0:0:0:0:
256,192,243667,1,2,0:0:0:0:
256,192,243898,1,0,0:0:0:0:
256,192,244129,1,0,0:0:0:0:
256,192,244590,1,2,0:0:0:0:
256,192,244821,1,2,0:0:0:0:
256,192,245052,1,0,0:0:0:0:
256,192,245167,1,0,0:0:0:0:
256,192,245283,1,0,0:0:0:0:
256,192,245513,1,0,0:0:0:0:
256,192,245744,1,2,0:0:0:0:
256,192,245860,1,0,0:0:0:0:
256,192,245975,1,2,0:0:0:0:
256,192,246090,1,0,0:0:0:0:
256,192,246206,1,0,0:0:0:0:
256,192,246437,1,2,0:0:0:0:
256,192,246552,1,2,0:0:0:0:
256,192,246667,1,0,0:0:0:0:
256,192,246898,1,2,0:0:0:0:
256,192,247129,1,0,0:0:0:0:
256,192,247360,1,2,0:0:0:0:
256,192,247821,1,4,0:0:0:0:
256,192,248283,1,2,0:0:0:0:
256,192,248513,1,2,0:0:0:0:
256,192,248744,1,0,0:0:0:0:
256,192,248975,1,0,0:0:0:0:
256,192,249206,1,0,0:0:0:0:
256,192,249437,1,2,0:0:0:0:
256,192,249552,1,2,0:0:0:0:
256,192,249667,1,2,0:0:0:0:
256,192,249898,1,0,0:0:0:0:
256,192,250013,1,0,0:0:0:0:
256,192,250129,1,0,0:0:0:0:
256,192,250360,1,2,0:0:0:0:
256,192,250475,1,0,0:0:0:0:
256,192,250590,1,2,0:0:0:0:
256,192,250706,1,0,0:0:0:0:
256,192,250821,1,0,0:0:0:0:
256,192,251052,1,2,0:0:0:0:
256,192,251283,1,2,0:0:0:0:
256,192,251398,1,2,0:0:0:0:
256,192,251513,1,0,0:0:0:0:
256,192,251975,1,2,0:0:0:0:
256,192,252206,1,0,0:0:0:0:
256,192,252437,1,0,0:0:0:0:
256,192,252667,1,2,0:0:0:0:
256,192,252898,1,0,0:0:0:0:
256,192,253129,1,2,0:0:0:0:
256,192,253360,2,0,L|416:192,3,140
256,192,255206,12,0,257513,0:0:0:0:
