osu file format v12

[General]
AudioFilename: ED2.mp3
AudioLeadIn: 2000
PreviewTime: 43964
Countdown: 0
SampleSet: Soft
StackLeniency: 0.5
Mode: 0
LetterboxInBreaks: 0
WidescreenStoryboard: 0

[Editor]
Bookmarks: 2822,16536,30250,52528,59385,66242,73099
DistanceSpacing: 1
BeatDivisor: 8
GridSize: 4

[Metadata]
Title:Yuki ni Saku Hana (TV Size)
TitleUnicode:雪に咲く花 (TV Size)
Artist:Hanazawa Kana
ArtistUnicode:花澤香菜
Creator:Damnae
Version:Hard
Source:Shin Sekai Yori
Tags:akizuki maria watanabe saki ending 新世界より from the new world shinsekai nemis
BeatmapID:277969
BeatmapSetID:106001

[Difficulty]
HPDrainRate:6
CircleSize:4
OverallDifficulty:7
ApproachRate:8
SliderMultiplier:3.2
SliderTickRate:2

[Events]
//Background and Video events
Video,50,"Video.flv"
0,0,"bg.png",0,0
//Break Periods
//Storyboard Layer 0 (Background)
//Storyboard Layer 1 (Fail)
//Storyboard Layer 2 (Pass)
//Storyboard Layer 3 (Foreground)
//Storyboard Sound Samples
//Background Colour Transformations
3,100,0,0,0

[TimingPoints]
2822,857.142857142857,4,2,1,35,1,0
5393,-100,4,2,1,40,0,0
5822,-100,4,2,1,35,0,0
8822,-100,4,2,1,40,0,0
9250,-100,4,2,1,35,0,0
12250,-100,4,2,1,40,0,0
12679,-100,4,2,1,35,0,0
15893,-100,4,2,1,25,0,0
16536,-100,4,2,1,35,0,0
19107,-100,4,2,1,40,0,0
19536,-100,4,2,1,35,0,0
34536,-100,4,2,1,10,0,0
34750,-100,4,2,1,35,0,0
34964,-100,4,2,1,20,0,0
35179,-100,4,2,1,35,0,0
35393,-100,4,2,1,20,0,0
35607,-100,4,2,1,35,0,0
37964,-100,4,2,1,20,0,0
38179,-100,4,2,1,35,0,0
39679,-100,4,2,1,40,0,0
40107,-100,4,2,1,25,0,0
40322,-100,4,2,1,35,0,0
43536,-100,4,2,1,20,0,0
43750,-100,4,2,1,35,0,0
44179,-100,4,2,1,30,0,0
44393,-100,4,2,1,35,0,0
44822,-100,4,2,1,45,0,0
44929,-100,4,2,1,35,0,0
45250,-100,4,2,1,45,0,0
45357,-100,4,2,1,35,0,0
45679,857.142857142857,4,2,1,50,1,1
62821,-100,4,2,1,40,0,1
63036,-100,4,2,1,50,0,1
66250,-100,4,2,1,35,0,1
66464,-100,4,2,1,50,0,1
73107,-100,4,2,1,40,0,1
73536,-100,4,2,1,50,0,1
74821,-100,4,2,1,30,0,1
75036,-100,4,2,1,50,0,1
79964,-100,4,2,1,40,0,0
81679,-100,4,2,1,35,0,0
84250,-100,4,2,1,20,0,0
84679,-200,4,2,1,20,0,0
85965,-100,4,2,1,5,0,0
86071,-100,4,2,1,35,0,0
86393,-100,4,2,1,25,0,0
86822,-100,4,2,1,20,0,0
87250,-100,4,2,1,15,0,0
87679,-100,4,2,1,10,0,0
88107,-100,4,2,1,5,0,0

[Colours]
Combo1 : 255,94,55
Combo2 : 173,255,95
Combo3 : 17,254,176
Combo4 : 255,88,100

[HitObjects]
4,136,1964,1,0,0:0:0:0:
12,148,2393,1,0,0:0:0:0:
20,160,2822,2,0,L|100:148,1,80,0|0,1:0|0:0,0:0:0:0:
176,172,3250,2,0,L|188:252,1,80,0|0,1:0|0:0,0:0:0:0:
188,88,3679,2,0,P|274:54|326:86,2,160,2|0|0,0:0|0:0|1:0,0:0:0:0:
258,134,4750,6,0,L|270:214,2,80,0|2|0,2:0|0:0|0:0,0:0:0:0:
340,132,5393,2,0,L|364:292,1,160,8|2,2:2|2:0,0:0:0:0:
440,260,6036,1,0,1:0:0:0:
440,260,6250,6,0,L|452:180,1,80,0|0,1:0|0:0,0:0:0:0:
420,108,6679,2,0,L|432:28,1,80,0|0,1:0|0:0,0:0:0:0:
340,132,7107,2,0,P|254:166|202:134,2,160,0|2|0,0:0|0:0|1:0,0:0:0:0:
270,86,8178,6,0,L|258:6,2,80,0|2|0,2:0|0:0|0:0,0:0:0:0:
200,180,8822,2,0,L|176:20,1,160,8|2,2:2|2:0,0:0:0:0:
108,108,9464,1,0,1:0:0:0:
108,108,9679,6,0,P|68:116|24:100,1,80,0|0,1:0|0:0,0:0:0:0:
200,180,10107,2,0,P|208:220|192:264,1,80,0|0,1:0|0:0,0:0:0:0:
272,84,10536,2,0,P|312:76|356:92,1,80,2|0,2:0|0:0,0:0:0:0:
408,140,10964,2,0,L|420:220,1,80,0|2,0:0|0:0,0:0:0:0:
500,336,11393,5,0,1:0:0:0:
500,336,11822,2,0,P|508:296|492:252,1,80,0|2,0:0|0:0,0:0:0:0:
428,300,12251,2,0,L|268:324,1,160,8|2,2:2|2:0,0:0:0:0:
216,264,12893,1,0,1:0:0:0:
216,264,13107,6,0,P|208:224|224:180,1,80,0|0,1:0|2:0,0:0:0:0:
292,83,13536,2,0,P|304:120|296:160,1,80,0|0,1:0|2:0,0:0:0:0:
216,60,13964,2,0,L|56:84,1,160,0|0,2:2|2:0,0:0:0:0:
20,224,14607,1,2,0:0:0:0:
88,180,14822,6,0,P|128:172|172:188,1,80,0|0,1:0|2:0,0:0:0:0:
128,303,15250,2,0,P|88:311|52:300,1,80,0|2,2:0|2:0,0:0:0:0:
192,256,15679,1,8,0:0:0:0:
252,204,15893,1,8,1:3:0:0:
312,152,16107,1,4,1:3:0:0:
372,100,16322,1,0,1:0:0:0:
432,48,16536,6,0,L|456:128,1,80,0|0,1:0|0:0,0:0:0:0:
312,152,16964,2,0,L|288:72,1,80,2|0,2:0|0:0,0:0:0:0:
368,208,17393,2,0,P|408:216|452:200,1,80,0|0,2:0|0:0,0:0:0:0:
228,124,17822,2,0,P|188:116|152:128,1,80,0|2,2:0|0:0,0:0:0:0:
232,256,18250,6,0,B|272:220|264:177|264:177|252:100,1,160,0|0,1:0|0:0,0:0:0:0:
120,104,18893,1,2,0:0:0:0:
190,190,19107,2,0,L|214:350,1,160,8|2,2:2|2:0,0:0:0:0:
290,318,19750,1,0,1:0:0:0:
290,318,19964,6,0,L|302:238,1,80,0|0,1:0|0:0,0:0:0:0:
316,160,20393,2,0,L|396:172,1,80,0|0,1:0|0:0,0:0:0:0:
474,186,20822,2,0,L|462:266,1,80,2|0,2:0|0:0,0:0:0:0:
448,108,21250,2,0,P|425:74|382:54,1,80,0|0,2:0|0:0,0:0:0:0:
316,160,21679,6,0,P|230:194|178:162,2,160,0|0|8,1:0|0:0|2:0,0:0:0:0:
246,114,22750,2,0,L|234:34,2,80,0|2|0,2:0|0:0|1:0,0:0:0:0:
384,244,23393,6,0,L|464:232,1,80,0|0,1:0|0:0,0:0:0:0:
308,212,23822,1,0,1:0:0:0:
392,340,24036,1,0,0:0:0:0:
316,308,24250,2,0,L|236:320,1,80,2|0,2:0|0:0,0:0:0:0:
84,296,24679,2,0,L|164:284,1,80,2|0,2:0|0:0,0:0:0:0:
236,176,25107,6,0,L|156:188,1,80,0|0,1:0|0:0,0:0:0:0:
308,212,25536,2,0,L|388:200,1,80,2|0,2:0|0:0,0:0:0:0:
260,144,25964,2,0,P|226:230|258:282,1,160,8|2,2:0|2:0,0:0:0:0:
336,288,26607,2,0,L|416:276,2,80,0|0|0,1:0|1:0|0:0,0:0:0:0:
310,74,27250,6,0,P|342:126|308:212,1,160,0|0,1:0|2:0,0:0:0:0:
260,144,27893,1,0,2:0:0:0:
336,288,28107,1,2,0:0:0:0:
375,175,28322,1,0,0:0:0:0:
148,252,28536,6,0,P|132:216|133:176,1,80,0|0,1:0|2:0,0:0:0:0:
276,144,28964,2,0,P|292:180|290:219,1,80,2|0,2:0|2:0,0:0:0:0:
212,196,29393,1,8,0:0:0:0:
328,80,29607,1,4,3:0:0:0:
250,65,29822,1,0,1:0:0:0:
356,156,30036,1,0,1:0:0:0:
312,220,30250,6,0,P|296:256|297:295,1,80,4|0,1:0|2:0,0:0:0:0:
376,272,30679,2,0,L|216:296,2,160,0|8|0,1:0|0:0|0:0,0:0:0:0:
456,260,31750,1,0,0:0:0:0:
308,200,31964,6,0,P|307:161|323:125,1,80,0|0,1:0|2:0,0:0:0:0:
217,295,32393,1,2,0:0:0:0:
180,192,32607,1,0,0:0:0:0:
72,228,32822,2,0,P|43:201|29:164,1,80,8|0,2:0|2:0,0:0:0:0:
144,264,33250,1,2,0:0:0:0:
180,192,33464,1,0,1:0:0:0:
252,224,33679,6,0,L|420:204,2,160,0|2|12,1:0|0:0|1:2,0:0:0:0:
167,98,34750,2,0,P|184:87|242:83,1,80,0|8,1:0|0:0,0:0:0:0:
322,95,35179,1,0,1:0:0:0:
272,160,35393,6,0,P|308:240|396:240,1,160,12|0,1:2|1:0,0:0:0:0:
352,172,36036,1,0,2:2:0:0:
212,248,36250,2,0,P|136:268|59:246,1,160,8|0,2:0|1:0,0:0:0:0:
4,188,36893,1,0,1:0:0:0:
84,172,37107,6,0,L|104:340,2,160,4|2|4,1:0|0:0|1:2,0:0:0:0:
4,188,38179,1,0,0:0:0:0:
132,108,38393,2,0,L|144:28,1,80,0|0,1:0|1:0,0:0:0:0:
216,112,38822,6,0,L|244:37,1,80,2|0,1:2|2:0,0:0:0:0:
288,148,39250,2,0,L|333:82,1,80,0|0,0:0|2:0,0:0:0:0:
352,192,39679,2,0,P|428:212|505:190,1,160,8|12,2:0|2:0,0:0:0:0:
300,268,40322,1,0,1:0:0:0:
236,216,40536,5,2,0:0:0:0:
288,148,40750,1,0,0:0:0:0:
352,192,40964,2,0,L|364:272,1,80,0|0,1:0|1:0,0:0:0:0:
208,140,41393,2,0,L|196:60,1,80,4|0,1:2|1:0,0:0:0:0:
236,216,41822,1,2,0:0:0:0:
352,192,42036,1,0,0:0:0:0:
148,200,42250,5,2,0:0:0:0:
288,148,42464,1,0,0:0:0:0:
148,200,42679,2,0,L|136:120,1,80,0|0,1:0|0:0,0:0:0:0:
80,248,43107,2,0,P|132:280|218:246,1,160,8|4,2:2|2:0,0:0:0:0:
284,188,43750,1,0,1:0:0:0:
347,249,43964,5,2,2:0:0:0:
148,199,44179,1,4,1:2:0:0:
338,123,44393,1,0,1:0:0:0:
220,244,44607,1,8,2:0:0:0:
216,92,44822,5,0,1:0:0:0:
202,85,44929,1,0,1:0:0:0:
188,81,45036,1,0,1:0:0:0:
173,77,45143,1,0,1:0:0:0:
158,75,45250,1,0,1:0:0:0:
143,75,45357,1,0,1:0:0:0:
128,77,45464,1,0,1:0:0:0:
113,79,45571,1,0,1:0:0:0:
100,84,45679,6,0,L|88:4,1,80,0|0,1:0|0:0,0:0:0:0:
32,128,46107,2,0,P|24:168|40:212,1,80,0|0,1:0|0:0,0:0:0:0:
104,164,46536,2,0,L|264:140,1,160,8|0,2:2|2:0,0:0:0:0:
320,84,47179,1,0,0:0:0:0:
360,156,47393,5,0,1:0:0:0:
440,164,47607,1,0,2:0:0:0:
480,236,47821,2,0,P|488:276|476:312,1,80,0|0,1:0|1:0,0:0:0:0:
400,348,48250,1,8,0:0:0:0:
324,312,48464,2,0,P|316:272|327:235,2,80,0|0|0,0:0|1:0|2:0,0:0:0:0:
244,224,49107,6,0,P|168:204|91:226,1,160,4|0,1:0|1:0,0:0:0:0:
48,292,49750,1,0,0:0:0:0:
32,172,49964,2,0,L|8:12,1,160,8|0,2:2|2:0,0:0:0:0:
32,172,50607,1,0,0:0:0:0:
164,264,50821,6,0,P|208:264|240:248,1,80,8|0,2:0|1:0,0:0:0:0:
184,172,51250,1,0,1:0:0:0:
372,204,51464,2,0,L|452:216,2,80,8|0|0,0:0|1:0|0:0,0:0:0:0:
512,88,52107,2,0,P|520:128|504:172,1,80,0|0,1:0|1:0,0:0:0:0:
440,124,52536,6,0,L|280:100,1,160,4|0,1:2|1:0,0:0:0:0:
224,44,53179,1,0,0:0:0:0:
140,160,53393,2,0,P|96:164|60:148,1,80,8|0,0:0|2:0,0:0:0:0:
212,124,53821,1,0,1:0:0:0:
124,240,54036,1,0,2:0:0:0:
184,292,54250,6,0,P|228:296|264:280,1,80,0|0,1:0|2:0,0:0:0:0:
312,220,54679,2,0,L|324:140,1,80,0|0,1:0|0:0,0:0:0:0:
140,160,55107,2,0,L|116:320,1,160,8|0,0:0|1:0,0:0:0:0:
80,104,55750,2,0,P|47:90|3:94,2,80,8|0|0,0:0|1:0|0:0,0:0:0:0:
312,220,56393,6,0,L|392:232,1,80,0|0,1:0|0:0,0:0:0:0:
480,344,56821,2,0,P|436:348|400:332,1,80,8|0,0:0|1:0,0:0:0:0:
312,220,57250,1,0,1:0:0:0:
428,240,57464,1,0,0:0:0:0:
312,220,57679,6,0,L|152:196,1,160,0|8,1:0|0:0,0:0:0:0:
280,296,58321,1,0,0:0:0:0:
376,168,58536,1,8,0:0:0:0:
368,312,58750,1,0,1:0:0:0:
156,196,58964,1,12,0:0:0:0:
280,296,59179,1,0,1:0:0:0:
300,140,59393,6,0,L|288:60,1,80,4|0,1:0|0:0,0:0:0:0:
156,196,59821,2,0,P|144:232|152:272,1,80,0|0,1:0|0:0,0:0:0:0:
224,240,60250,2,0,L|384:264,1,160,8|0,2:2|2:0,0:0:0:0:
456,236,60893,1,0,0:0:0:0:
383,343,61107,6,0,P|421:356|460:347,1,80,0|0,1:0|0:0,0:0:0:0:
352,176,61536,2,0,P|316:164|276:172,1,80,0|0,1:0|1:0,0:0:0:0:
169,331,61964,1,8,0:0:0:0:
127,187,62179,1,0,1:0:0:0:
224,240,62393,1,0,1:0:0:0:
76,282,62607,1,0,0:0:0:0:
248,316,62821,6,0,L|328:304,1,80,4|0,1:0|0:0,0:0:0:0:
431,207,63250,2,0,P|439:246|427:284,1,80,0|0,1:0|2:0,0:0:0:0:
352,176,63678,2,0,L|328:16,1,160,8|0,2:2|2:0,0:0:0:0:
340,196,64321,5,0,1:0:0:0:
260,216,64536,1,8,2:0:0:0:
244,136,64750,1,0,1:0:0:0:
340,196,64964,2,0,P|348:236|332:280,1,80,0|0,1:0|0:0,0:0:0:0:
268,232,65393,2,0,L|108:208,1,160,8|0,2:2|2:0,0:0:0:0:
244,136,66036,1,0,0:0:0:0:
340,196,66250,6,0,P|348:236|332:280,1,80,4|0,1:2|0:0,0:0:0:0:
268,312,66679,2,0,L|188:300,1,80,0|0,1:0|0:0,0:0:0:0:
232,216,67107,2,0,L|244:136,1,80,8|0,2:0|0:0,0:0:0:0:
328,20,67536,2,0,L|316:100,1,80,0|0,1:0|1:0,0:0:0:0:
340,196,67964,6,0,P|380:204|416:192,1,80,0|0,1:0|1:0,0:0:0:0:
244,136,68393,2,0,P|204:128|167:139,1,80,0|0,1:0|2:0,0:0:0:0:
208,208,68821,2,0,L|184:368,1,160,8|0,2:2|1:0,0:0:0:0:
344,372,69464,1,0,1:0:0:0:
296,308,69679,6,0,L|308:228,1,80,0|0,1:0|0:0,0:0:0:0:
392,112,70107,2,0,L|380:192,1,80,0|0,1:0|2:0,0:0:0:0:
416,264,70536,2,0,P|456:272|493:261,1,80,8|0,2:0|2:0,0:0:0:0:
316,68,70964,2,0,L|304:148,1,80,0|0,1:0|1:0,0:0:0:0:
388,32,71393,6,0,P|424:21|468:28,1,80,8|0,2:0|2:0,0:0:0:0:
448,164,71821,1,0,1:0:0:0:
304,148,72036,1,0,2:0:0:0:
388,32,72250,1,8,0:0:0:0:
448,164,72464,1,0,1:0:0:0:
304,148,72679,2,0,P|293:111|301:71,1,80,0|0,1:0|2:0,0:0:0:0:
228,184,73107,6,0,L|252:344,1,160,4|0,2:1|1:0,0:0:0:0:
328,308,73750,1,0,1:0:0:0:
148,192,73964,2,0,L|68:204,1,80,12|0,2:0|1:0,0:0:0:0:
4,156,74393,2,0,P|-7:119|0:79,1,80,0|0,1:0|2:0,0:0:0:0:
128,204,74821,6,0,P|139:240|131:280,1,80,4|0,1:0|2:0,0:0:0:0:
84,116,75250,2,0,P|120:104|160:112,1,80,0|0,1:0|1:0,0:0:0:0:
296,136,75679,2,0,L|308:56,1,80,12|0,2:0|2:0,0:0:0:0:
252,224,76107,2,0,P|288:235|328:227,1,80,0|0,1:0|1:0,0:0:0:0:
388,176,76536,6,0,L|364:336,1,160,4|0,1:0|1:0,0:0:0:0:
464,204,77179,1,0,1:0:0:0:
464,204,77393,2,0,L|476:284,1,80,12|0,2:0|1:0,0:0:0:0:
316,148,77821,2,0,L|328:68,2,80,0|12|0,1:0|2:0|0:0,0:0:0:0:
92,220,78464,5,0,1:0:0:0:
252,224,78678,2,0,L|240:304,1,80,8|0,2:0|1:0,0:0:0:0:
216,152,79107,2,0,P|179:140|139:148,1,80,8|8,2:0|2:0,0:0:0:0:
92,220,79536,2,0,L|80:300,1,80,8|2,2:0|2:0,0:0:0:0:
144,64,79964,5,2,2:0:0:0:
172,224,80179,1,0,0:0:0:0:
296,120,80393,1,0,1:0:0:0:
164,44,80607,5,2,0:0:0:0:
192,204,80821,1,0,0:0:0:0:
316,100,81036,2,0,L|396:88,1,79.9999999999999,0|0,1:0|1:0,0:0:0:0:
216,180,81464,1,2,0:0:0:0:
216,180,81679,6,0,L|376:204,1,160,4|0,1:0|1:0,0:0:0:0:
448,168,82321,1,0,0:0:0:0:
316,100,82536,2,0,P|305:63|313:23,1,79.9999999999999,8|0,2:0|2:0,0:0:0:0:
432,280,82964,2,0,P|444:316|436:356,1,79.9999999999999,0|0,1:0|1:0,0:0:0:0:
364,324,83393,6,0,L|284:336,1,79.9999999999999,2|0,2:0|2:0,0:0:0:0:
268,176,83821,2,0,L|256:96,1,79.9999999999999,2|0,2:0|2:0,0:0:0:0:
108,24,84250,5,2,0:0:0:0:
200,44,84464,1,2,0:0:0:0:
180,136,84679,2,0,B|152:173|161:259|224:235|234:320|206:358,1,240,0|0,1:0|2:0,0:0:0:0:
256,192,86071,12,0,88536,2:0:0:0:
